Статус Брэда / Brad's Status (2017) WEB-DL 1080p от ExKinoRay | iTunes

Reply to topic
DL-List and Torrent activity [Update пиров]
Size:  3.78 GB   |    Registered:  3 years 2 months   |    Completed:  0 times
Seeders:  20  [  0 KB/s  ]   Leechers:  3  [  0 KB/s  ]   Show peers in full details
 
   
 
 
Author Message

admin ®

Gender: Male

Longevity: 3 years 5 months

Posts: 10227

Post 19-Dec-2017 20:10

[Quote]

Информация о фильме
Название: Статус Брэда
Оригинальное название: Brad's Status
Год выхода: 2017
Жанр: Драма, комедия, музыка
Режиссер: Майк Уайт
В ролях: Бен Стиллер, Остин Абрамс, Дженна Фишер, Майкл Шин, Джемейн Клемент, Люк Уилсон, Шази Раджа, Луиза Ли, Майк Уайт, Хавьер Гробет
О фильме:
Главный герой ленты, Брэд (Стиллер), имеет хорошую работу и любящую, счастливую семью. Однако Брэд становится одержим тем, что у его бывших одноклассников жизнь сложилась куда лучше, чем у него. Герою придется вновь столкнуться со своими и друзьями и чувством собственной несостоятельности, что приведет к самым забавным и нелепым последствиям.

Страна: США
Студия: Montreal Casting, Plan B Entertainment, Sidney Kimmel Entertainment
Продолжительность: 01:37:14
Перевод: Дублированный | iTunes
Файл
Качество: WEB-DL 1080p
Видео: MPEG-4 AVC, 1920x960, 5186 Kbit/s, 25.000 fps
Звук: 48 kHz, AC3, 5.1, 384 Kbps | Дублированный | iTunes | RUS |

Скриншоты

MI

General
Unique ID : 339604676537808512484609235630298754724 (0xFF7D7B48D08145693BD7E2197987EEA4)
Complete name : G:Brad's.Status.2017.WEB-DL.1080p.ExKinoRay.mkv
Format : Matroska
Format version : Version 4 / Version 2
File size : 3.78 GiB
Duration : 1 h 37 min
Overall bit rate : 5 572 kb/s
Movie name : Brad's Status 2017 from ExKinoRay
Encoded date : UTC 2017-12-18 21:02:45
Writing application : mkvmerge v19.0.0 ('Brave Captain') 64-bit
Writing library : libebml v1.3.5 + libmatroska v1.4.8
Video
ID : 1
Format : AVC
Format/Info : Advanced Video Codec
Format profile : High@L4
Format settings : CABAC / 4 Ref Frames
Format settings, CABAC : Yes
Format settings, RefFrames : 4 frames
Codec ID : V_MPEG4/ISO/AVC
Duration : 1 h 37 min
Bit rate : 5 186 kb/s
Width : 1 920 pixels
Height : 960 pixels
Display aspect ratio : 2.000
Frame rate mode : Constant
Frame rate : 25.000 FPS
Color space : YUV
Chroma subsampling : 4:2:0
Bit depth : 8 bits
Scan type : Progressive
Bits/(Pixel*Frame) : 0.113
Stream size : 3.52 GiB (93%)
Language : English
Default : Yes
Forced : No
Color range : Limited
Color primaries : BT.709
Transfer characteristics : BT.709
Matrix coefficients : BT.709
Audio
ID : 2
Format : AC-3
Format/Info : Audio Coding 3
Format settings, Endianness : Big
Codec ID : A_AC3
Duration : 1 h 37 min
Bit rate mode : Constant
Bit rate : 384 kb/s
Channel(s) : 6 channels
Channel positions : Front: L C R, Side: L R, LFE
Sampling rate : 48.0 kHz
Frame rate : 31.250 FPS (1536 SPF)
Bit depth : 16 bits
Compression mode : Lossy
Stream size : 267 MiB (7%)
Title : iTunes
Language : Russian
Service kind : Complete Main
Default : Yes
Forced : No
Menu
00:00:00.000 : en:Глава 1
00:05:56.640 : en:Глава 2
00:12:35.760 : en:Глава 3
00:17:49.200 : en:Глава 4
00:23:39.520 : en:Глава 5
00:29:58.040 : en:Глава 6
00:37:42.200 : en:Глава 7
00:46:47.360 : en:Глава 8
00:53:30.600 : en:Глава 9
01:00:10.840 : en:Глава 10
01:06:32.960 : en:Глава 11
01:11:37.480 : en:Глава 12
01:22:29.120 : en:Глава 13
01:26:44.520 : en:Глава 14
 GOLD TORRENT! DOWNLOAD TRAFFIC DOES NOT CONSIDER! 
Torrent: Registered [ 2017-12-19 20:10 ]   · 0AF360FF42EA21DFD711484F6D29D22888F6F112

Download .torrent

Download

20 KB

Status: checked
Completed: 0 times
Size: 3.78 GB
Поделиться:
terms.php
[Profile] [PM]
Display posts:    
Reply to topic

Current time is: 07-Mar 02:12

All times are UTC + 3



You cannot post new topics in this forum
You cannot reply to topics in this forum
You cannot edit your posts in this forum
You cannot delete your posts in this forum
You cannot vote in polls in this forum
You cannot attach files in this forum
You can download files in this forum