Плохой гений / Bad Genius (2017) BDRip 1080p | L2

Reply to topic
DL-List and Torrent activity [Update пиров]
Size:  11.72 GB   |    Registered:  3 years 2 months   |    Completed:  0 times
Seeders:  21  [  0 KB/s  ]   Show peers in full details
 
   
 
 
Author Message

admin ®

Gender: Male

Longevity: 3 years 4 months

Posts: 10149

Post 18-Dec-2017 23:57

[Quote]

Информация о фильме
Название: Плохой гений
Оригинальное название: Bad Genius
Год выхода: 2017
Жанр: драма, комедия, триллер
Режиссер: Наттавут Пунпирийа
В ролях: Чатимон Чаенгчароэнсакинг, Эисая Хосуван, Тирадон Супапунпинйо, Чанон Сантинаторнкул, Танет Варакулнукрох, Саринрат Томас, Иго Микитас, Пасин Куансатапорн, Сахаджак Бунсанакит, Канджана Винаипанид и др.
Описание: Отличница и медалистка Линн переводится в дорогую престижную школу, где учится золотая молодежь, и сразу заводит дружбу с Грейс, которая не сильна в математике. Однажды Линн помогает лучшей подруге на экзамене, и вот уже выстраивается очередь из богатеньких старшеклассников, желающих платить за экзаменационные ответы. Поскольку отец Линн — обычный школьный учитель, и живут они небогато, девушка решает продавать свои мозги и придумывает хитрую систему передачи правильных ответов.

Страна: Таиланд
Продолжительность: 02:09:53
Перевод: Любительский (двухголосый, закадровый)
Оригинальная аудиодорожка: тайская
Файл
Качество: BDRip 1080p | VietHD
Видео: 1920x804 at 24.000 fps, x264@L4.1, 11,8 mb/s
Аудио 1: 48 kHz, 2 ch, AC-3 @ 192 kbps | Russian
Аудио 2: 48 kHz, 6 ch, DD 5.1 @ 640 kbps | Thai
Субтитры: английские

Скриншоты

MediaInfo

Общее
Уникальный идентификатор : 240507043968138613834681136765306931870 (0xB4EFF8C6AAF2DBC0A8CBF2E9AE7C0A9E)
Полное имя : Bad.Genius.2017.1080p.BluRay.DD5.1.x264-VietHD.mkv
Формат : Matroska
Версия формата : Version 4 / Version 2
Размер файла : 11,7 Гбайт
Продолжительность : 2 ч. 9 м.
Общий поток : 12,9 Мбит/сек
Дата кодирования : UTC 2017-12-16 13:31:22
Программа кодирования : mkvmerge v18.0.0 ('Apricity') 32-bit
Библиотека кодирования : libebml v1.3.5 + libmatroska v1.4.8
DURATION : 02:09:52.988000000
NUMBER_OF_FRAMES : 223744
NUMBER_OF_BYTES : 187031718
_STATISTICS_WRITING_APP : mkvmerge v18.0.0 ('Apricity') 32-bit
_STATISTICS_WRITING_DATE_UTC : 2017-12-16 13:31:22
_STATISTICS_TAGS : BPS DURATION NUMBER_OF_FRAMES NUMBER_OF_BYTES
Видео
Идентификатор : 1
Формат : AVC
Формат/Информация : Advanced Video Codec
Профиль формата : High@L4.1
Параметр CABAC формата : Да
Параметр ReFrames формата : 5 кадров
Идентификатор кодека : V_MPEG4/ISO/AVC
Продолжительность : 2 ч. 9 м.
Битрейт : 11,8 Мбит/сек
Ширина : 1920 пикселей
Высота : 804 пикселя
Соотношение сторон : 2,40:1
Режим частоты кадров : Постоянный
Частота кадров : 24,000 кадра/сек
Цветовое пространство : YUV
Субдискретизация насыщенности : 4:2:0
Битовая глубина : 8 бит
Тип развёртки : Прогрессивная
Бит/(Пиксели*Кадры) : 0.319
Размер потока : 10,7 Гбайт (92%)
Библиотека кодирования : x264 core 152 r2851+58 429492e t_mod_Custom [8-bit@all X86_64]
Настройки программы : cabac=1 / ref=5 / deblock=1:-3:-3 / analyse=0x3:0x133 / me=umh / subme=10 / psy=1 / fade_compensate=0.00 / psy_rd=1.00:0.00 / mixed_ref=1 / me_range=24 / chroma_me=1 / trellis=2 / 8x8dct=1 / cqm=0 / deadzone=21,11 / fast_pskip=0 / chroma_qp_offset=-2 / threads=24 / lookahead_threads=4 / sliced_threads=0 / nr=0 / decimate=0 / interlaced=0 / bluray_compat=0 / constrained_intra=0 / fgo=0 / bframes=7 / b_pyramid=2 / b_adapt=2 / b_bias=0 / direct=3 / weightb=1 / open_gop=0 / weightp=2 / keyint=250 / keyint_min=24 / scenecut=40 / intra_refresh=0 / rc_lookahead=60 / rc=crf / mbtree=0 / crf=21.0000 / qcomp=0.60 / qpmin=0:0:0 / qpmax=69:69:69 / qpstep=4 / vbv_maxrate=62500 / vbv_bufsize=78125 / crf_max=0.0 / nal_hrd=none / filler=0 / ip_ratio=1.30 / pb_ratio=1.20 / aq=3:0.80 / aq-sensitivity=10.00 / aq-factor=1.00:1.00:1.00 / aq2=0 / aq3=0 / zones=0,1985,crf=21/2877,3535,crf=21/12979,13163,crf=14.5/13260,13321,crf=14.5/13380,13483,crf=14.5/13534,13542,crf=14/13552,13565,crf=14/13608,13711,crf=14/13766,13838,crf=14/14088,14131,crf=14/14256,14281,crf=14/14325,14345,crf=14/14775,14869,crf=14/14952,15053,crf=14.5/15103,15189,crf=14.5/15214,15248,crf=14.5/15644,15870,crf=14.5/16190,16378,crf=14/16525,16560,crf=14.5/16704,16716,crf=14.5/16756,17083,crf=14.2/18780,18871,crf=14.2/19232,19540,crf=14/38508,38721,crf=14/39057,39132,crf=14/39634,39966,crf=14.5/40746,40945,crf=14.5/42345,42676,crf=14/84925,85042,crf=14.2/85164,85258,crf=14.2/85326,85388,crf=14.2/85475,85532,crf=14.2/87147,87266,crf=14/88513,89013,crf=14/89082,89374,crf=14/89936,90063,crf=14.5/101030,101269,crf=14.5/112614,112985,crf=14.5/113089,113476,crf=14/113533,113605,crf=14/113698,113795,crf=14/114067,114173,crf=14/114234,114427,crf=14/114591,114711,crf=14/114901,115184,crf=14/116583,116647,crf=15/130257,130555,crf=14.5/130610,130710,crf=14.5/150581,150706,crf=15/157425,157475,crf=14.5/158748,158845,crf=14.5/159501,159660,crf=14.5/178101,178492,crf=14/178493,187031,crf=21
Default : Да
Forced : Нет
Коэффициенты матрицы : BT.709
Аудио #1
Идентификатор : 2
Формат : AC-3
Формат/Информация : Audio Coding 3
Расширение режима : CM (complete main)
Параметр Endianness формата : Big
Идентификатор кодека : A_AC3
Продолжительность : 2 ч. 9 м.
Вид битрейта : Постоянный
Битрейт : 192 Кбит/сек
Каналы : 2 канала
Расположение каналов : Front: L R
Частота : 44,1 КГц
Битовая глубина : 16 бит
Метод сжатия : С потерями
Размер потока : 178 Мбайт (1%)
Язык : Russian
Default : Да
Forced : Нет
Аудио #2
Идентификатор : 3
Формат : AC-3
Формат/Информация : Audio Coding 3
Расширение режима : CM (complete main)
Параметр Endianness формата : Big
Идентификатор кодека : A_AC3
Продолжительность : 2 ч. 9 м.
Вид битрейта : Постоянный
Битрейт : 640 Кбит/сек
Каналы : 6 каналов
Расположение каналов : Front: L C R, Side: L R, LFE
Частота : 48,0 КГц
Битовая глубина : 16 бит
Метод сжатия : С потерями
Размер потока : 595 Мбайт (5%)
Язык : Thai
Default : Нет
Forced : Нет
Текст #1
Идентификатор : 4
Формат : UTF-8
Идентификатор кодека : S_TEXT/UTF8
Идентификатор кодека/Информация : UTF-8 Plain Text
Заголовок : Forced
Язык : English
Default : Нет
Forced : Нет
Текст #2
Идентификатор : 5
Формат : UTF-8
Идентификатор кодека : S_TEXT/UTF8
Идентификатор кодека/Информация : UTF-8 Plain Text
Язык : English
Default : Нет
Forced : Нет
Меню
00:00:00.000 : :Chapter 01
00:09:00.792 : :Chapter 02
00:21:20.208 : :Chapter 03
00:30:46.125 : :Chapter 04
00:41:38.375 : :Chapter 05
00:52:55.917 : :Chapter 06
01:05:51.083 : :Chapter 07
01:16:34.000 : :Chapter 08
01:25:22.417 : :Chapter 09
01:37:36.500 : :Chapter 10
01:49:19.375 : :Chapter 11
01:57:19.542 : :Chapter 12
 GOLD TORRENT! DOWNLOAD TRAFFIC DOES NOT CONSIDER! 
Torrent: Registered [ 2017-12-18 23:57 ]   · 987CA0AC89DDB7396BD21ABCBEB824ABC8099721

Download .torrent

Download

30 KB

Status: checked
Completed: 0 times
Size: 11.72 GB
Поделиться:
terms.php
[Profile] [PM]
Display posts:    
Reply to topic

Current time is: 25-Feb 07:46

All times are UTC + 3



You cannot post new topics in this forum
You cannot reply to topics in this forum
You cannot edit your posts in this forum
You cannot delete your posts in this forum
You cannot vote in polls in this forum
You cannot attach files in this forum
You can download files in this forum