Дозор джунглей / Les as de la jungle (2017) BDRip 1080p | D

Reply to topic
DL-List and Torrent activity [Update пиров]
Size:  1.99 GB   |    Registered:  3 years 4 months   |    Completed:  0 times
Seeders:  77  [  0 KB/s  ]   Leechers:  2  [  0 KB/s  ]   Show peers in full details
 
   
 
 
Author Message

admin ®

Gender: Male

Longevity: 3 years 7 months

Posts: 10827

Post 15-Dec-2017 22:05

[Quote]

Информация о фильме
Название: Дозор джунглей
Оригинальное название: Les as de la jungle
Год выхода: 2017
Жанр: Мультфильм, комедия, приключения, семейный
Режиссер: Дэвид Ало
В ролях: Пол Борн, Филипп Бозо, Паскаль Касанова, Эммануэль Кюртиль, Мишель Меля, Селин Монсарра, Лоран Морто, Жан-Филипп Пюмартин, Барбара Тиссье, Алексис Томассиан
О фильме:
В центре внимания находится бесстрашная команда разношерстных животных под названием «Дозор джунглей»: пингвин Морис, вообразивший себя тигром из-за своего необычного окраса, золотая рыбка, отважная горилла Мигель и умный не по годам малыш-долгопят Гилберт. Вместе с энергичной командой Морис неусыпно следит за порядком и справедливостью, хоть и получается это у героев далеко не всегда. Вскоре мирному устройству и покою в джунглях начинает угрожать хитрая коала Игорь со своей армией туповатых бабуинов, и банда Мориса сделает всё, чтобы остановить коварного и безжалостного врага.

Страна: Франция
Студия: TAT Productions, Master Films, Vanilla Seed, France Télévisions, Centre National de la Cinématographie (CNC), Région Midi-Pyrénées, Procirep, Angoa
Продолжительность: 01:37:06
Перевод: Дублированный (iTunes)
Файл
Кодек: MPEG-4 AVC
Качество: BDRip 1080p
Видео: 2498 Кбит/с, 1920x808, 24.000 fps
Звук: AC3, 6 ch, 384 Кбит/с, Русский
Семпл

MediaInfo

General
Unique ID : 217338382430288743548790696260681723789 (0xA381D991A6D26E36A2148CDD1399EF8D)
Complete name : Dozor.Junglet.2017.BDRip.1080p.mkv
Format : Matroska
Format version : Version 2
File size : 1.99 GiB
Duration : 1h 37mn
Overall bit rate : 2 941 Kbps
Movie name : Les as de la jungle (2017)
Encoded date : UTC 2017-12-14 08:20:34
Writing application : mkvmerge v5.2.1 ('A Far Off Place') built on Jan 7 2012 21:56:27
Writing library : libebml v1.2.3 + libmatroska v1.3.0
Video
ID : 1
Format : AVC
Format/Info : Advanced Video Codec
Format profile : Baseline@L4.0
Format settings, CABAC : No
Format settings, ReFrames : 1 frame
Muxing mode : Header stripping
Codec ID : V_MPEG4/ISO/AVC
Duration : 1h 37mn
Bit rate : 2 498 Kbps
Width : 1 920 pixels
Height : 808 pixels
Display aspect ratio : 2.40:1
Frame rate mode : Constant
Frame rate : 24.000 fps
Color space : YUV
Chroma subsampling : 4:2:0
Bit depth : 8 bits
Scan type : Progressive
Bits/(Pixel*Frame) : 0.067
Stream size : 1.69 GiB (85%)
Title : Les as de la jungle (2017)
Language : French
Default : Yes
Forced : No
Audio
ID : 2
Format : AC-3
Format/Info : Audio Coding 3
Mode extension : CM (complete main)
Format settings, Endianness : Big
Muxing mode : Header stripping
Codec ID : A_AC3
Duration : 1h 37mn
Bit rate mode : Constant
Bit rate : 384 Kbps
Channel(s) : 6 channels
Channel positions : Front: L C R, Side: L R, LFE
Sampling rate : 48.0 KHz
Bit depth : 16 bits
Compression mode : Lossy
Stream size : 267 MiB (13%)
Title : Профессиональный (полное дублирование)
Language : Russian
Default : Yes
Forced : No
Menu
00:00:00.000 : en:00:00:00.000
00:09:29.583 : en:00:09:29.583
00:18:42.333 : en:00:18:42.333
00:24:51.292 : en:00:24:51.292
00:31:55.708 : en:00:31:55.708
00:39:47.917 : en:00:39:47.917
00:48:11.167 : en:00:48:11.167
00:58:14.500 : en:00:58:14.500
01:04:07.167 : en:01:04:07.167
01:12:18.583 : en:01:12:18.583
01:21:19.583 : en:01:21:19.583
01:29:42.875 : en:01:29:42.875

Скриншоты

 GOLD TORRENT! DOWNLOAD TRAFFIC DOES NOT CONSIDER! 
Torrent: Registered [ 2017-12-15 22:05 ]   · 1C6B5AEA929B2CA1C48FCB2F121D4ABFCEB4B16E

Download .torrent

Download

21 KB

Status: checked
Completed: 0 times
Size: 1.99 GB
Поделиться:
terms.php
[Profile] [PM]
Display posts:    
Reply to topic

Current time is: 08-May 19:22

All times are UTC + 3



You cannot post new topics in this forum
You cannot reply to topics in this forum
You cannot edit your posts in this forum
You cannot delete your posts in this forum
You cannot vote in polls in this forum
You cannot attach files in this forum
You can download files in this forum