Полет навигатора / Flight of the Navigator (1986) BDRip 1080p от BT-Club

Reply to topic
DL-List and Torrent activity [Update пиров]
Size:  7.69 GB   |    Registered:  3 years 2 months   |    Completed:  0 times
Seeders:  1  [  0 KB/s  ]   Show peers in full details
 
   
 
 
Author Message

admin ®

Gender: Male

Longevity: 3 years 5 months

Posts: 10157

Post 10-Dec-2017 04:22

[Quote]

Название: Полет навигатора
Оригинальное название: Flight of the Navigator
Год выхода: 1986
Жанр: фантастика, приключения, семейный
Режиссер: Рэндэл Клайзер
В ролях: Джои Крамер, Пол Рубенс, Вероника Картрайт, Клифф Де Янг, Сара Джессика Паркер, Мэтт Адлер, Ховард Хессеман, Роберт Смолл, Элби Уайтакер
О фильме: Двенадцатилетний Дэвид пропадает без вести и самым таинственным образом возвращается восемь лет спустя, ничуть не повзрослевшим. Одновременно с его появлением в окрестностях обнаруживают НЛО. И не случайно! Все эти восемь лет Дэвид провёл в обществе инопланетян и из глубин вселенной принёс знания, ранее не известные человечеству.
За это время Дэвид стал опытным пилотом, и на фантастическом летательном аппарате может улететь, куда только не пожелает! Навигатор отправляется в полный приключений полёт!..
Выпущено: США, Норвегия
Продолжительность: 01:29:34
Перевод: Профессиональный (дублированный) киностудия им. Горького, Профессиональный (многоголосый закадровый) СТС, Любительский (одноголосый закадровый) Ray
Кодек: MPEG4-AVC
Качество: BDRip 1080p
Видео: 1920x1080, 10000 Kbps, 23.976 fps
Аудио #1: 48 kHz, AC3, 2 ch, ~192.00 kbps avg - Дубляж
Аудио #2: 48 kHz, AC3, 2 ch, ~192.00 kbps avg - Английский (комментарии)
Аудио #3: 48 kHz, AC3, 2 ch, ~192.00 kbps avg - СТС
Аудио #4:48 kHz, AC3, 2 ch, ~192.00 kbps avg - Одноголосый
Аудио #5: 48 kHz, DTS, 6 ch, ~1510 kbps avg - Английский
Cубтитры: русские, английские

Скриншоты

MI

Format : Matroska
Format version : Version 2
File size : 7.69 GiB
Duration : 1h 29mn
Overall bit rate : 12.3 Mbps
Encoded date : UTC 2013-08-23 03:50:07
Writing application : mkvmerge v6.2.0 ('Promised Land') built on Apr 28 2013 12:22:01
Writing library : libebml v1.3.0 + libmatroska v1.4.0
Video
ID : 1
Format : AVC
Format/Info : Advanced Video Codec
Format profile : High@L4.1
Format settings, CABAC : Yes
Format settings, ReFrames : 3 frames
Codec ID : V_MPEG4/ISO/AVC
Duration : 1h 29mn
Bit rate mode : Variable
Bit rate : 9 999 Kbps
Maximum bit rate : 14.0 Mbps
Width : 1 920 pixels
Height : 1 080 pixels
Display aspect ratio : 16:9
Frame rate : 23.976 fps
Color space : YUV
Chroma subsampling : 4:2:0
Bit depth : 8 bits
Scan type : Progressive
Bits/(Pixel*Frame) : 0.201
Stream size : 6.11 GiB (79%)
Writing library : x264 core 133 r2334 a3ac64b
Encoding settings : cabac=1 / ref=4 / deblock=1:-1:-1 / analyse=0x3:0x133 / me=tesa / subme=11 / psy=1 / psy_rd=1.00:0.15 / mixed_ref=1 / me_range=24 / chroma_me=1 / trellis=2 / 8x8dct=1 / cqm=0 / deadzone=21,11 / fast_pskip=0 / chroma_qp_offset=-3 / threads=12 / lookahead_threads=1 / sliced_threads=0 / slices=4 / nr=0 / decimate=1 / interlaced=0 / bluray_compat=1 / constrained_intra=0 / bframes=3 / b_pyramid=1 / b_adapt=1 / b_bias=0 / direct=3 / weightb=1 / open_gop=1 / weightp=1 / keyint=230 / keyint_min=1 / scenecut=40 / intra_refresh=0 / rc_lookahead=60 / rc=2pass / mbtree=1 / bitrate=9999 / ratetol=1.0 / qcomp=0.60 / qpmin=0 / qpmax=69 / qpstep=4 / cplxblur=20.0 / qblur=0.5 / vbv_maxrate=14000 / vbv_bufsize=14000 / nal_hrd=vbr / ip_ratio=1.40 / aq=1:1.00
Language : English
Color primaries : BT.709-5, BT.1361, IEC 61966-2-4, SMPTE RP177
Transfer characteristics : BT.709-5, BT.1361
Matrix coefficients : BT.709-5, BT.1361, IEC 61966-2-4 709, SMPTE RP177
Audio #1
ID : 2
Format : AC-3
Format/Info : Audio Coding 3
Format profile : Dolby Digital
Mode extension : CM (complete main)
Codec ID : A_AC3
Duration : 1h 29mn
Bit rate mode : Constant
Bit rate : 192 Kbps
Channel(s) : 2 channels
Channel positions : Front: L R
Sampling rate : 48.0 KHz
Bit depth : 16 bits
Compression mode : Lossy
Stream size : 123 MiB (2%)
Title : Дублированный
Language : Russian
Audio #2
ID : 3
Format : AC-3
Format/Info : Audio Coding 3
Mode extension : CM (complete main)
Codec ID : A_AC3
Duration : 1h 29mn
Bit rate mode : Constant
Bit rate : 192 Kbps
Channel(s) : 2 channels
Channel positions : Front: L R
Sampling rate : 48.0 KHz
Bit depth : 16 bits
Compression mode : Lossy
Stream size : 123 MiB (2%)
Title : Комментарии
Language : English
Audio #3
ID : 4
Format : AC-3
Format/Info : Audio Coding 3
Mode extension : CM (complete main)
Codec ID : A_AC3
Duration : 1h 29mn
Bit rate mode : Constant
Bit rate : 192 Kbps
Channel(s) : 2 channels
Channel positions : Front: L R
Sampling rate : 48.0 KHz
Bit depth : 16 bits
Compression mode : Lossy
Stream size : 123 MiB (2%)
Title : Многоголосый, СТС
Language : Russian
Audio #4
ID : 5
Format : AC-3
Format/Info : Audio Coding 3
Format profile : Dolby Digital
Mode extension : CM (complete main)
Codec ID : A_AC3
Duration : 1h 29mn
Bit rate mode : Constant
Bit rate : 192 Kbps
Channel(s) : 2 channels
Channel positions : Front: L R
Sampling rate : 48.0 KHz
Bit depth : 16 bits
Compression mode : Lossy
Stream size : 123 MiB (2%)
Title : Одноголосый, Ray
Language : Russian
Audio #5
ID : 6
Format : DTS
Format/Info : Digital Theater Systems
Codec ID : A_DTS
Duration : 1h 29mn
Bit rate mode : Constant
Bit rate : 1 510 Kbps
Channel(s) : 2 channels
Channel positions : Front: L R
Sampling rate : 48.0 KHz
Bit depth : 24 bits
Compression mode : Lossy
Stream size : 967 MiB (12%)
Title : Английский
Language : English
Text #1
ID : 7
Format : PGS
Muxing mode : zlib
Codec ID : S_HDMV/PGS
Codec ID/Info : The same subtitle format used on BDs/HD-DVDs
Title : Русскме
Language : Russian
Text #2
ID : 8
Format : PGS
Muxing mode : zlib
Codec ID : S_HDMV/PGS
Codec ID/Info : The same subtitle format used on BDs/HD-DVDs
Title : Английские
Language : English
Menu
00:00:00.000 : en:00:00:00.000
00:04:18.425 : en:00:04:18.425
00:10:31.381 : en:00:10:31.381
00:17:11.781 : en:00:17:11.781
00:21:46.222 : en:00:21:46.222
00:27:00.369 : en:00:27:00.369
00:33:03.982 : en:00:33:03.982
00:39:56.894 : en:00:39:56.894
00:42:44.896 : en:00:42:44.896
00:48:31.158 : en:00:48:31.158
00:54:30.309 : en:00:54:30.309
01:02:04.971 : en:01:02:04.971
01:07:35.218 : en:01:07:35.218
01:10:29.684 : en:01:10:29.684
01:17:41.323 : en:01:17:41.323
01:23:08.233 : en:01:23:08.233
01:26:01.782 : en:01:26:01.782
 GOLD TORRENT! DOWNLOAD TRAFFIC DOES NOT CONSIDER! 
Torrent: Registered [ 2017-12-10 04:22 ]   · 147C0ED61D4053BD222242B1C15B419EF9E812D4

Download .torrent

Download

39 KB

Status: checked
Completed: 0 times
Size: 7.69 GB
Поделиться:
terms.php
[Profile] [PM]
Display posts:    
Reply to topic

Current time is: 27-Feb 03:31

All times are UTC + 3



You cannot post new topics in this forum
You cannot reply to topics in this forum
You cannot edit your posts in this forum
You cannot delete your posts in this forum
You cannot vote in polls in this forum
You cannot attach files in this forum
You can download files in this forum