Последний богатырь (Дмитрий Дьяченко) [2017, комедия, семейный, фэнтези, WEB-DLRip]

Reply to topic
 
Author Message

admin ®

Gender: Male

Longevity: 3 years 5 months

Posts: 10170

Post 08-Dec-2017 04:22

[Quote]

Последний богатырь
Страна: Россия
Жанр: комедия, семейный, фэнтези
Год выпуска: 2017
Продолжительность: 01:53:48
Субтитры: нет-Режиссёр: Дмитрий Дьяченко-В ролях: Виктор Хориняк, Мила Сивацкая, Екатерина Вилкова, Елена Яковлева, Константин Лавроненко, Евгений Дятлов, Александр Семчев-Описание: Иван, обычный парень, по воле случая переносится из современной Москвы в фантастическую страну Белогорье. В этом параллельном мире живут герои русских сказок, волшебство — неотъемлемая часть быта, а спорные вопросы решаются битвой на богатырских мечах. Неожиданно Иван оказывается в самом центре борьбы светлых и темных сил, вот только непонятно, почему главная роль в происходящих событиях, по всеобщему мнению, уготована именно ему.-Качество видео: WEB-DLRip | POSLEDNIJ.BOGATYR.WEB.DL.1080
Формат видео: AVI
Видео: 720x304 (2.37:1), 24.000 fps, XviD build 73 ~2351 kbps avg, 0.45 bit/pixel
Аудио: 48 kHz, AC3 Dolby Digital, 3/2 (L,C,R,l,r) + LFE ch, ~384 kbps-[font=serif1]Скачать сэмпл
-

MediaInfo

Format                      : AVI
Format/Info                 : Audio Video Interleave
Format profile              : OpenDML
File size                   : 2.18 GiB
Duration                    : 1 h 53 min
Overall bit rate            : 2 742 kb/s
Writing application         : VirtualDubMod 1.5.10.3 | www.virtualdub-fr.org || (build 2550/release)
Writing library             : VirtualDubMod build 2550/release
Video
ID                          : 0
Format                      : MPEG-4 Visual
Format profile              : Advanced Simple@L5
Format settings             : BVOP1 / Custom Matrix
Format settings, BVOP       : 1
Format settings, QPel       : No
Format settings, GMC        : No warppoints
Format settings, Matrix     : Custom
Codec ID                    : XVID
Codec ID/Hint               : XviD
Duration                    : 1 h 53 min
Bit rate                    : 2 346 kb/s
Width                       : 720 pixels
Height                      : 304 pixels
Display aspect ratio        : 2.35:1
Frame rate                  : 24.000 FPS
Color space                 : YUV
Chroma subsampling          : 4:2:0
Bit depth                   : 8 bits
Scan type                   : Progressive
Compression mode            : Lossy
Bits/(Pixel*Frame)          : 0.447
Stream size                 : 1.87 GiB (86%)
Writing library             : XviD 73
Audio
ID                          : 1
Format                      : AC-3
Format/Info                 : Audio Coding 3
Codec ID                    : 2000
Duration                    : 1 h 53 min
Bit rate mode               : Constant
Bit rate                    : 384 kb/s
Channel(s)                  : 6 channels
Channel positions           : Front: L C R, Side: L R, LFE
Sampling rate               : 48.0 kHz
Frame rate                  : 31.250 FPS (1536 SPF)
Bit depth                   : 16 bits
Compression mode            : Lossy
Stream size                 : 313 MiB (14%)
Alignment                   : Split accross interleaves
Interleave, duration        : 42  ms (1.00 video frame)
Interleave, preload duratio : 500  ms
Service kind                : Complete Main

Скриншоты

[Profile] [PM]
Display posts:    
Reply to topic

Current time is: 02-Mar 10:45

All times are UTC + 3



You cannot post new topics in this forum
You cannot reply to topics in this forum
You cannot edit your posts in this forum
You cannot delete your posts in this forum
You cannot vote in polls in this forum
You cannot attach files in this forum
You can download files in this forum