Жизнь впереди (2017) WEB-DL 1080p | iTunes

Reply to topic
DL-List and Torrent activity [Update пиров]
Size:  3.34 GB   |    Registered:  3 years 5 months   |    Completed:  0 times
Seeders:  314  [  0 KB/s  ]   Show peers in full details
 
   
 
 
Author Message

admin ®

Gender: Male

Longevity: 3 years 7 months

Posts: 10831

Post 02-Dec-2017 07:03

[Quote]

Информация о фильме
Название: Жизнь впереди
Год выхода: 2017
Жанр: Комедия
Режиссер: Карен Оганесян
В ролях: Светлана Ходченкова, Александр Паль, Павел Прилучный, Артур Смольянинов, Денис Шведов, Егор Корешков, Ольга Медынич, Максим Виторган, Валерия Кожевникова, Юлия Александрова
О фильме:
11-й «Б» впервые собирается вместе через 15 лет после выпуска, и эта встреча для одноклассников — удивительная возможность на короткое время вернуться в прошлое. Старые секреты и личные счеты, обиды и первая любовь оборачиваются водоворотом страстей.

Страна: Россия
Студия: Кинокомпания «Kargo»
Продолжительность: 01:25:05
Перевод: Не требуется | iTunes
Файл
Качество: WEB-DL 1080p
Кодек: MPEG-4 AVC
Видео: 1920x1080 (16:9), 24 fps, MPEG-4 AVC ~ 5118 kbps avg, 0.103 bit/pixel
Аудио: AC3, 48 kHz, 6 ch, ~384.00 kbps avg | русский |
Субтитры: Отсутствуют

Инфо-файл

Общее
Уникальный идентификатор : 227179223045098988615755756067608167077 (0xAAE920789EC5E1EBBF9B7D4A275D82A5)
Полное имя : D:TorrentsЗавершенныеZHIZN_VPEREDI_WEB_DL_1080p-BLUEBIRD.mkv
Формат : Matroska
Версия формата : Version 4 / Version 2
Размер файла : 3,34 Гбайт
Продолжительность : 1 ч. 25 м.
Общий поток : 5614 Кбит/сек
Название фильма : ZHIZN_VPEREDI_WEB_DL_1080p-BLUEBIRD
Дата кодирования : UTC 2017-11-30 18:31:09
Программа кодирования : mkvmerge v6.9.1 ('Blue Panther') 32bit built on Apr 18 2014 18:15:44
Библиотека кодирования : libebml v1.3.0 + libmatroska v1.4.1
Видео
Идентификатор : 1
Формат : AVC
Формат/Информация : Advanced Video Codec
Профиль формата : High@L4
Параметр CABAC формата : Да
Параметр ReFrames формата : 4 кадра
Идентификатор кодека : V_MPEG4/ISO/AVC
Продолжительность : 1 ч. 25 м.
Битрейт : 5118 Кбит/сек
Ширина : 1920 пикселей
Высота : 1080 пикселей
Соотношение сторон : 16:9
Режим частоты кадров : Постоянный
Частота кадров : 24,000 кадра/сек
Цветовое пространство : YUV
Субдискретизация насыщенности : 4:2:0
Битовая глубина : 8 бит
Тип развёртки : Прогрессивная
Бит/(Пиксели*Кадры) : 0.103
Размер потока : 3,04 Гбайт (91%)
Заголовок : ZHIZN_VPEREDI_WEB_DL_1080p-BLUEBIRD
Язык : English
Default : Да
Forced : Нет
Цветовой диапазон : Limited
Основные цвета : BT.709
Характеристики трансфера : BT.709
Коэффициенты матрицы : BT.709
Аудио
Идентификатор : 2
Формат : AC-3
Формат/Информация : Audio Coding 3
Параметр Endianness формата : Big
Идентификатор кодека : A_AC3
Продолжительность : 1 ч. 25 м.
Вид битрейта : Постоянный
Битрейт : 384 Кбит/сек
Каналы : 6 каналов
Расположение каналов : Front: L C R, Side: L R, LFE
Частота : 48,0 КГц
Частота кадров : 31,250 кадров/сек (1536 spf)
Битовая глубина : 16 бит
Метод сжатия : С потерями
Размер потока : 234 Мбайт (7%)
Заголовок : [ORIGINAL] DD 5.1 @ 384 kbps
Язык : Russian
Default : Да
Forced : Нет
Меню
00:00:00.000 : en:Глава 1
00:05:48.375 : en:Глава 2
00:13:01.208 : en:Глава 3
00:19:47.874 : en:Глава 4
00:28:41.915 : en:Глава 5
00:36:57.456 : en:Глава 6
00:42:39.081 : en:Глава 7
00:49:04.789 : en:Глава 8
00:53:59.455 : en:Глава 9
01:01:06.455 : en:Глава 10
01:07:50.330 : en:Глава 11
01:14:56.205 : en:Глава 12

Скриншоты



 GOLD TORRENT! DOWNLOAD TRAFFIC DOES NOT CONSIDER! 
Torrent: Registered [ 2017-12-02 07:03 ]   · 8396EB1A6695B117C81DE0323601B4ADE61C04D7

Download .torrent

Download

18 KB

Status: checked
Completed: 0 times
Size: 3.34 GB
Поделиться:
terms.php
[Profile] [PM]
Display posts:    
Reply to topic

Current time is: 08-May 20:43

All times are UTC + 3



You cannot post new topics in this forum
You cannot reply to topics in this forum
You cannot edit your posts in this forum
You cannot delete your posts in this forum
You cannot vote in polls in this forum
You cannot attach files in this forum
You can download files in this forum