Безумные соседи / A bras ouverts (Филипп де Шоврон / Philippe de Chauveron) [2017, Франция, Бельгия, комедия, WEB-DLRip] Dub

Reply to topic
DL-List and Torrent activity [Update пиров]
Size:  1.46 GB   |    Registered:  3 years 5 months   |    Completed:  0 times

Seeder not seen: Never

 
   
 
 
Author Message

admin ®

Gender: Male

Longevity: 3 years 7 months

Posts: 11128

Post 01-Dec-2017 06:36

[Quote]

Безумные соседи / A bras ouverts
Страна: Франция , Бельгия
Жанр: комедия
Год выпуска: 2017
Продолжительность: 01:28:45-Перевод: Профессиональный (дублированный)
Субтитры: нет
Оригинальная аудиодорожка: нет-Режиссер: Филипп де Шоврон / Philippe de Chauveron-В ролях: Кристиан Клавье, Эри Абиттан, Эльза Зильберштейн, Сириль Леконт, Нану Гарсия, Оскар Берт, Мирела Николау, София Мануша, Иоана Висалон, Никита Драгомир-Описание: В запале предвыборных дебатов рафинированный буржуа Жан-Этьен Фужероль неосторожно бросает с экрана телевизора, что его любимая Франция открыта для любых иммигрантов, они повсюду найдут себе кров и еду, даже в его доме. Не проходит и суток, как у его ворот появляется цыганский табор во главе с наглецом Бабиком. Не пустить — потерять голоса избирателей. Размеренной семейной жизни приходит конец: нежданные гости плавают в крытом бассейне, устраивают концерты во дворе, обживают хозяйский туалет, пьют коллекционные вина и даже пытаются приударить за женой Жан-Этьена.-Качество видео: WEB-DLRip | With.Open.Arms.2017.WEB-DL.1080p.
Формат видео: AVI
Видео: 720x384 (1.88:1), 25 fps, XviD build 73 ~2152 kbps avg, 0.31 bit/pixel
Аудио: 48 kHz, AC3 Dolby Digital, 2/0 (L,R) ch, ~192 kbps-[font=serif1]Скачать сэмпл
-

MediaInfo

Format                      : AVI
Format/Info                 : Audio Video Interleave
File size                   : 1.46 GiB
Duration                    : 1 h 28 min
Overall bit rate            : 2 354 kb/s
Writing application         : VirtualDubMod 1.5.10.3 | www.virtualdub-fr.org || (build 2550/release)
Writing library             : VirtualDubMod build 2550/release
Video
ID                          : 0
Format                      : MPEG-4 Visual
Format profile              : Advanced Simple@L5
Format settings             : BVOP1 / Custom Matrix
Format settings, BVOP       : 1
Format settings, QPel       : No
Format settings, GMC        : No warppoints
Format settings, Matrix     : Custom
Codec ID                    : XVID
Codec ID/Hint               : XviD
Duration                    : 1 h 28 min
Bit rate                    : 2 153 kb/s
Width                       : 720 pixels
Height                      : 384 pixels
Display aspect ratio        : 1.85:1
Frame rate                  : 25.000 FPS
Color space                 : YUV
Chroma subsampling          : 4:2:0
Bit depth                   : 8 bits
Scan type                   : Progressive
Compression mode            : Lossy
Bits/(Pixel*Frame)          : 0.311
Stream size                 : 1.33 GiB (91%)
Writing library             : XviD 73
Audio
ID                          : 1
Format                      : AC-3
Format/Info                 : Audio Coding 3
Format settings, Endianness : Big
Codec ID                    : 2000
Duration                    : 1 h 28 min
Bit rate mode               : Constant
Bit rate                    : 192 kb/s
Channel(s)                  : 2 channels
Channel positions           : Front: L R
Sampling rate               : 48.0 kHz
Frame rate                  : 31.250 FPS (1536 SPF)
Bit depth                   : 16 bits
Compression mode            : Lossy
Stream size                 : 122 MiB (8%)
Alignment                   : Split accross interleaves
Interleave, duration        : 40  ms (1.00 video frame)
Interleave, preload duratio : 500  ms
Service kind                : Complete Main

Скриншоты

 GOLD TORRENT! DOWNLOAD TRAFFIC DOES NOT CONSIDER! 
Torrent: Registered [ 2017-12-01 06:36 ]   · 538380C363CFFCDC7EE59D4CAB8CEE4ADE4D61D0

Download .torrent

Download

15 KB

Status: checked
Completed: 0 times
Size: 1.46 GB
Поделиться:
terms.php
[Profile] [PM]
Display posts:    
Reply to topic

Current time is: 18-May 14:55

All times are UTC + 3



You cannot post new topics in this forum
You cannot reply to topics in this forum
You cannot edit your posts in this forum
You cannot delete your posts in this forum
You cannot vote in polls in this forum
You cannot attach files in this forum
You can download files in this forum