Флоренция и Галерея Уффици 3D в 3Д / Firenze e gli Uffizi 3D/4K 3D (Лука Виотто / Luca Viotto) [2015, Документальный, Живопись, Скульптура, Архитектура, BDrip] Eng, Half OverUnder / Вертикальная анаморфная стереопара

Reply to topic
 
Author Message

admin ®

Gender: Male

Longevity: 3 years 5 months

Posts: 10157

Post 30-Nov-2017 03:30

[Quote]

Флоренция и Галерея Уффици 3D
Firenze e gli Uffizi 3D/4K
Florence and the Uffizi Gallery 3D/4K- Год выпуска: 2015
Страна: Италия (Sky 3D, Magnitudo, Nexo Digital)
Жанр: Документальный, Живопись, Скульптура, Архитектура
Продолжительность: 01:30:58Перевод: ОтсутствуетРежиссер: Лука Виотто / Luca Viotto-В фильме снимались: Саймон Мерреллс (Lorenzo il magnifico), Антонио Натали (директор Галереи Уффици), Марко Чатти, Артуро Галанзино-Описание: Неповторимое путешествие по городу, который когда-то был колыбелью, а сейчас является главным музеем Ренессанса. Этот поразительный город, который может по праву называться музеем под открытым небом, стал альма-матер для легендарных творцов — Микеланджело, Брунеллески, Рафаэля, Леонардо да Винчи и Сандро Боттичелли. Фильм дарит незабываемую встречу с главной итальянской сокровищницей, в которой собраны шедевры этих легендарных мастеров, — галереей Уффици.
Невероятные съемки с применением передовых технологий 3D и 4K, захватывающими дух ракурсами, многоуровневыми панорамами и новейшими технологиями объемного изображения позволяют зрителю погрузиться в великолепие Флоренции — слушать и созерцать, чувствовать и наслаждаться самым выдающимся и знаменитым средоточием гениальных творений в истории искусств.-Доп. инфо: Встретите где-нибудь перевод - сообщайте в топике.-Премьера: 3 ноября 2015 (11 декабря 2015)
. -Качество: BDRip (by Ash61) (с BD 2D/3D Ita)
Контейнер: MKV
Формат 3D: Half OverUnder / Вертикальная анаморфная стереопара
Порядок ракурсов: левый ракурс первый-Видео: AVC / 1920х1080p / 23,976 fps / 16.0 Mbps
Аудио: Английский / AC3 / 48 KHz / 5.1 ch / 640 Kbps (BD 2D/3D Ita)
Субтитры: Отсутствуют

MediaInfo

General
Unique ID : 238681391801652582484306566091612804825 (0xB3905D2CBCAC2E51AEEF3AC6BB92D6D9)
Complete name : D:\FlorenceAndTheUffiziGallery(2015)3D-halfOU(Ash61)Eng.mkv
Format : Matroska
Format version : Version 2
File size : 10.6 GiB
Duration : 1 h 30 min
Overall bit rate : 16.6 Mb/s
Movie name : Флоренция и Галерея Уффици 3D / Firenze e gli Uffizi 3D/4K / Florence and the Uffizi Gallery 3D/4K (2015) in 3D
Encoded date : UTC 2017-10-15 11:48:07
Writing application : mkvmerge v5.8.0 ('No Sleep / Pillow') built on Sep 2 2012 15:37:04
Writing library : libebml v1.2.3 + libmatroska v1.3.0Video
ID : 1
Format : AVC
Format/Info : Advanced Video Codec
Format profile : High@L4.1
Format settings, CABAC : Yes
Format settings, RefFrames : 4 frames
Codec ID : V_MPEG4/ISO/AVC
Duration : 1 h 30 min
Bit rate : 16.0 Mb/s
Width : 1 920 pixels
Height : 1 080 pixels
Display aspect ratio : 16:9
Frame rate mode : Constant
Frame rate : 23.976 (24000/1001) FPS
Color space : YUV
Chroma subsampling : 4:2:0
Bit depth : 8 bits
Scan type : Progressive
Bits/(Pixel*Frame) : 0.322
Stream size : 9.95 GiB (94%)
Title : BDRip by Ash61
Writing library : x264 core 146 r2538 121396c
Encoding settings : cabac=1 / ref=4 / deblock=1:-3:-3 / analyse=0x3:0x113 / me=umh / subme=10 / psy=1 / psy_rd=1.00:0.00 / mixed_ref=1 / me_range=32 / chroma_me=1 / trellis=2 / 8x8dct=1 / cqm=0 / deadzone=21,11 / fast_pskip=0 / chroma_qp_offset=-2 / threads=12 / lookahead_threads=3 / sliced_threads=0 / nr=0 / decimate=0 / interlaced=0 / bluray_compat=0 / constrained_intra=0 / bframes=10 / b_pyramid=2 / b_adapt=2 / b_bias=0 / direct=3 / weightb=1 / open_gop=0 / weightp=2 / keyint=250 / keyint_min=23 / scenecut=40 / intra_refresh=0 / rc=2pass / mbtree=0 / bitrate=16000 / ratetol=1.0 / qcomp=0.70 / qpmin=0 / qpmax=69 / qpstep=4 / cplxblur=20.0 / qblur=0.5 / frame-packing=4 / ip_ratio=1.40 / pb_ratio=1.30 / aq=1:0.70
Language : Italian
Default : Yes
Forced : NoAudio
ID : 2
Format : AC-3
Format/Info : Audio Coding 3
Format settings, Endianness : Big
Codec ID : A_AC3
Duration : 1 h 30 min
Bit rate mode : Constant
Bit rate : 640 kb/s
Channel(s) : 6 channels
Channel positions : Front: L C R, Side: L R, LFE
Sampling rate : 48.0 kHz
Frame rate : 31.250 FPS (1536 SPF)
Bit depth : 16 bits
Compression mode : Lossy
Stream size : 416 MiB (4%)
Language : English
Service kind : Complete Main
Default : Yes
Forced : NoMenu
00:00:00.000 : :1
00:00:05.005 : :2
00:04:21.845 : :3
00:08:47.986 : :4
00:16:49.467 : :5
00:24:37.476 : :6
00:33:46.733 : :7
00:44:11.440 : :8
00:50:04.877 : :9
00:57:47.172 : :10
01:06:53.927 : :11
01:12:29.929 : :12
01:18:36.128 : :13
01:23:01.727 : :14
01:26:35.232 : :15

Для оценки 3Д - Анимированные скрины

























[Profile] [PM]
Display posts:    
Reply to topic

Current time is: 27-Feb 03:03

All times are UTC + 3



You cannot post new topics in this forum
You cannot reply to topics in this forum
You cannot edit your posts in this forum
You cannot delete your posts in this forum
You cannot vote in polls in this forum
You cannot attach files in this forum
You can download files in this forum