Салют-7 (2017) WEB-DL 720p | iTunes

Reply to topic
DL-List and Torrent activity [Update пиров]
Size:  3.29 GB   |    Registered:  3 years 4 months   |    Completed:  0 times
Seeders:  43  [  0 KB/s  ]   Leechers:  8  [  0 KB/s  ]   Show peers in full details
 
   
 
 
Author Message

admin ®

Gender: Male

Longevity: 3 years 6 months

Posts: 10385

Post 29-Nov-2017 06:21

[Quote]

Информация о фильме
Название: Салют-7
Год выхода: 2017
Жанр: Драма, приключения, триллер
Режиссер: Клим Шипенко
В ролях: Владимир Вдовиченков, Павел Деревянко, Александр Самойленко, Виталий Хаев, Оксана Фандера, Любовь Аксенова, Роман Перелыгин, Полина Руденко, Александра Серебрякова, Мария Миронова
О фильме:
Космическая станция «Салют-7», находящаяся на орбите в беспилотном режиме, неожиданно перестает отвечать на сигналы центра управления полетом. Принято решение об отправке на орбиту спасательной экспедиции. Космический экипаж должен найти «мертвую» станцию и впервые в мире провести стыковку с 20-тонной глыбой неуправляемого железа.
Космонавты понимают, что шансов вернуться на Землю у них немного. Но этот рискованный путь — единственно возможный. Они должны не только проникнуть на «Салют-7», но и оживить его. Смогут ли два человека предотвратить неминуемую катастрофу и спасти планету от падения станции? Спасательная экспедиция превращается в опасное испытание. На орбите разворачивается настоящий космический детектив. Фильм основан на реальных событиях: полет к станции «Салют-7» в 1985 году считается самым сложным полетом в истории космонавтики.

Страна: Россия
Студия: Канал Россия, Кинокомпания CTB, Lemon Films Studio, Vita Aktiva
Продолжительность: 01:46:01
Перевод: Не требуется | iTunes
Файл
Качество: WEB-DL 720p
Кодек: MPEG-4 AVC
Видео: 1280x536@960x536 (2,40:1), 25 fps, MPEG-4 AVC ~ 4059 kbps avg, 0.316 bit/pixel
Аудио: AC3, 48 kHz, 6 ch, ~384.00 kbps avg | русский |
Субтитры: Отсутствуют

Инфо-файл

Общее
Уникальный идентификатор : 215567445250797052634413655009399629388 (0xA22CC79FF2959000B7AF6337E9FB664C)
Полное имя : D:TorrentsЗавершенныеSalyut.7.2017..O.WEB-DL.72Op.mkv
Формат : Matroska
Версия формата : Version 2
Размер файла : 3,29 Гбайт
Продолжительность : 1 ч. 46 м.
Общий поток : 4445 Кбит/сек
Дата кодирования : UTC 2017-11-20 19:10:40
Программа кодирования : mkvmerge v8.3.0 ('Over the Horizon') 64bit
Библиотека кодирования : libebml v1.3.1 + libmatroska v1.4.2
Видео
Идентификатор : 1
Формат : AVC
Формат/Информация : Advanced Video Codec
Профиль формата : Main@L3.1
Параметр CABAC формата : Нет
Параметр ReFrames формата : 2 кадра
Идентификатор кодека : V_MPEG4/ISO/AVC
Продолжительность : 1 ч. 46 м.
Битрейт : 4059 Кбит/сек
Ширина : 960 пикселей
Высота : 536 пикселей
Соотношение сторон : 2,40:1
Режим частоты кадров : Постоянный
Частота кадров : 25,000 кадров/сек
Цветовое пространство : YUV
Субдискретизация насыщенности : 4:2:0
Битовая глубина : 8 бит
Тип развёртки : Прогрессивная
Бит/(Пиксели*Кадры) : 0.316
Размер потока : 3,01 Гбайт (91%)
Язык : English
Default : Да
Forced : Нет
Цветовой диапазон : Limited
Основные цвета : BT.709
Характеристики трансфера : BT.709
Коэффициенты матрицы : BT.709
Аудио
Идентификатор : 2
Формат : AC-3
Формат/Информация : Audio Coding 3
Параметр Endianness формата : Big
Идентификатор кодека : A_AC3
Продолжительность : 1 ч. 46 м.
Вид битрейта : Постоянный
Битрейт : 384 Кбит/сек
Каналы : 6 каналов
Расположение каналов : Front: L C R, Side: L R, LFE
Частота : 48,0 КГц
Частота кадров : 31,250 кадров/сек (1536 spf)
Битовая глубина : 16 бит
Метод сжатия : С потерями
Размер потока : 291 Мбайт (9%)
Язык : Russian
Default : Да
Forced : Нет
Меню
00:00:00.000 : en:Глава 1
00:06:40.400 : en:Глава 2
00:11:05.600 : en:Глава 3
00:18:02.120 : en:Глава 4
00:24:19.760 : en:Глава 5
00:30:39.960 : en:Глава 6
00:37:44.000 : en:Глава 7
00:43:57.120 : en:Глава 8
00:49:33.800 : en:Глава 9
00:56:28.360 : en:Глава 10
01:03:01.080 : en:Глава 11
01:09:37.040 : en:Глава 12
01:16:42.440 : en:Глава 13
01:24:57.280 : en:Глава 14
01:31:32.720 : en:Глава 15
01:37:10.960 : en:Глава 16

Скриншоты

 GOLD TORRENT! DOWNLOAD TRAFFIC DOES NOT CONSIDER! 
Torrent: Registered [ 2017-11-29 06:21 ]   · 47BE01F700675D8F06E46218D7640893639358FA

Download .torrent

Download

17 KB

Status: checked
Completed: 0 times
Size: 3.29 GB
Поделиться:
terms.php
[Profile] [PM]
Display posts:    
Reply to topic

Current time is: 15-Apr 11:15

All times are UTC + 3



You cannot post new topics in this forum
You cannot reply to topics in this forum
You cannot edit your posts in this forum
You cannot delete your posts in this forum
You cannot vote in polls in this forum
You cannot attach files in this forum
You can download files in this forum