24 часа на жизнь / 24 Hours to Live (2017) WEB-DL 1080p | iTunes

Reply to topic
DL-List and Torrent activity [Update пиров]
Size:  3.49 GB   |    Registered:  3 years 2 months   |    Completed:  0 times
Seeders:  59  [  0 KB/s  ]   Leechers:  9  [  0 KB/s  ]   Show peers in full details
 
   
 
 
Author Message

admin ®

Gender: Male

Longevity: 3 years 4 months

Posts: 10149

Post 29-Nov-2017 06:11

[Quote]

Информация о фильме
Название: 24 часа на жизнь
Оригинальное название: 24 Hours to Live
Год выхода: 2017
Жанр: Боевик, триллер, фэнтези
Режиссер: Брайан Смрз
В ролях: Рутгер Хауэр, Итэн Хоук, Пол Андерсон, Лиам Каннингэм, Натали Болтт, Таня ван Граан, Хаким Кае-Казим, Сюй Цин, Эйдан Уайток, Эндрю Моргадо
О фильме:
Наемный убийца, на совести которого множество невинных жертв, погибает в процессе выполнения задания. Спецслужбы, используя новейшую секретную технологию, временно оживляют парня, чтобы тот помог собственному убийце завершить начатую миссию – добраться до верхушки криминального синдиката. Закоренелому преступнику, ни во что не ставящему чужую жизнь и упустившему все возможности исправить собственную, выпадает второй шанс. У бывшего киллера есть только 24 часа, чтобы совершить переоценку ценностей и искупить свою вину, а также спасти мир и, возможно, самого себя.

Страна: США, ЮАР, Гонконг
Студия: Fundamental Films, Thunder Road Pictures, Film Afrika Worldwide
Продолжительность: 01:33:36
Перевод: Дублированный | iTunes
Файл
Качество: WEB-DL 1080p
Видео: MPEG-4 AVC, 1912x792, 4567 Kbit/s, 23.976 fps
Звук:
Аудио #01: 48 kHz, AC3, 5.1, 384 Kbps | Дублированный | iTunes | RUS |
Аудио #02: 48 kHz, AC3, 5.1, 384 Kbps | Оригинал | ENG |
Субтитры: Английские

Скриншоты

MI

General
Unique ID : 221153116294401502249632336909548479626 (0xA6608A7832FE0020BB08C7ECA705648A)
Complete name : G:24.Hours.to.Live.2017.WEB-DL.1080p.ExKinoRay.mkv
Format : Matroska
Format version : Version 4 / Version 2
File size : 3.49 GiB
Duration : 1 h 33 min
Overall bit rate : 5 336 kb/s
Encoded date : UTC 2017-11-23 20:36:25
Writing application : mkvmerge v17.0.0 ('Be Ur Friend') 64-bit
Writing library : libebml v1.3.5 + libmatroska v1.4.8
Video
ID : 1
Format : AVC
Format/Info : Advanced Video Codec
Format profile : High@L4
Format settings : CABAC / 5 Ref Frames
Format settings, CABAC : Yes
Format settings, RefFrames : 5 frames
Codec ID : V_MPEG4/ISO/AVC
Duration : 1 h 33 min
Bit rate : 4 567 kb/s
Width : 1 912 pixels
Height : 792 pixels
Display aspect ratio : 2.40:1
Frame rate mode : Constant
Frame rate : 23.976 (24000/1001) FPS
Color space : YUV
Chroma subsampling : 4:2:0
Bit depth : 8 bits
Scan type : Progressive
Bits/(Pixel*Frame) : 0.126
Stream size : 2.99 GiB (86%)
Language : English
Default : Yes
Forced : No
Color range : Limited
Color primaries : BT.709
Transfer characteristics : BT.709
Matrix coefficients : BT.709
Audio #1
ID : 2
Format : AC-3
Format/Info : Audio Coding 3
Format settings, Endianness : Big
Codec ID : A_AC3
Duration : 1 h 33 min
Bit rate mode : Constant
Bit rate : 384 kb/s
Channel(s) : 6 channels
Channel positions : Front: L C R, Side: L R, LFE
Sampling rate : 48.0 kHz
Frame rate : 31.250 FPS (1536 SPF)
Bit depth : 16 bits
Compression mode : Lossy
Stream size : 256 MiB (7%)
Title : iTunes
Language : Russian
Service kind : Complete Main
Default : Yes
Forced : No
Audio #2
ID : 3
Format : AC-3
Format/Info : Audio Coding 3
Format settings, Endianness : Big
Codec ID : A_AC3
Duration : 1 h 33 min
Bit rate mode : Constant
Bit rate : 384 kb/s
Channel(s) : 6 channels
Channel positions : Front: L C R, Side: L R, LFE
Sampling rate : 48.0 kHz
Frame rate : 31.250 FPS (1536 SPF)
Bit depth : 16 bits
Compression mode : Lossy
Stream size : 257 MiB (7%)
Title : Original
Language : English
Service kind : Complete Main
Default : No
Forced : No
Text
ID : 4
Format : UTF-8
Codec ID : S_TEXT/UTF8
Codec ID/Info : UTF-8 Plain Text
Duration : 1 h 26 min
Bit rate : 43 b/s
Count of elements : 982
Stream size : 27.5 KiB (0%)
Language : English
Default : No
Forced : No
Menu
00:00:00.000 : en:1
00:09:27.000 : en:2
00:19:44.000 : en:3
00:28:20.000 : en:4
00:36:35.000 : en:5
00:47:52.000 : en:6
00:58:57.000 : en:7
01:06:56.000 : en:8
01:16:29.000 : en:9
01:27:54.000 : en:10
 GOLD TORRENT! DOWNLOAD TRAFFIC DOES NOT CONSIDER! 
Torrent: Registered [ 2017-11-29 06:11 ]   · F2F27DAAF2ACCB8E633AB554095AA0899C654891

Download .torrent

Download

18 KB

Status: checked
Completed: 0 times
Size: 3.49 GB
Поделиться:
terms.php
[Profile] [PM]
Display posts:    
Reply to topic

Current time is: 24-Feb 23:28

All times are UTC + 3



You cannot post new topics in this forum
You cannot reply to topics in this forum
You cannot edit your posts in this forum
You cannot delete your posts in this forum
You cannot vote in polls in this forum
You cannot attach files in this forum
You can download files in this forum