Валериан и город тысячи планет / Valerian and the City of a Thousand Planets (2017) BDRip 1080p | D, A | iTunes

Reply to topic
DL-List and Torrent activity [Update пиров]
Size:  10.83 GB   |    Registered:  3 years 3 months   |    Completed:  0 times
Seeders:  15  [  0 KB/s  ]   Leechers:  8  [  0 KB/s  ]   Show peers in full details
 
   
 
 
Author Message

admin ®

Gender: Male

Longevity: 3 years 5 months

Posts: 10220

Post 29-Nov-2017 06:00

[Quote]

Информация о фильме
Название: Валериан и город тысячи планет
Оригинальное название: Valerian and the City of a Thousand Planets
Год выхода: 2017
Жанр: Фантастика, фэнтези, боевик, приключения
Режиссер: Люк Бессон
В ролях: Дэйн ДеХаан, Кара Делевинь, Клайв Оуэн, Рианна, Итэн Хоук, Херби Хэнкок, Крис У, Сэм Спруэлл, Ален Шаба, Рутгер Хауэр
О фильме:
2700 год. Валериан и Лорелин — космические спецагенты, которые по долгу службы впутались в подозрительное дело и стали невольными участниками то ли межгалактического заговора, то ли аферы причудливых поселенцев планеты Альфа, прибывших туда из различных миров со всех уголков галактик.

Страна: Франция
Студия: EuropaCorp, Fundamental Films, Grive Productions, Gulf Film, Novo Pictures
Продолжительность: 02:17:03
Перевод(ы):
#1: Дублированный | iTunes
#2: Авторский | Смирнов
Файл
Качество: BDRip 1080p |
Видео: MPEG-4 AVC, 1920x804, 10.1 Mbit/s, 23.976 fps
Звук:
Аудио #01: 48 kHz, AC3, 5.1, 384 Kbps | Дублированный | RUS |
Аудио #02: 48 kHz, AC3, 2.0, 192 Kbps | Авторский (Смирнов (С переводом песен)) | RUS |
Аудио #03: 48 kHz, AC3, 5.1, 640 Kbps | Оригинал | ENG |
Субтитры: Русские (forced, full), английские

Скриншоты

MI

General
Unique ID : 242508659880582098885441753362250690238 (0xB671780F5139BF6EA839B9BCD73D6EBE)
Complete name : G:Valerian.and.the.City.of.a.Thousand.Planets.2017.D.BDRip.1080p.ExKinoRay.mkv
Format : Matroska
Format version : Version 4 / Version 2
File size : 10.8 GiB
Duration : 2 h 17 min
Overall bit rate : 11.3 Mb/s
Movie name : Valerian.and.the.City.of.a.Thousand.Planets.2017.ExKinoRay
Encoded date : UTC 2017-11-28 02:44:07
Writing application : mkvmerge v17.0.0 ('Be Ur Friend') 64-bit
Writing library : libebml v1.3.5 + libmatroska v1.4.8
Video
ID : 1
Format : AVC
Format/Info : Advanced Video Codec
Format profile : High@L4.1
Format settings : CABAC / 5 Ref Frames
Format settings, CABAC : Yes
Format settings, RefFrames : 5 frames
Codec ID : V_MPEG4/ISO/AVC
Duration : 2 h 17 min
Bit rate : 10.1 Mb/s
Width : 1 920 pixels
Height : 804 pixels
Display aspect ratio : 2.40:1
Frame rate mode : Constant
Frame rate : 23.976 (24000/1001) FPS
Color space : YUV
Chroma subsampling : 4:2:0
Bit depth : 8 bits
Scan type : Progressive
Bits/(Pixel*Frame) : 0.273
Stream size : 9.66 GiB (89%)
Writing library : x264 core 148 r2705 3f5ed56
Encoding settings : cabac=1 / ref=5 / deblock=1:-3:-3 / analyse=0x3:0x133 / me=umh / subme=11 / psy=1 / psy_rd=1.05:0.05 / mixed_ref=1 / me_range=48 / chroma_me=1 / trellis=2 / 8x8dct=1 / cqm=0 / deadzone=21,11 / fast_pskip=0 / chroma_qp_offset=-3 / threads=24 / lookahead_threads=4 / sliced_threads=0 / nr=0 / decimate=0 / interlaced=0 / bluray_compat=0 / constrained_intra=0 / bframes=10 / b_pyramid=2 / b_adapt=2 / b_bias=0 / direct=3 / weightb=1 / open_gop=0 / weightp=2 / keyint=240 / keyint_min=23 / scenecut=40 / intra_refresh=0 / rc_lookahead=50 / rc=2pass / mbtree=0 / bitrate=10100 / ratetol=1.0 / qcomp=0.60 / qpmin=0 / qpmax=69 / qpstep=4 / cplxblur=20.0 / qblur=0.5 / vbv_maxrate=50000 / vbv_bufsize=62500 / nal_hrd=none / filler=0 / ip_ratio=1.40 / pb_ratio=1.30 / aq=3:0.80
Language : English
Default : Yes
Forced : No
Audio #1
ID : 2
Format : AC-3
Format/Info : Audio Coding 3
Format settings, Endianness : Big
Codec ID : A_AC3
Duration : 2 h 17 min
Bit rate mode : Constant
Bit rate : 384 kb/s
Channel(s) : 6 channels
Channel positions : Front: L C R, Side: L R, LFE
Sampling rate : 48.0 kHz
Frame rate : 31.250 FPS (1536 SPF)
Bit depth : 16 bits
Compression mode : Lossy
Stream size : 376 MiB (3%)
Title : iTunes
Language : Russian
Service kind : Complete Main
Default : Yes
Forced : No
Audio #2
ID : 3
Format : AC-3
Format/Info : Audio Coding 3
Format settings, Endianness : Big
Codec ID : A_AC3
Duration : 2 h 17 min
Bit rate mode : Constant
Bit rate : 192 kb/s
Channel(s) : 2 channels
Channel positions : Front: L R
Sampling rate : 48.0 kHz
Frame rate : 31.250 FPS (1536 SPF)
Bit depth : 16 bits
Compression mode : Lossy
Stream size : 189 MiB (2%)
Title : AVO
Language : Russian
Service kind : Complete Main
Default : No
Forced : No
Audio #3
ID : 4
Format : AC-3
Format/Info : Audio Coding 3
Format settings, Endianness : Big
Codec ID : A_AC3
Duration : 2 h 17 min
Bit rate mode : Constant
Bit rate : 640 kb/s
Channel(s) : 6 channels
Channel positions : Front: L C R, Side: L R, LFE
Sampling rate : 48.0 kHz
Frame rate : 31.250 FPS (1536 SPF)
Bit depth : 16 bits
Compression mode : Lossy
Stream size : 627 MiB (6%)
Title : Original
Language : English
Service kind : Complete Main
Default : No
Forced : No
Text #1
ID : 5
Format : UTF-8
Codec ID : S_TEXT/UTF8
Codec ID/Info : UTF-8 Plain Text
Duration : 2 h 8 min
Bit rate : 1 b/s
Count of elements : 34
Stream size : 1.11 KiB (0%)
Title : Forced
Language : Russian
Default : Yes
Forced : No
Text #2
ID : 6
Format : UTF-8
Codec ID : S_TEXT/UTF8
Codec ID/Info : UTF-8 Plain Text
Duration : 2 h 6 min
Bit rate : 87 b/s
Count of elements : 1541
Stream size : 81.3 KiB (0%)
Title : Full
Language : Russian
Default : No
Forced : No
Text #3
ID : 7
Format : UTF-8
Codec ID : S_TEXT/UTF8
Codec ID/Info : UTF-8 Plain Text
Duration : 2 h 8 min
Bit rate : 54 b/s
Count of elements : 1569
Stream size : 51.3 KiB (0%)
Title : Full
Language : English
Default : No
Forced : No
Text #4
ID : 8
Format : UTF-8
Codec ID : S_TEXT/UTF8
Codec ID/Info : UTF-8 Plain Text
Duration : 2 h 13 min
Bit rate : 63 b/s
Count of elements : 1906
Stream size : 62.4 KiB (0%)
Title : SDH
Language : English
Default : No
Forced : No
Menu
00:00:00.000 : en:00:00:00.000
00:12:35.713 : en:00:12:35.713
00:17:29.590 : en:00:17:29.590
00:23:35.789 : en:00:23:35.789
00:32:45.839 : en:00:32:45.839
00:41:19.143 : en:00:41:19.143
00:47:15.666 : en:00:47:15.666
00:56:12.411 : en:00:56:12.411
01:04:25.695 : en:01:04:25.695
01:11:27.908 : en:01:11:27.908
01:20:25.070 : en:01:20:25.070
01:28:13.705 : en:01:28:13.705
01:35:53.915 : en:01:35:53.915
01:41:35.047 : en:01:41:35.047
01:53:37.853 : en:01:53:37.853
02:02:22.585 : en:02:02:22.585
 GOLD TORRENT! DOWNLOAD TRAFFIC DOES NOT CONSIDER! 
Torrent: Registered [ 2017-11-29 06:00 ]   · 5D3B581D6303ABBE70102B41717B266F24F071A9

Download .torrent

Download

55 KB

Status: checked
Completed: 0 times
Size: 10.83 GB
Поделиться:
terms.php
[Profile] [PM]
Display posts:    
Reply to topic

Current time is: 05-Mar 19:10

All times are UTC + 3



You cannot post new topics in this forum
You cannot reply to topics in this forum
You cannot edit your posts in this forum
You cannot delete your posts in this forum
You cannot vote in polls in this forum
You cannot attach files in this forum
You can download files in this forum