Робинзон Крузо: Очень обитаемый остров в 3Д / Robinson Crusoe 3D (Винсент Кестелут, Бен Стассен / Vincent Kesteloot, Ben Stassen) [2016, Мультфильм, Комедия, Приключения, BDrip] Half OverUnder / Вертикальная анаморфная стереопара

Reply to topic
 
Author Message

admin ®

Gender: Male

Longevity: 3 years 5 months

Posts: 10220

Post 29-Nov-2017 04:25

[Quote]

-Робинзон Крузо: Очень обитаемый остров
Robinson Crusoe- Год выпуска: 2016
Страна: Франция, Бельгия (StudioCanal, nWave Pictures, Illuminata Pictures)
Жанр: Мультфильм, Комедия, Приключения
Продолжительность: 01:30:28
Перевод: Профессиональный дублированный - Лицензия
Режиссеры: Винсент Кестелут, Бен Стассен / Vincent Kesteloot, Ben Stassen-Роли озвучивали (на русском): Пётр Иващенко (Робинзон Крузо), Сергей Чихачев (Вторник)-Описание: Все знают историю о Робинзоне Крузо, попавшем на необитаемый остров. Однако, как же можно назвать его необитаемым, если он населен разнообразными веселыми животными и птицами? Они очень удивились, впервые встретив это странное существо, и даже приняли его за морское чудовище. Попугаю по кличке Вторник и его друзьям — хамелеону, тапиру и другим обитателям острова предстоит поближе познакомиться с незнакомым зверем «человеком» и вместе с ним пережить массу опасных и веселых приключений.-Доп. инфо: 3Д глубокое, в отличие от большинства современных фильмов - режиссёр тот же, что и снял любимые многими за глубину 3Д Шевели ластами и Шевели ластами 2.-Премьера: 4 февраля 2016 (14 апреля 2016)
.
За исходный BD 3D Custom спасибо -Качество: BDRip (by Ash61) (с BD 3D Ger)
Контейнер: MKV
Формат 3D: Half OverUnder / Вертикальная анаморфная стереопара
Порядок ракурсов: левый ракурс первый-Видео: AVC / 1920х1080p / 23,976 fps / 8574 KbpsАудио:
#1 - Русский / AC3 / 48 KHz / 5.1 ch / 640 Kbps (Дубляж - BD Rus)
#2 - Немецкий / AC3 / 48 KHz / 5.1 ch / 640 Kbps (Дубляж - BD 3D)Субтитры: Отсутствуют

MediaInfo

General
Unique ID : 194663444062757677338650306960596240657 (0x9272D0CB2609EF0D97F11CEF39758911)
Complete name : E:\RobinsonCrusoe(2016)3D-halfOU(Ash61).mkv
Format : Matroska
Format version : Version 2
File size : 6.35 GiB
Duration : 1h 30mn
Overall bit rate : 10.1 Mbps
Movie name : Робинзон Крузо: Очень обитаемый остров / Robinson Crusoe (2016) в 3Д
Encoded date : UTC 2016-07-23 17:36:20
Writing application : mkvmerge v5.8.0 ('No Sleep / Pillow') built on Sep 2 2012 15:37:04
Writing library : libebml v1.2.3 + libmatroska v1.3.0Video
ID : 1
Format : AVC
Format/Info : Advanced Video Codec
Format profile : High@L4.1
Format settings, CABAC : Yes
Format settings, ReFrames : 4 frames
Codec ID : V_MPEG4/ISO/AVC
Duration : 1h 30mn
Bit rate : 8 574 Kbps
Width : 1 920 pixels
Height : 1 080 pixels
Display aspect ratio : 16:9
Frame rate mode : Constant
Frame rate : 23.976 fps
Color space : YUV
Chroma subsampling : 4:2:0
Bit depth : 8 bits
Scan type : Progressive
Bits/(Pixel*Frame) : 0.172
Stream size : 5.42 GiB (85%)
Title : BDRip by Ash61 (с BD 3D Ger)
Writing library : x264 core 146 r2538 121396c
Encoding settings : cabac=1 / ref=4 / deblock=1:-3:-3 / analyse=0x3:0x113 / me=umh / subme=10 / psy=1 / psy_rd=1.00:0.00 / mixed_ref=1 / me_range=32 / chroma_me=1 / trellis=2 / 8x8dct=1 / cqm=0 / deadzone=21,11 / fast_pskip=1 / chroma_qp_offset=-2 / threads=12 / lookahead_threads=3 / sliced_threads=0 / nr=0 / decimate=1 / interlaced=0 / bluray_compat=0 / constrained_intra=0 / bframes=12 / b_pyramid=2 / b_adapt=2 / b_bias=0 / direct=3 / weightb=1 / open_gop=0 / weightp=2 / keyint=250 / keyint_min=23 / scenecut=40 / intra_refresh=0 / rc_lookahead=60 / rc=crf / mbtree=1 / crf=15.0 / qcomp=0.70 / qpmin=0 / qpmax=69 / qpstep=4 / vbv_maxrate=40000 / vbv_bufsize=30000 / crf_max=0.0 / nal_hrd=none / filler=0 / frame-packing=4 / ip_ratio=1.40 / aq=1:0.70
Language : French
Default : Yes
Forced : NoAudio #1
ID : 2
Format : AC-3
Format/Info : Audio Coding 3
Mode extension : CM (complete main)
Format settings, Endianness : Big
Codec ID : A_AC3
Duration : 1h 30mn
Bit rate mode : Constant
Bit rate : 640 Kbps
Channel(s) : 6 channels
Channel positions : Front: L C R, Side: L R, LFE
Sampling rate : 48.0 KHz
Bit depth : 16 bits
Compression mode : Lossy
Stream size : 414 MiB (6%)
Title : Дубляж - BD Rus
Language : Russian
Default : Yes
Forced : NoAudio #2
ID : 3
Format : AC-3
Format/Info : Audio Coding 3
Mode extension : CM (complete main)
Format settings, Endianness : Big
Codec ID : A_AC3
Duration : 1h 30mn
Bit rate mode : Constant
Bit rate : 640 Kbps
Channel(s) : 6 channels
Channel positions : Front: L C R, Side: L R, LFE
Sampling rate : 48.0 KHz
Bit depth : 16 bits
Compression mode : Lossy
Stream size : 414 MiB (6%)
Language : German
Default : No
Forced : NoMenu
00:00:00.000 : :1
00:11:40.323 : :2
00:24:47.067 : :3
00:35:02.266 : :4
00:44:30.208 : :5
00:54:34.271 : :6
01:04:27.280 : :7
01:15:12.632 : :8
01:25:14.650 : :9

Для оценки 3Д - Анимированные скрины




















[Profile] [PM]
Display posts:    
Reply to topic

Current time is: 05-Mar 19:40

All times are UTC + 3



You cannot post new topics in this forum
You cannot reply to topics in this forum
You cannot edit your posts in this forum
You cannot delete your posts in this forum
You cannot vote in polls in this forum
You cannot attach files in this forum
You can download files in this forum