Тайная жизнь домашних животных в 3Д / The Secret Life of Pets 3D (Ярроу Чейни, Крис Рено / Yarrow Cheney, Chris Renaud) [2016, Мультфильм, Комедия, Приключения, Семейный, BDrip] Half OverUnder / Вертикальная анаморфная стереопара

Reply to topic
DL-List and Torrent activity [Update пиров]
Size:  8.4 GB   |    Registered:  3 years 2 months   |    Completed:  0 times
Seeders:  8  [  0 KB/s  ]   Leechers:  8  [  0 KB/s  ]   Show peers in full details
 
   
 
 
Author Message

admin ®

Gender: Male

Longevity: 3 years 5 months

Posts: 10162

Post 29-Nov-2017 04:08

[Quote]

-Тайная жизнь домашних животныхThe Secret Life of Pets
«Думаете, они ждут вас у порога весь день?»- Год выпуска: 2016
Страна: Япония, США (Universal Pictures, Illumination Entertainment, Chris Meledandri Production)
Жанр: Мультфильм, Комедия, Приключения, Семейный
Продолжительность: 01:26:28Перевод: Профессиональный дублированный (Лицензия)Режиссеры: Ярроу Чейни, Крис Рено / Yarrow Cheney, Chris Renaud-Роли озвучивали
Max - Луис С.К. (Сергей Смирнов)
Duke - Эрик Стоунстрит (Юрий Брежнев)
Snowball - Кевин Харт (Илья Исаев)
Gidget - Дженни Слейт (Вероника Саркисова)
Katie - Элли Кемпер (Ирина Киреева)
Tiberius - Альберт Брукс (Тимофей Спивак)
Chloe - Лэйк Белл (Анастасия Лапина)
Pops - Дэна Карви (Алексей Колган)
Buddy - Хэннибал Бёресс (Данил Щебланов)
Mel - Бобби Мойнахан (Константин Карасик)
Norman - Крис Рено (Диомид Виноградов)
Ozone / Reginald - Стив Куган (Иван Калинин / Даниил Эльдаров)
Tattoo - Майкл Битти (Диомид Виноградов)
Maria - Сандра Эчеверриа--Описание: Что делают домашние животные пока хозяева пропадают на работе? С тоской смотрят в окно? Смиренно дремлют на коврике у двери? Как бы не так. Они ведут свою тайную жизнь.--Премьера: 16 июня 2016 (18 августа 2016)
Бюджет: $75 000 000
Кассовые сборы: $871 041 597

Знаете ли вы, что...

  • Первый анимационный фильм в актёрской карьере Эрика Стоунстрита.
  • Третий анимационный фильм, в озвучивании которого принял участие Стив Куган. Он уже озвучивал персонажей мультфильмов «Гадкий я 2» (2013) и «Миньоны» (2015).
  • Первый анимационный фильм, в озвучивании героев которого приняли участие Луис С. К. и Кевин Харт.
  • Четвёртый анимационный фильм, один из героев которого говорит голосом Альберта Брукса. Ранее этот актёр принимал участие в озвучивании полнометражных мультфильмов «В поисках Немо» (2003), «Симпсоны в кино» (2007) и «В поисках Дори» (2016).
  • Дженни Слейт и Луис С. К. вместе играли в телесериале «Парки и зоны отдыха» (2009-2015).
  • В апреле 2016 года актёр и комик Сет Майерс и его пёс по кличке Фрисби снялись в рекламе автомобилей, в которой рекламировалась анимационная комедия «Тайная жизнь домашних животных».
  • В трейлере звучит композиция «Downtown».
  • В одной из сцен на стене в квартире можно заметить постер классического фильма Альфреда Хичкока «Птицы».

    Осторожно, следующие факты содержат спойлеры!

    • Песня, которую слушает белый пудель после ухода хозяина, это композиция «Bounce» американской группы System of a Down.
    • В 2008 году в фильме с Мэттью МакКонахи «Золото дураков» Кевин Харт сыграл злодея по кличке Биг Банни ("bunny» по-английски «кролик»). В «Тайной жизни домашних животных» он озвучил одержимого местью кролика по имени Снежок, предводителя армии выброшенных на улицу домашних питомцев.
    • На автобусе, в котором кролик Снежок едет в трейлере, висит рекламный постер компьютерно-анимационного мюзикла Гарта Дженнингса «Путь к славе» производства компании «Illumination Entertainment», выход которого также запланирован на 2016 год.
Качество: BDRip (by Ash61)
Контейнер: MKV
Формат 3D: Half OverUnder / Вертикальная анаморфная стереопара
Порядок ракурсов: левый ракурс первый-Видео: AVC / 1920х1080p / 23,976 fps / 11.7 MbpsАудио:
#1 - Русский / AC3 / 48 KHz / 5.1 ch / 640 Kbps (Дубляж - BD CEE)
#2 - Украинский / AC3 / 48 KHz / 5.1 ch / 640 Kbps (Дубляж - BD CEE)
#3 - Английский / AC3 / 48 KHz / 5.1 ch / 640 Kbps (Original - BD 3D)Субтитры (SRT):
Вшитые (softsub):
#1 - Русские Форсированные [редакция Ash61] (включены по умолчанию)
#2 - Русские Полные
#3 - Украинские Форсированные [редакция Ash61]
#4 - Украинские Полные
#5 - English Full
#6 - English SDHВнешние (UTF-8):
#1 - Русские Форсированные [редакция Ash61] (включены по умолчанию)
#2 - Украинские Форсированные [редакция Ash61]

MediaInfo

General
Unique ID : 170435214919273981915430118017321689479 (0x8038A0DEC39BF93C818519E940806187)
Complete name : E:\TheSecretLifeOfPets(2016)3D-halfOU(Ash61)\TheSecretLifeOfPets(2016)3D-halfOU(Ash61).mkv
Format : Matroska
Format version : Version 2
File size : 8.40 GiB
Duration : 1h 26mn
Overall bit rate : 13.9 Mbps
Movie name : Тайная жизнь домашних животных / The Secret Life of Pets (2016) в 3Д
Encoded date : UTC 2016-12-10 12:32:31
Writing application : mkvmerge v5.8.0 ('No Sleep / Pillow') built on Sep 2 2012 15:37:04
Writing library : libebml v1.2.3 + libmatroska v1.3.0Video
ID : 1
Format : AVC
Format/Info : Advanced Video Codec
Format profile : High@L4.1
Format settings, CABAC : Yes
Format settings, ReFrames : 4 frames
Codec ID : V_MPEG4/ISO/AVC
Duration : 1h 26mn
Bit rate : 11.7 Mbps
Width : 1 920 pixels
Height : 1 080 pixels
Display aspect ratio : 16:9
Frame rate mode : Constant
Frame rate : 23.976 fps
Color space : YUV
Chroma subsampling : 4:2:0
Bit depth : 8 bits
Scan type : Progressive
Bits/(Pixel*Frame) : 0.235
Stream size : 7.07 GiB (84%)
Title : BDRip by Ash61
Writing library : x264 core 146 r2538 121396c
Encoding settings : cabac=1 / ref=4 / deblock=1:-3:-3 / analyse=0x3:0x113 / me=umh / subme=10 / psy=1 / psy_rd=1.00:0.00 / mixed_ref=1 / me_range=32 / chroma_me=1 / trellis=2 / 8x8dct=1 / cqm=0 / deadzone=21,11 / fast_pskip=1 / chroma_qp_offset=-2 / threads=12 / lookahead_threads=3 / sliced_threads=0 / nr=0 / decimate=1 / interlaced=0 / bluray_compat=0 / constrained_intra=0 / bframes=12 / b_pyramid=2 / b_adapt=2 / b_bias=0 / direct=3 / weightb=1 / open_gop=0 / weightp=2 / keyint=250 / keyint_min=23 / scenecut=40 / intra_refresh=0 / rc_lookahead=60 / rc=crf / mbtree=1 / crf=14.5 / qcomp=0.70 / qpmin=0 / qpmax=69 / qpstep=4 / vbv_maxrate=40000 / vbv_bufsize=30000 / crf_max=0.0 / nal_hrd=none / filler=0 / frame-packing=4 / ip_ratio=1.40 / aq=1:0.70
Language : English
Default : Yes
Forced : NoAudio #1
ID : 2
Format : AC-3
Format/Info : Audio Coding 3
Mode extension : CM (complete main)
Format settings, Endianness : Big
Codec ID : A_AC3
Duration : 1h 26mn
Bit rate mode : Constant
Bit rate : 640 Kbps
Channel(s) : 6 channels
Channel positions : Front: L C R, Side: L R, LFE
Sampling rate : 48.0 KHz
Bit depth : 16 bits
Compression mode : Lossy
Stream size : 396 MiB (5%)
Title : Дубляж - BD CEE
Language : Russian
Default : Yes
Forced : NoAudio #2
ID : 3
Format : AC-3
Format/Info : Audio Coding 3
Mode extension : CM (complete main)
Format settings, Endianness : Big
Codec ID : A_AC3
Duration : 1h 26mn
Bit rate mode : Constant
Bit rate : 640 Kbps
Channel(s) : 6 channels
Channel positions : Front: L C R, Side: L R, LFE
Sampling rate : 48.0 KHz
Bit depth : 16 bits
Compression mode : Lossy
Stream size : 396 MiB (5%)
Title : Дубляж - BD CEE
Language : Ukrainian
Default : No
Forced : NoAudio #3
ID : 4
Format : AC-3
Format/Info : Audio Coding 3
Mode extension : CM (complete main)
Format settings, Endianness : Big
Codec ID : A_AC3
Duration : 1h 26mn
Bit rate mode : Constant
Bit rate : 640 Kbps
Channel(s) : 6 channels
Channel positions : Front: L C R, Side: L R, LFE
Sampling rate : 48.0 KHz
Bit depth : 16 bits
Compression mode : Lossy
Stream size : 396 MiB (5%)
Title : Original - BD 3D
Language : English
Default : No
Forced : NoText #1
ID : 5
Format : UTF-8
Codec ID : S_TEXT/UTF8
Codec ID/Info : UTF-8 Plain Text
Title : Форсированные (редакция Ash61)
Language : Russian
Default : Yes
Forced : NoText #2
ID : 6
Format : UTF-8
Codec ID : S_TEXT/UTF8
Codec ID/Info : UTF-8 Plain Text
Title : Полные - BD 3D CEE
Language : Russian
Default : No
Forced : NoText #3
ID : 7
Format : UTF-8
Codec ID : S_TEXT/UTF8
Codec ID/Info : UTF-8 Plain Text
Title : Форсированные (редакция Ash61)
Language : Ukrainian
Default : No
Forced : NoText #4
ID : 8
Format : UTF-8
Codec ID : S_TEXT/UTF8
Codec ID/Info : UTF-8 Plain Text
Title : Полные - BD CEE
Language : Ukrainian
Default : No
Forced : NoText #5
ID : 9
Format : UTF-8
Codec ID : S_TEXT/UTF8
Codec ID/Info : UTF-8 Plain Text
Title : Full
Language : English
Default : No
Forced : NoText #6
ID : 10
Format : UTF-8
Codec ID : S_TEXT/UTF8
Codec ID/Info : UTF-8 Plain Text
Title : SDH
Language : English
Default : No
Forced : NoMenu
00:00:00.000 : :1
00:05:05.847 : :2
00:09:24.063 : :3
00:13:18.840 : :4
00:18:03.666 : :5
00:22:14.458 : :6
00:28:51.855 : :7
00:32:54.848 : :8
00:36:55.839 : :9
00:42:27.295 : :10
00:44:46.767 : :11
00:50:21.227 : :12
00:54:45.407 : :13
00:59:33.987 : :14
01:02:36.544 : :15
01:07:12.362 : :16
01:13:06.841 : :17
01:16:04.602 : :18
01:18:48.057 : :19
01:19:58.836 : :20

Для оценки 3Д - Анимированные скрины















 GOLD TORRENT! DOWNLOAD TRAFFIC DOES NOT CONSIDER! 
Torrent: Registered [ 2017-11-29 04:08 ]   · 6260B17B49FFDF5B0AAC8E429A6316F054C7D2BF

Download .torrent

Download

43 KB

Status: checked
Completed: 0 times
Size: 8.4 GB
Поделиться:
terms.php
[Profile] [PM]
Display posts:    
Reply to topic

Current time is: 28-Feb 12:09

All times are UTC + 3



You cannot post new topics in this forum
You cannot reply to topics in this forum
You cannot edit your posts in this forum
You cannot delete your posts in this forum
You cannot vote in polls in this forum
You cannot attach files in this forum
You can download files in this forum