Три икса: Мировое господство в 3Д / xXx: Return of Xander Cage 3D (Ди Джей Карузо / D.J. Caruso) [2016, Боевик, Триллер, Приключения, BDrip] Half OverUnder / Вертикальная анаморфная стереопара

Reply to topic
DL-List and Torrent activity [Update пиров]
Size:  15.08 GB   |    Registered:  3 years 4 months   |    Completed:  0 times
Seeders:  100  [  0 KB/s  ]   Leechers:  16  [  0 KB/s  ]   Show peers in full details
 
   
 
 
Author Message

admin ®

Gender: Male

Longevity: 3 years 6 months

Posts: 10385

Post 29-Nov-2017 03:42

[Quote]

-Три икса: Мировое господствоxXx: Return of Xander Cage- Год выпуска: 2016
Страна: США (Paramount Pictures, Revolution Studios, Huahua Media, Shanghai Film Group, RK Films, One Race Films)
Жанр: Боевик, Триллер, Приключения
Продолжительность: 01:46:46
Перевод: Профессиональный дублированный (лицензия)
Режиссер: Ди Джей Карузо / D.J. Caruso-Роли исполняли
Xander Cage - Вин Дизель (Алексей Мясников)
Xiang - Донни Йен (Иван Калинин)
Serena Unger - Дипика Падукон (Варвара Чабан)
Nicks - Крис У (Прохор Чеховской)
Adele Wolff - Руби Роуз (Карина Фадеева)
Talon - Тони Джа (Михаил Тихонов)
Becky Clearidge - Нина Добрев (Мария Иващенко)
Tennyson Torch - Рори МакКанн (Сергей Чихачев)
Jane Marke - Тони Коллетт (Елена Харитонова)
Augustus Gibbons - Сэмюэл Л. Джексон (Валерий Сторожик)
Darius Stone - Айс Кьюб (Илья Исаев)
Neymar - Неймар-Описание: Ксандер Кейдж спустя годы возвращается из добровольного изгнания и попадает в безумный водоворот событий. Он собирает команду безбашенных экстремалов, вместе с которыми ему предстоит найти мощнейшее секретное оружие — «Ящик Пандоры». Действовать нужно быстро: за разработкой охотятся опасные головорезы. Ставки в смертельной игре повышаются, когда выясняется, что мировые правительства вовлечены в кровавый заговор, а на кону — судьба мира.
Описание альтернативное: Правительство США поручает группе чистильщиков бассейнов и прочим любителям экстремальных ощущений найти секретное оружие возмездия под названием "Ящик Пандоры". Во главе команды становится Ксандер Кейдж, принудительно возвращенный из добровольного отпуска. Дело осложняется тем, что на поиски таинственного устройства уже выдвинулись летучие отряды паркурщиков, сборная отъявленных скейтбордистов в тяжелом весе и профессиональные художники стрит-арта. (HectorDragon)

Знаете ли вы, что...

  • Голливудский дебют индийской актрисы и модели Дипики Падуконе.
  • Первый фильм франшизы, в съёмках которого не принимает участия Майкл Руф. Актёра не стало 9 июня 2009 года.
  • Майкл Биспинг сменил в проекте Конора МакГрегора. Оба — бойцы смешанных боевых искусств, оба чемпионы в Ultimate Fighting Championship, каждый в своём весе.
  • Донни Йен сменил Джета Ли, который ушёл из проекта по неизвестным причинам.
  • Это второй случай в карьере Вина Дизеля, когда он пропускает второй фильм франшизы после исполнения главной роли в её первом фильме, а затем возвращается. Дизель не снимался в триллере у Джона Синглтона «Двойной форсаж» (2003).
  • Вин Дизель и Тони Джа вместе снимались в боевике «Форсаж 7» (Джеймс Ван, 2015).
  • Продюсером этого фильма выступила не Columbia, а Paramount Pictures.
  • Роль Гарварда исполнил Крис У — китайский рэпер, певец, актёр и модель, бывший участник китайско-корейской группы EXO.
  • Кинематографический дебют Неймара, бразильского футболиста и олимпийского чемпиона 2016 года.
Премьера: 5 января 2017 (19 января 2017)
Релиз на Blu-Ray (DVD) (Россия): 29 мая 2017
Бюджет: $85 000 000
Кассовые сборы: $346 147 658
.
За исходный BD 3D спасибо и BlurayDude!-Качество: BDRip (by Ash61)
Контейнер: MKV
Формат 3D: Half OverUnder / Вертикальная анаморфная стереопара
Порядок ракурсов: левый ракурс первый-Видео: AVC / 1920х1080p / 23,976 fps / 18.3 MbpsАудио:
#1 - Русский / AC3 / 48 KHz / 5.1 ch / 640 Kbps (Дубляж - BD CEE)
#2 - Украинский / AC3 / 48 KHz / 2 ch / 192 Kbps (Дубляж - iTunes)
#3 - Английский / AC3 / 48 KHz / 5.1 ch / 640 Kbps (Original)Субтитры (SRT):
Вшитые (softsub):
#1 - Русские Форсированные [расширенные] (включены по умолчанию)
#2 - Русские Полные
#3 - Украинские Форсированные [расширенные]
#4 - Украинские Полные
#5 - English Full
#6 - English SDHВнешние (UTF-8):
#1 - Русские Форсированные [расширенные] (включены по умолчанию)
#2 - Русские Полные
#3 - Украинские Форсированные [расширенные]

MediaInfo

General
Unique ID : 229206634700957809684066041525733567175 (0xAC6F97955364548B8DAD6B1675962AC7)
Complete name : E:\xXx.ReturnOfXanderCage(2016)3D-halfOU(Ash61)\xXx.ReturnOfXanderCage(2016)3D-halfOU(Ash61).mkv
Format : Matroska
Format version : Version 2
File size : 15.1 GiB
Duration : 1h 46mn
Overall bit rate : 20.2 Mbps
Movie name : Три икса: Мировое господство / xXx: Return of Xander Cage (2016) в 3D
Encoded date : UTC 2017-05-26 09:03:14
Writing application : mkvmerge v5.8.0 ('No Sleep / Pillow') built on Sep 2 2012 15:37:04
Writing library : libebml v1.2.3 + libmatroska v1.3.0Video
ID : 1
Format : AVC
Format/Info : Advanced Video Codec
Format profile : High@L4.1
Format settings, CABAC : Yes
Format settings, ReFrames : 4 frames
Codec ID : V_MPEG4/ISO/AVC
Duration : 1h 46mn
Bit rate : 18.3 Mbps
Width : 1 920 pixels
Height : 1 080 pixels
Display aspect ratio : 16:9
Frame rate mode : Constant
Frame rate : 23.976 fps
Color space : YUV
Chroma subsampling : 4:2:0
Bit depth : 8 bits
Scan type : Progressive
Bits/(Pixel*Frame) : 0.369
Stream size : 13.7 GiB (91%)
Title : BDRip by Ash61
Writing library : x264 core 146 r2538 121396c
Encoding settings : cabac=1 / ref=4 / deblock=1:-3:-3 / analyse=0x3:0x113 / me=umh / subme=10 / psy=1 / psy_rd=1.00:0.00 / mixed_ref=1 / me_range=32 / chroma_me=1 / trellis=2 / 8x8dct=1 / cqm=0 / deadzone=21,11 / fast_pskip=1 / chroma_qp_offset=-2 / threads=12 / lookahead_threads=3 / sliced_threads=0 / nr=0 / decimate=1 / interlaced=0 / bluray_compat=0 / constrained_intra=0 / bframes=12 / b_pyramid=2 / b_adapt=2 / b_bias=0 / direct=3 / weightb=1 / open_gop=0 / weightp=2 / keyint=250 / keyint_min=23 / scenecut=40 / intra_refresh=0 / rc_lookahead=60 / rc=crf / mbtree=0 / crf=16.5 / qcomp=0.70 / qpmin=0 / qpmax=69 / qpstep=4 / vbv_maxrate=40000 / vbv_bufsize=30000 / crf_max=0.0 / nal_hrd=none / filler=0 / frame-packing=4 / ip_ratio=1.40 / pb_ratio=1.30 / aq=1:0.70
Language : English
Default : Yes
Forced : NoAudio #1
ID : 2
Format : AC-3
Format/Info : Audio Coding 3
Mode extension : CM (complete main)
Format settings, Endianness : Big
Codec ID : A_AC3
Duration : 1h 46mn
Bit rate mode : Constant
Bit rate : 640 Kbps
Channel(s) : 6 channels
Channel positions : Front: L C R, Side: L R, LFE
Sampling rate : 48.0 KHz
Bit depth : 16 bits
Compression mode : Lossy
Stream size : 489 MiB (3%)
Title : Дубляж - BD CEE
Language : Russian
Default : Yes
Forced : NoAudio #2
ID : 3
Format : AC-3
Format/Info : Audio Coding 3
Format profile : Dolby Digital
Mode extension : CM (complete main)
Format settings, Endianness : Big
Codec ID : A_AC3
Duration : 1h 46mn
Bit rate mode : Constant
Bit rate : 192 Kbps
Channel(s) : 2 channels
Channel positions : Front: L R
Sampling rate : 48.0 KHz
Bit depth : 16 bits
Compression mode : Lossy
Stream size : 147 MiB (1%)
Title : Дубляж - iTunes
Language : Ukrainian
Default : No
Forced : NoAudio #3
ID : 4
Format : AC-3
Format/Info : Audio Coding 3
Mode extension : CM (complete main)
Format settings, Endianness : Big
Codec ID : A_AC3
Duration : 1h 46mn
Bit rate mode : Constant
Bit rate : 640 Kbps
Channel(s) : 6 channels
Channel positions : Front: L C R, Side: L R, LFE
Sampling rate : 48.0 KHz
Bit depth : 16 bits
Compression mode : Lossy
Stream size : 489 MiB (3%)
Title : Original
Language : English
Default : No
Forced : NoText #1
ID : 5
Format : UTF-8
Codec ID : S_TEXT/UTF8
Codec ID/Info : UTF-8 Plain Text
Title : Форсированные (расширенные)
Language : Russian
Default : Yes
Forced : NoText #2
ID : 6
Format : UTF-8
Codec ID : S_TEXT/UTF8
Codec ID/Info : UTF-8 Plain Text
Title : Полные
Language : Russian
Default : No
Forced : NoText #3
ID : 7
Format : UTF-8
Codec ID : S_TEXT/UTF8
Codec ID/Info : UTF-8 Plain Text
Title : Форсированные (расширенные)
Language : Ukrainian
Default : No
Forced : NoText #4
ID : 8
Format : UTF-8
Codec ID : S_TEXT/UTF8
Codec ID/Info : UTF-8 Plain Text
Title : Полные
Language : Ukrainian
Default : No
Forced : NoText #5
ID : 9
Format : UTF-8
Codec ID : S_TEXT/UTF8
Codec ID/Info : UTF-8 Plain Text
Title : Full
Language : English
Default : No
Forced : NoText #6
ID : 10
Format : UTF-8
Codec ID : S_TEXT/UTF8
Codec ID/Info : UTF-8 Plain Text
Title : SDH-Colored
Language : English
Default : No
Forced : NoMenu
00:00:00.000 : :1
00:07:09.137 : :2
00:12:00.510 : :3
00:22:38.105 : :4
00:27:56.257 : :5
00:38:27.762 : :6
00:46:59.650 : :7
00:52:45.619 : :8
01:02:10.059 : :9
01:11:50.180 : :10
01:18:35.252 : :11
01:28:42.734 : :12
01:37:57.162 : :13

Для оценки 3Д - Анимированные скрины















 GOLD TORRENT! DOWNLOAD TRAFFIC DOES NOT CONSIDER! 
Torrent: Registered [ 2017-11-29 03:42 ]   · 4260E49FD86929BAF7C50A18C557E8B6FC3948D6

Download .torrent

Download

76 KB

Status: checked
Completed: 0 times
Size: 15.08 GB
Поделиться:
terms.php
[Profile] [PM]
Display posts:    
Reply to topic

Current time is: 15-Apr 11:07

All times are UTC + 3



You cannot post new topics in this forum
You cannot reply to topics in this forum
You cannot edit your posts in this forum
You cannot delete your posts in this forum
You cannot vote in polls in this forum
You cannot attach files in this forum
You can download files in this forum