Призрак в доспехах в 3Д / Ghost in the Shell 3D (Руперт Сандерс / Rupert Sanders) [2017, Фантастика, Боевик, Триллер, Драма, Криминал, Дете, BDrip, 1080p] OverUnder / Вертикальная стереопара

Reply to topic
DL-List and Torrent activity [Update пиров]
Size:  12.17 GB   |    Registered:  3 years 5 months   |    Completed:  1 time

Seeder not seen: 2 years 6 months

Leechers:  2  [  0 KB/s  ]   Show peers in full details
 
   
 
 
Author Message

admin ®

Gender: Male

Longevity: 3 years 7 months

Posts: 11128

Post 28-Nov-2017 04:24

[Quote]

Призрак в доспехах / Ghost in the Shell
Год выпуска: 2017
Страна: США, Индия, Китай, Япония, Гонконг, Великобритания, Новая Зеландия, Канада, Австралия (Paramount Pictures, DreamWorks Pictures, Reliance Entertainment, Shanghai Film Group, Huahua Media)
Жанр: Фантастика, Боевик, Триллер, Драма, Криминал, Детектив
Продолжительность: 01:46:57
Перевод: Профессиональный дублированный(лицензия)
Русские субтитры: есть
Режиссер на русском: Руперт Сандерс / Rupert Sanders
В ролях: Скарлетт Йоханссон, Йохан Филип Асбек, Такеши Китано, Жюльет Бинош, Майкл Питт, Чин Хань, Дануся Самал, Ласарус Ратуэре, Ютака Идзумихара, Таванда Маниймо
Описание: Кибер-технологии подчинили себе все сферы жизни, а самые опасные преступники переместились в виртуальное пространство. Киборг-гибрид, стоящий во главе элитного подразделения полиции, идет по следу могущественного хакера.
Сэмпл: http://sendfile.su/1351043
Качество: BDrip
Контейнер: MKV
Формат 3D: OverUnder / Вертикальная стереопара
Порядок ракурсов: левый ракурс первый
Видео кодек: x264
Аудио кодек: AC3
Видео: AVC / High@L5.0 / 23,976 fps / 1920х2160 / 14,7 Мбит/сек
Аудио: Русский / AC3 / 48 KHz / 5.1 ch / 640 Кбит/сек(лицензия)
Аудио 2: Английский / AC3 / 48 KHz / 5.1 ch / 640 Кбит/сек
Субтитры (SRT)Внешние:Русские Форсированные (iTunes)
ВНИМАНИЕ ! На встроенных ТВ-плеерах работать не будет!!!
ТВ Samsung в названии которого есть надпись Ultra HD , и LG Ultra HD 800 серии, LG C6P, Xiaomi Mi TV 2 воспроизводят полные стереопары встроенными плеерами
Железные плееры на которых воспроизводятся полные стереопары:Popcorn C-200 , Dune HD Smart D1 , Dune HD DUO , Dune HD Smart H1 , Dune HD Smart B1 , Dune HD Max , Dune HD TV-303D , Dune HD Base 3D, Philips HMP7001, Aura HD, MECOOL BB2
Чтобы изображение было на весь экран в плеере выставляем, если рип 1920х1600 - то выставляем 2.35:1 , если 1920х2160 - то выставляем 16:9

MediaInfo

Общее
Уникальный идентификатор : 242888905582058178705095481821981522412 (0xB6BAB39ECF45631EAFD061C5015B39EC)
Полное имя : E:\закачки\Ghost in the Shell.Rip by SeRoGa00\Ghost in the Shell.Rip by SeRoGa00.mkv
Формат : Matroska
Версия формата : Version 2
Размер файла : 12,2 Гбайт
Продолжительность : 1 ч. 46 м.
Общий поток : 16,3 Мбит/сек
Дата кодирования : UTC 2017-07-25 14:48:47
Программа кодирования : mkvmerge v3.4.0 ('Rapunzel') сборка от May 15 2010 09:38:20
Библиотека кодирования : libebml v0.8.0 + libmatroska v0.9.0
Видео
Идентификатор : 1
Формат : AVC
Формат/Информация : Advanced Video Codec
Профиль формата : High@L5.0
Параметр CABAC формата : Да
Параметр ReFrames формата : 4 кадра
Идентификатор кодека : V_MPEG4/ISO/AVC
Продолжительность : 1 ч. 46 м.
Битрейт : 14,7 Мбит/сек
Ширина : 1920 пикселей
Высота : 2160 пикселей
Соотношение сторон : 0,889
Частота кадров : 23,976 кадра/сек
Цветовое пространство : YUV
Субдискретизация насыщенности : 4:2:0
Битовая глубина : 8 бит
Тип развёртки : Прогрессивная
Бит/(Пиксели*Кадры) : 0.148
Размер потока : 11,0 Гбайт (90%)
Заголовок : Rip by SeRoGa00
Библиотека кодирования : x264 core 148 r2762 90a61ec
Настройки программы : cabac=1 / ref=4 / deblock=1:-3:-3 / analyse=0x3:0x113 / me=umh / subme=10 / psy=1 / psy_rd=1.00:0.15 / mixed_ref=1 / me_range=24 / chroma_me=1 / trellis=2 / 8x8dct=1 / cqm=0 / deadzone=21,11 / fast_pskip=1 / chroma_qp_offset=-3 / threads=9 / lookahead_threads=2 / sliced_threads=0 / nr=0 / decimate=1 / interlaced=0 / bluray_compat=0 / constrained_intra=0 / bframes=10 / b_pyramid=2 / b_adapt=2 / b_bias=0 / direct=3 / weightb=1 / open_gop=0 / weightp=2 / keyint=250 / keyint_min=23 / scenecut=40 / intra_refresh=0 / rc_lookahead=60 / rc=crf / mbtree=1 / crf=18.0 / qcomp=0.60 / qpmin=10 / qpmax=69 / qpstep=4 / vbv_maxrate=40000 / vbv_bufsize=40000 / crf_max=0.0 / nal_hrd=none / filler=0 / ip_ratio=1.40 / aq=1:1.00
Язык : English
Default : Нет
Forced : Нет
Аудио #1
Идентификатор : 2
Формат : AC-3
Формат/Информация : Audio Coding 3
Расширение режима : CM (complete main)
Параметр Endianness формата : Big
Идентификатор кодека : A_AC3
Продолжительность : 1 ч. 46 м.
Вид битрейта : Постоянный
Битрейт : 640 Кбит/сек
Каналы : 6 каналов
Расположение каналов : Front: L C R, Side: L R, LFE
Частота : 48,0 КГц
Битовая глубина : 16 бит
Метод сжатия : С потерями
Размер потока : 490 Мбайт (4%)
Язык : Russian
Default : Да
Forced : Нет
Аудио #2
Идентификатор : 3
Формат : AC-3
Формат/Информация : Audio Coding 3
Расширение режима : CM (complete main)
Параметр Endianness формата : Big
Идентификатор кодека : A_AC3
Продолжительность : 1 ч. 46 м.
Вид битрейта : Постоянный
Битрейт : 640 Кбит/сек
Каналы : 6 каналов
Расположение каналов : Front: L C R, Side: L R, LFE
Частота : 48,0 КГц
Битовая глубина : 16 бит
Метод сжатия : С потерями
Размер потока : 490 Мбайт (4%)
Язык : English
Default : Нет
Forced : Нет

Скриншоты


 GOLD TORRENT! DOWNLOAD TRAFFIC DOES NOT CONSIDER! 
Torrent: Registered [ 2017-11-28 04:24 ]   · 28C4CCF79448CC4300F0EF21219C441A9E3468C5

Download .torrent

Download

61 KB

Status: checked
Completed: 1 times
Size: 12.17 GB
Поделиться:
terms.php
[Profile] [PM]
Display posts:    
Reply to topic

Current time is: 18-May 14:50

All times are UTC + 3



You cannot post new topics in this forum
You cannot reply to topics in this forum
You cannot edit your posts in this forum
You cannot delete your posts in this forum
You cannot vote in polls in this forum
You cannot attach files in this forum
You can download files in this forum