Пираты Карибского моря: Мертвецы не рассказывают сказки / Pirates of the Caribbean: Dead Men Tell No Tales (2017) BDRip 720p от KinoGadget | iPad | Лицензия

Reply to topic
 
Author Message

admin ®

Gender: Male

Longevity: 3 years

Posts: 10018

Post 05-Oct-2017 03:47

[Quote]

Название фильма: Пираты Карибского моря: Мертвецы не рассказывают сказки
Оригинальное название: Pirates of the Caribbean: Dead Men Tell No Tales
Год выпуска: 2017
Страна: США
Жанр: фэнтези, боевик, комедия, приключения
Возраст: 16+
Режиссер: Хоаким Роннинг, Эспен Сандберг
В ролях: Джонни Депп, Кира Найтли, Кая Скоделарио, Дэвид Уэнэм, Орландо Блум, Джеффри Раш, Брентон Туэйтс, Хавьер Бардем, Голшифте Фарахани, Стивен Грэм
Описание: Исчерпавший свою удачу капитан Джек Воробей обнаруживает, что за ним охотится его старый неприятель, ужасный капитан Салазар и его призрачные пираты. Они только что сбежали из Дьявольского треугольника и намерены уничтожить всех пиратов, включая Джека. Поможет спастись лишь могущественный артефакт — трезубец Посейдона, который дарует своему обладателю полный контроль над морями.
Продолжительность: 02:09:07
Перевод: Дублированный [Лицензия]
Оригинальная дорожка: есть
Автор рипа:
Качество видео: BDRip 720p Исходник: Blu-Ray Remux (1080p) Формат: mp4
Видео кодек: MPEG-4 AVC Аудио кодек: AAC
Видео: 1280x534 (2.40:1) at 23.976 fps, AVC at 3 443 kbps avg, 0.210 bit/pixel
Аудио №1 Rus: 48.0 KHz, AAC, 2 ch, 128.0 Kbps
Аудио №2 Eng: 48.0 KHz, AAC, 2 ch, 128.0 Kbps
Субтитры: русские (форсированные, полные), английские (полные)
Навигация по главам: есть
Размер: 3.35 GiB

Log x264

avs [info]: 1280x534p 1:1 @ 24000/1001 fps (cfr)
x264 [info]: using SAR=1/1
x264 [info]: using cpu capabilities: MMX2 SSE2Fast SSSE3 Cache64
x264 [info]: profile High, level 4.1
x264 [info]: frame I:1719 Avg QP:16.38 size:113829
x264 [info]: frame P:43011 Avg QP:19.62 size: 34396
x264 [info]: frame B:141018 Avg QP:21.69 size: 11767
x264 [info]: consecutive B-frames: 2.1% 4.0% 8.1% 29.2% 18.6% 33.8% 2.8% 0.7% 0.6%
x264 [info]: mb I I16..4: 4.7% 70.2% 25.1%
x264 [info]: mb P I16..4: 1.3% 12.1% 2.1% P16..4: 41.5% 23.1% 15.5% 0.0% 0.0% skip: 4.5%
x264 [info]: mb B I16..4: 0.1% 1.4% 0.4% B16..8: 43.7% 10.2% 2.7% direct: 6.0% skip:35.6% L0:43.4% L1:45.0% BI:11.6%
x264 [info]: 8x8 transform intra:75.9% inter:68.2%
x264 [info]: coded y,uvDC,uvAC intra: 82.9% 85.0% 54.9% inter: 25.8% 26.6% 2.7%
x264 [info]: i16 v,h,dc,p: 25% 16% 9% 50%
x264 [info]: i8 v,h,dc,ddl,ddr,vr,hd,vl,hu: 18% 14% 16% 6% 9% 10% 10% 8% 9%
x264 [info]: i4 v,h,dc,ddl,ddr,vr,hd,vl,hu: 22% 14% 12% 7% 11% 10% 10% 8% 7%
x264 [info]: i8c dc,h,v,p: 52% 20% 20% 9%
x264 [info]: Weighted P-Frames: Y:6.9% UV:3.9%
x264 [info]: ref P L0: 49.3% 12.5% 14.2% 6.1% 4.9% 3.6% 2.9% 1.7% 1.6% 1.6% 1.4% 0.1% 0.0%
x264 [info]: ref B L0: 81.2% 8.2% 4.0% 2.0% 1.4% 1.1% 0.9% 0.6% 0.4% 0.2%
x264 [info]: ref B L1: 95.9% 4.1%
x264 [info]: kb/s:3443.21
encoded 185748 frames, 1.73 fps, 3443.21 kb/s

MI

General
Complete name : ...Piraty_karibskogo_morya_mertvecy_ne_rasskazyvayut_skazki_2017_KinoGadget.mp4
Format : MPEG-4
Format profile : Base Media
Codec ID : isom (isom)
File size : 3.35 GiB
Duration : 2 h 9 min
Overall bit rate mode : Variable
Overall bit rate : 3 711 kb/s
Movie name : Пираты Карибского моря: Мертвецы не рассказывают сказки | KinoGadget
Performer : Хоаким Роннинг, Эспен Сандберг
Director : Хоаким Роннинг / Эспен Сандберг
Actor : Джонни Депп / Кира Найтли / Кая Скоделарио / Дэвид Уэнэм / Орландо Блум / Джеффри Раш / Брентон Туэйтс / Хавьер Бардем / Голшифте Фарахани / Стивен Грэм
Screenplay by : Джефф Натансон / Терри Россио / Тед Эллиот
Producer : Джерри Брукхаймер / Джозеф М. Карачиоло мл. / Чад Оман
Genre : Action, Adventure, Comedy
ContentType : Short Film
Recorded date : 2017
Encoded date : UTC 2017-09-18 04:11:45
Tagged date : UTC 2017-09-18 04:30:31
Cover : Yes
ContentRating : mpaa|PG-13|300|
LongDeion : Исчерпавший свою удачу капитан Джек Воробей обнаруживает, что за ним охотится его старый неприятель, ужасный капитан Салазар и его призрачные пираты. Они только что сбежали из Дьявольского треугольника и намерены уничтожить всех пиратов, включая Джека. Поможет спастись лишь могущественный артефакт — трезубец Посейдона, который дарует своему обладателю полный контроль над морями.
HDVideo : Yes
Video
ID : 1
Format : AVC
Format/Info : Advanced Video Codec
Format profile : High@L4.1
Format settings, CABAC : Yes
Format settings, ReFrames : 11 frames
Codec ID : avc1
Codec ID/Info : Advanced Video Coding
Duration : 2 h 9 min
Bit rate : 3 443 kb/s
Maximum bit rate : 22.4 Mb/s
Width : 1 280 pixels
Height : 534 pixels
Display aspect ratio : 2.40:1
Frame rate mode : Constant
Frame rate : 23.976 (24000/1001) FPS
Color space : YUV
Chroma subsampling : 4:2:0
Bit depth : 8 bits
Scan type : Progressive
Bits/(Pixel*Frame) : 0.210
Stream size : 3.11 GiB (93%)
Writing library : x264 core 148 r2744 b97ae06
Encoding settings : cabac=1 / ref=11 / deblock=1:-2:-1 / analyse=0x3:0x113 / me=umh / subme=7 / psy=1 / psy_rd=1.00:0.00 / mixed_ref=1 / me_range=32 / chroma_me=1 / trellis=2 / 8x8dct=1 / cqm=0 / deadzone=21,11 / fast_pskip=0 / chroma_qp_offset=-2 / threads=3 / lookahead_threads=1 / sliced_threads=0 / nr=0 / decimate=1 / interlaced=0 / bluray_compat=0 / constrained_intra=0 / bframes=8 / b_pyramid=2 / b_adapt=2 / b_bias=0 / direct=1 / weightb=1 / open_gop=0 / weightp=2 / keyint=250 / keyint_min=25 / scenecut=40 / intra_refresh=0 / rc_lookahead=60 / rc=crf / mbtree=1 / crf=19.0 / qcomp=0.60 / qpmin=0 / qpmax=69 / qpstep=4 / vbv_maxrate=62500 / vbv_bufsize=78125 / crf_max=0.0 / nal_hrd=none / filler=0 / ip_ratio=1.40 / aq=1:1.00
Encoded date : UTC 2017-09-17 21:41:24
Tagged date : UTC 2017-09-18 04:13:50
Audio #1
ID : 2
Format : AAC
Format/Info : Advanced Audio Codec
Format profile : LC
Codec ID : 40
Duration : 2 h 9 min
Bit rate mode : Variable
Bit rate : 128 kb/s
Maximum bit rate : 135 kb/s
Channel(s) : 2 channels
Channel positions : Front: L R
Sampling rate : 48.0 kHz
Frame rate : 46.875 FPS (1024 spf)
Compression mode : Lossy
Stream size : 118 MiB (3%)
Title : Dub
Language : Russian
Encoded date : UTC 2017-09-17 22:23:21
Tagged date : UTC 2017-09-18 04:13:50
Audio #2
ID : 3
Format : AAC
Format/Info : Advanced Audio Codec
Format profile : LC
Codec ID : 40
Duration : 2 h 9 min
Bit rate mode : Variable
Bit rate : 128 kb/s
Maximum bit rate : 135 kb/s
Channel(s) : 2 channels
Channel positions : Front: L R
Sampling rate : 48.0 kHz
Frame rate : 46.875 FPS (1024 spf)
Compression mode : Lossy
Stream size : 118 MiB (3%)
Title : Original
Language : English
Encoded date : UTC 2017-09-17 22:34:22
Tagged date : UTC 2017-09-18 04:13:50
Text #1
ID : 4
Format : Timed Text
Codec ID : tx3g
Duration : 1 h 18 min
Bit rate mode : Variable
Bit rate : 1 b/s
Stream size : 591 Bytes (0%)
Title : Forced
Language : Russian
Forced : No
Encoded date : UTC 2017-09-18 04:13:50
Tagged date : UTC 2017-09-18 04:13:50
Text #2
ID : 5
Format : Timed Text
Codec ID : tx3g
Duration : 2 h 0 min
Bit rate mode : Variable
Bit rate : 77 b/s
Stream size : 67.5 KiB (0%)
Title : Full
Language : Russian
Forced : No
Encoded date : UTC 2017-09-18 04:13:50
Tagged date : UTC 2017-09-18 04:13:50
Text #3
ID : 6
Format : Timed Text
Codec ID : tx3g
Duration : 1 h 58 min
Bit rate mode : Variable
Bit rate : 51 b/s
Stream size : 44.0 KiB (0%)
Title : Full
Language : English
Forced : No
Encoded date : UTC 2017-09-18 04:13:50
Tagged date : UTC 2017-09-18 04:13:50
Menu
00:00:00.000 : 00:00:00.000
00:05:49.516 : 00:05:49.516
00:08:34.222 : 00:08:34.222
00:13:40.820 : 00:13:40.820
00:16:29.155 : 00:16:29.155
00:22:33.852 : 00:22:33.852
00:25:19.268 : 00:25:19.268
00:28:06.101 : 00:28:06.101
00:31:41.775 : 00:31:41.775
00:33:44.814 : 00:33:44.814
00:37:02.053 : 00:37:02.053
00:42:27.712 : 00:42:27.712
00:49:09.071 : 00:49:09.071
00:54:00.279 : 00:54:00.279
00:57:19.394 : 00:57:19.394
01:00:38.718 : 01:00:38.718
01:08:29.939 : 01:08:29.939
01:11:57.021 : 01:11:57.021
01:16:50.940 : 01:16:50.940
01:19:27.471 : 01:19:27.471
01:25:04.808 : 01:25:04.808
01:27:42.174 : 01:27:42.174
01:31:43.790 : 01:31:43.790
01:38:22.814 : 01:38:22.814
01:42:36.776 : 01:42:36.776
01:47:23.562 : 01:47:23.562
01:52:58.689 : 01:52:58.689
01:59:09.934 : 01:59:09.934

Скриншоты

Данный рип предназначен для просмотра на мобильных гаджетах с поддержкой формата mp4
[Profile] [PM]
Display posts:    
Reply to topic

Current time is: 30-Sep 04:42

All times are UTC + 3



You cannot post new topics in this forum
You cannot reply to topics in this forum
You cannot edit your posts in this forum
You cannot delete your posts in this forum
You cannot vote in polls in this forum
You cannot attach files in this forum
You can download files in this forum