Хороший сосед / The Good Neighbor (2021) WEB-DL 1080p от New-Team | L

Reply to topic
DL-List and Torrent activity [Update пиров]
Size:  5.24 GB   |    Registered:  2 days 20 hours   |    Completed:  0 times
Seeders:  5  [  0 KB/s  ]   Leechers:  1  [  0 KB/s  ]   Show peers in full details
 
   
 
 
Author Message

admin ®

Gender: Male

Longevity: 4 years 9 months

Posts: 18801

Location: Россия

Post 23-Jun-2022 13:51

[Quote]

Хороший сосед / The Good Neighbor
Год выпуска: 2021
Выпущено: США, Литва, Altit Media Group, Forma Pro Films, RNG Entertainment
Жанр: Триллер
Режиссер: Штефан Рик
В ролях: Джонатан Риз Майерс, Люк Клеинтенк, Брюс Дэвисон, Элоиза Смит, Иева Флоренс, Регина Разума, Юрис Стренга, Максим Бусел, Том Дж. Бенедикт, Иева Сеглина, Рихард Леперс, Дайнис Грубе, Мария Линарте, Агнесе Цируле, Юрийс Дьяконовс-О фильме: Соседи Дэвид и Роберт случайно сбивают велосипедистку и скрываются с места происшествия. Дэвида в мучает чувство вины, а вот Роберт не страдает от угрызений совести. Встретив Ванэссу, сестру жертвы, Дэвид поддается безрассудной страсти, раньше чем понимает, что Роберт пойдет на все, чтобы защитить их тайну.

Продолжительность: 01:45:25
Перевод: Любительский, многоголосый закадровый
Субтитры: Английские
Формат: MKV
Качество: WEB-DL 1080p
Видео: MPEG-4 AVC, 6604 Кбит/с, 1918x800
Аудио #1: AC3, 2 ch, 128 Кбит/с | RUS |
Аудио #2: AC3, 6 ch, 384 Кбит/с | ENG |

Скриншоты

-

MediaInfo

General
Unique ID : 194665420880192975165383639633543254718 (0x9273324217AAF80DEF826B9DD5EF52BE)
Complete name : E:TorrentsThe.Good.Neighbor.2022.1080p_от New-Team.mkv
Format : Matroska
Format version : Version 4
File size : 5.24 GiB
Duration : 1 h 45 min
Overall bit rate : 7 118 kb/s
Movie name : The.Good.Neighbor.2022.1080p_от New-Team
Encoded date : UTC 2022-06-22 09:52:17
Writing application : mkvmerge v59.0.0 ('Shining Star') 64-bit
Writing library : libebml v1.4.2 + libmatroska v1.6.4
Video
ID : 1
Format : AVC
Format/Info : Advanced Video Codec
Format profile : High@L4
Format settings : CABAC / 5 Ref Frames
Format settings, CABAC : Yes
Format settings, Reference : 5 frames
Codec ID : V_MPEG4/ISO/AVC
Duration : 1 h 45 min
Bit rate : 6 604 kb/s
Width : 1 918 pixels
Height : 800 pixels
Display aspect ratio : 2.40:1
Original display aspect rat : 2.40:1
Frame rate mode : Constant
Frame rate : 23.976 (24000/1001) FPS
Color space : YUV
Chroma subsampling : 4:2:0
Bit depth : 8 bits
Scan type : Progressive
Bits/(Pixel*Frame) : 0.180
Stream size : 4.86 GiB (93%)
Language : English
Default : Yes
Forced : No
Color range : Limited
Color primaries : BT.709
Transfer characteristics : BT.709
Matrix coefficients : BT.709
Audio #1
ID : 2
Format : AC-3
Format/Info : Audio Coding 3
Commercial name : Dolby Digital
Codec ID : A_AC3
Duration : 1 h 45 min
Bit rate mode : Constant
Bit rate : 128 kb/s
Channel(s) : 2 channels
Channel layout : L R
Sampling rate : 48.0 kHz
Frame rate : 31.250 FPS (1536 SPF)
Compression mode : Lossy
Stream size : 96.5 MiB (2%)
Title : MVO - Unknow
Language : Russian
Service kind : Complete Main
Default : Yes
Forced : No
Audio #2
ID : 3
Format : AC-3
Format/Info : Audio Coding 3
Commercial name : Dolby Digital
Codec ID : A_AC3
Duration : 1 h 45 min
Bit rate mode : Constant
Bit rate : 384 kb/s
Channel(s) : 6 channels
Channel layout : L R C LFE Ls Rs
Sampling rate : 48.0 kHz
Frame rate : 31.250 FPS (1536 SPF)
Compression mode : Lossy
Stream size : 290 MiB (5%)
Language : English
Service kind : Complete Main
Default : No
Forced : No
Text #1
ID : 4
Format : UTF-8
Codec ID : S_TEXT/UTF8
Codec ID/Info : UTF-8 Plain Text
Duration : 1 h 44 min
Bit rate : 44 b/s
Count of elements : 1551
Stream size : 33.9 KiB (0%)
Title : SDH
Language : English
Default : No
Forced : No
Text #2
ID : 5
Format : UTF-8
Codec ID : S_TEXT/UTF8
Codec ID/Info : UTF-8 Plain Text
Duration : 1 h 44 min
Bit rate : 37 b/s
Count of elements : 1295
Stream size : 28.8 KiB (0%)
Language : English
Default : No
Forced : No
Menu
00:00:00.000 : Chapter 01
00:08:31.011 : Chapter 02
00:16:59.894 : Chapter 03
00:26:01.728 : Chapter 04
00:33:55.660 : Chapter 05
00:43:51.673 : Chapter 06
00:54:55.462 : Chapter 07
01:05:15.623 : Chapter 08
01:15:17.058 : Chapter 09
01:26:22.140 : Chapter 10
01:41:22.332 : Chapter 11
 GOLD TORRENT! DOWNLOAD TRAFFIC DOES NOT CONSIDER! 
Torrent: Registered [ 2022-06-23 13:51 ]   · B736B87B3C1AA830D43FDE2238DD974736362224

Download .torrent

Download

14 KB

Status: T temporary
Completed: 0 times
Size: 5.24 GB
Поделиться:
terms.php
[Profile] [PM]
Display posts:    
Reply to topic

Current time is: 26-Jun 10:49

All times are UTC + 3



You cannot post new topics in this forum
You cannot reply to topics in this forum
You cannot edit your posts in this forum
You cannot delete your posts in this forum
You cannot vote in polls in this forum
You cannot attach files in this forum
You can download files in this forum