Варяг / The Northman (2022) WEB-DLRip-AVC от DoMiNo | P | NewComers

Reply to topic
DL-List and Torrent activity [Update пиров]
Size:  3.07 GB   |    Registered:  15 days   |    Completed:  0 times

Seeder not seen: Never

Leechers:  1  [  0 KB/s  ]   Show peers in full details
 
   
 
 
Author Message

admin ®

Gender: Male

Longevity: 4 years 8 months

Posts: 18166

Location: Россия

Post 13-May-2022 20:55

[Quote]

Информация о фильме
Название: Варяг
Оригинальное название: The Northman
Год выхода: 2022
Жанр: Фэнтези, боевик, триллер, драма, приключения, история
Режиссер: Роберт Эггерс
В ролях: Александр Скарсгард, Николь Кидман, Клас Банг, Итэн Хоук, Аня Тейлор-Джой, Густав Линд, Эллиотт Роуз, Уиллем Дефо, Фил Мартин, Эльдар Скар и другие.
О фильме:
Фильм основан на саге о Амлете из древнескандинавской хроники, записанной Саксоном Грамматиком. Сюжет рассказывает о том, как викинг Фьолнир убивает своего брата, конунга Хорвендила, и берёт в жёны его супругу Гудрун. Амлет, сын Хорвендила, скрывается и клянётся отомстить убийце отца. Когда Амлет становится старше, он объединяется со славянской ведьмой Ольгой, похищенной викингами, и стремится вернуться домой, чтобы убить Фьолнира.

Страна: США
Студия: Focus Features, Perfect World (Beijing) Pictures Co., Regency Television, Square Peg, Universal Pictures
Продолжительность: 02:17:18
Перевод: Профессиональный (многоголосый, закадровый) | NewComers
Субтитры: Русские (forced - на надписи), английские (forced, full, SDH)
Файл
Формат: Matroska
Качество: WEB-DLRip-AVC | AMZN
Видео: 1024x512 at 23.976 fps, x264@L4.1, ~2433 kbps
Аудио 1: AC3, 6 ch, ~384 kbps - | Русский |
Аудио 2: AC3, 6 ch, ~384 kbps - | Английский |
Формат субтитров: softsub (SRT)
► Без Рекламы!

M/I

x264 [info]: frame I:960 Avg QP:15.99 size: 61634
x264 [info]: frame P:42546 Avg QP:18.28 size: 25110
x264 [info]: frame B:154005 Avg QP:19.86 size: 8944
General
Unique ID : 140649336561853374054037257307091211586 (0x69D013AF57BAD34BCB8BAC1B344D9542)
Complete name : L:The.Northman.2022.AMZN.WEB-DLRip.x264.mkv
Format : Matroska
Format version : Version 4
File size : 3.07 GiB
Duration : 2 h 17 min
Overall bit rate : 3 203 kb/s
Encoded date : UTC 2022-05-12 14:48:33
Writing application : mkvmerge v63.0.0 ('Everything') 64-bit
Writing library : libebml v1.4.2 + libmatroska v1.6.4
Cover : Yes
Attachments : cover.jpg / cover 2.jpg
Video
ID : 1
Format : AVC
Format/Info : Advanced Video Codec
Format profile : High@L4.1
Format settings : CABAC / 10 Ref Frames
Format settings, CABAC : Yes
Format settings, Reference : 10 frames
Codec ID : V_MPEG4/ISO/AVC
Duration : 2 h 17 min
Bit rate : 2 433 kb/s
Width : 1 024 pixels
Height : 512 pixels
Display aspect ratio : 2.000
Frame rate mode : Constant
Frame rate : 23.976 (24000/1001) FPS
Color space : YUV
Chroma subsampling : 4:2:0
Bit depth : 8 bits
Scan type : Progressive
Bits/(Pixel*Frame) : 0.194
Stream size : 2.33 GiB (76%)
Title : -=DoMiNo=-
Writing library : x264 core 164 r3094 bfc87b7
Encoding settings : cabac=1 / ref=10 / deblock=1:-2:-2 / analyse=0x3:0x133 / me=umh / subme=10 / psy=1 / psy_rd=1.07:0.20 / mixed_ref=1 / me_range=32 / chroma_me=1 / trellis=2 / 8x8dct=1 / cqm=0 / deadzone=21,11 / fast_pskip=0 / chroma_qp_offset=-3 / threads=17 / lookahead_threads=4 / sliced_threads=0 / nr=0 / decimate=0 / interlaced=0 / bluray_compat=0 / constrained_intra=0 / bframes=12 / b_pyramid=2 / b_adapt=2 / b_bias=0 / direct=3 / weightb=1 / open_gop=0 / weightp=2 / keyint=250 / keyint_min=23 / scenecut=40 / intra_refresh=0 / rc_lookahead=60 / rc=crf / mbtree=0 / crf=19.0 / qcomp=0.70 / qpmin=0 / qpmax=69 / qpstep=4 / vbv_maxrate=50000 / vbv_bufsize=62500 / crf_max=0.0 / nal_hrd=none / filler=0 / ip_ratio=1.35 / pb_ratio=1.25 / aq=2:1.00
Language : English
Default : Yes
Forced : No
Color range : Limited
Color primaries : BT.709
Transfer characteristics : BT.709
Matrix coefficients : BT.709
Audio #1
ID : 2
Format : AC-3
Format/Info : Audio Coding 3
Commercial name : Dolby Digital
Codec ID : A_AC3
Duration : 2 h 17 min
Bit rate mode : Constant
Bit rate : 384 kb/s
Channel(s) : 6 channels
Channel layout : L R C LFE Ls Rs
Sampling rate : 48.0 kHz
Frame rate : 31.250 FPS (1536 SPF)
Compression mode : Lossy
Stream size : 377 MiB (12%)
Title : MVO_NewComers
Language : Russian
Service kind : Complete Main
Default : Yes
Forced : No
Audio #2
ID : 3
Format : AC-3
Format/Info : Audio Coding 3
Commercial name : Dolby Digital
Codec ID : A_AC3
Duration : 2 h 17 min
Bit rate mode : Constant
Bit rate : 384 kb/s
Channel(s) : 6 channels
Channel layout : L R C LFE Ls Rs
Sampling rate : 48.0 kHz
Frame rate : 31.250 FPS (1536 SPF)
Compression mode : Lossy
Stream size : 377 MiB (12%)
Language : English
Service kind : Complete Main
Default : No
Forced : No
Text #1
ID : 4
Format : UTF-8
Codec ID : S_TEXT/UTF8
Codec ID/Info : UTF-8 Plain Text
Duration : 2 h 0 min
Bit rate : 0 b/s
Count of elements : 8
Stream size : 380 Bytes (0%)
Title : forced
Language : Russian
Default : Yes
Forced : No
Text #2
ID : 5
Format : UTF-8
Codec ID : S_TEXT/UTF8
Codec ID/Info : UTF-8 Plain Text
Duration : 1 h 39 min
Bit rate : 1 b/s
Count of elements : 33
Stream size : 1.10 KiB (0%)
Title : forced
Language : English
Default : No
Forced : No
Text #3
ID : 6
Format : UTF-8
Codec ID : S_TEXT/UTF8
Codec ID/Info : UTF-8 Plain Text
Duration : 2 h 16 min
Bit rate : 25 b/s
Count of elements : 1095
Stream size : 25.8 KiB (0%)
Title : full
Language : English
Default : No
Forced : No
Text #4
ID : 7
Format : UTF-8
Codec ID : S_TEXT/UTF8
Codec ID/Info : UTF-8 Plain Text
Duration : 2 h 16 min
Bit rate : 40 b/s
Count of elements : 1700
Stream size : 40.0 KiB (0%)
Title : SDH
Language : English
Default : No
Forced : No
Menu
00:00:00.000 : :Глава 01
00:12:30.000 : :Глава 02
00:25:00.000 : :Глава 03
00:37:30.000 : :Глава 04
00:50:00.000 : :Глава 05
01:02:30.000 : :Глава 06
01:15:00.000 : :Глава 07
01:27:30.000 : :Глава 08
01:40:00.000 : :Глава 09
01:52:30.000 : :Глава 10
02:05:00.000 : :Глава 11
 GOLD TORRENT! DOWNLOAD TRAFFIC DOES NOT CONSIDER! 
Torrent: Registered [ 2022-05-13 20:55 ]   · 2E19E403351F35F7FAFAE614C7C881201C768429

Download .torrent

Download

62 KB

Status: checked
Completed: 0 times
Size: 3.07 GB
Поделиться:
terms.php
[Profile] [PM]
Display posts:    
Reply to topic

Current time is: 29-May 04:45

All times are UTC + 3



You cannot post new topics in this forum
You cannot reply to topics in this forum
You cannot edit your posts in this forum
You cannot delete your posts in this forum
You cannot vote in polls in this forum
You cannot attach files in this forum
You can download files in this forum