Отличница / Серии: 1-8 из 8 (Оксана Карас) [2017, Детектив, криминальный фильм,, HDTVRip]

Reply to topic
 
Author Message

admin ®

Gender: Male

Longevity: 3 years

Posts: 10017

Post 02-Oct-2017 08:03

[Quote]

Отличница
- Год выпуска: 2017
Производство: DT Production, Эпик Медиа
Жанр: Детектив, криминальный фильм,
Продолжительность: 00:46:00
Субтитры: нет-Режиссёр: Оксана Карас-В ролях: Яна Гладких, Никита Ефремов, Таисия Вилкова, Александр Яценко, Валентин Самохин, Дмитрий Лысенков, Владимир Мишуков, Виталий Коваленко, Юлия Ауг, Мартиньш Вилсонс, Елена Коренева, Игорь Скляр, Елена Руфанова, Анна Цуканова-Котт, Маргарита Адаева, Валерий Кухарешин, Анатолий Хропов-Описание: Апрель 1958 года, выпускница юридического факультета Ленинградского университета, кафедры уголовного процесса и криминалистики Мария Крапивина получает распределение в УГРО центрального районного отдела милиции. Совсем еще девчонка, отличница, дочь интеллигентных родителей попадает в коллектив состоящий из прошедших войну грубоватых и опытных оперативников.
В первый же день Маша хочет уволиться. Но ей в руки попадает информация о предателе в отделе, связанного с крупной и дерзкой бандой. Маша решает, что ее долг остаться и раскрыть "крота". А кроме того, доказать, что она чего-то стоит. Под подозрение попадают все, в том числе начальник отдела опер Шведов, "неотесанный мужлан", в которого Маша неожиданно для себя влюбляется, и с каждым днем все больше и больше...-Сэмпл-Релиз: -Качество: HDTVRip
Формат: AVI
Видео кодек: XviD
Аудио кодек: AC3
Видео: 720x400 (16:9), 25.000 fps, XviD build 73, 1797 Kbps, 0.25 Bits/Pixel
Аудио: 48 kHz, AC3 Dolby Digital, 2 ch, 192 Kbps
Реклама: Нет

MI

General
Complete name : Downloads\Otlichnica.HDTVRip.GeneralFilm\01.Otlichnica.HDTVRip.GeneralFilm.avi
Format : AVI
Format/Info : Audio Video Interleave
File size : 664 MiB
Duration : 46mn 28s
Overall bit rate : 1 998 Kbps
Writing application : VirtualDubMod 1.5.10.3 (build 2550/release)
Writing library : VirtualDubMod build 2550/release
Video #0
ID : 0
Format : MPEG-4 Visual
Format profile : Advanced Simple@L5
Format settings, BVOP : 1
Format settings, QPel : No
Format settings, GMC : No warppoints
Format settings, Matrix : Custom
Codec ID : XVID
Codec ID/Hint : XviD
Duration : 46mn 28s
Bit rate : 1 797 Kbps
Width : 720 pixels
Height : 400 pixels
Display aspect ratio : 16:9
Frame rate : 25.000 fps
Color space : YUV
Chroma subsampling : 4:2:0
Bit depth : 8 bits
Scan type : Progressive
Compression mode : Lossy
Bits/(Pixel*Frame) : 0.250
Stream size : 597 MiB (90%)
Writing library : XviD 73
Audio #1
ID : 1
Format : AC-3
Format/Info : Audio Coding 3
Mode extension : CM (complete main)
Format settings, Endianness : Big
Codec ID : 2000
Duration : 46mn 28s
Bit rate mode : Constant
Bit rate : 192 Kbps
Channel(s) : 2 channels
Channel positions : Front: L R
Sampling rate : 48.0 KHz
Bit depth : 16 bits
Compression mode : Lossy
Stream size : 63.8 MiB (10%)
Alignment : Split accross interleaves
Interleave, duration : 40 ms (1.00 video frame)
Interleave, preload duration : 500 ms

Скриншоты

[Profile] [PM]
Display posts:    
Reply to topic

Current time is: 28-Sep 08:57

All times are UTC + 3



You cannot post new topics in this forum
You cannot reply to topics in this forum
You cannot edit your posts in this forum
You cannot delete your posts in this forum
You cannot vote in polls in this forum
You cannot attach files in this forum
You can download files in this forum