Книга Бобы Фетта / The Book of Boba Fett [01x01-02 из 07] (2021) WEB-DL 1080p | HDrezka Studio

Reply to topic
DL-List and Torrent activity [Update пиров]
Size:  4.61 GB   |    Registered:  12 days   |    Completed:  0 times
Seeders:  5  [  0 KB/s  ]   Leechers:  1  [  0 KB/s  ]   Show peers in full details
 
   
 
 
Author Message

admin ®

Gender: Male

Longevity: 4 years 3 months

Posts: 14738

Post 07-Jan-2022 00:59

[Quote]

Информация о фильме
Название: Книга Бобы Фетта
Оригинальное название: The Book of Boba Fett
Год выхода: 2021
Жанр: фантастика, боевик, приключения
Режиссер: Роберт Родригес, Джон Фавро, Дэйв Филони
В ролях: Темуэра Моррисон, Мин-На Вэнь, Мэтт Берри, Дэвид Паскуэзи, Дженнифер Билз, Дэниэл Логан, Уэсли Киммел, Xavier Jimenez, Джоэнна Беннетт, Доун Дининжер и другие
О фильме: «Книга Бобы Фетта» — это новый игровой сериал по вселенной Star Wars, вышедший на платформе Disney+. Сюжет фантастического боевика сосредоточен на приключениях легендарного охотника за головами, который впервые появился на экранах в оригинальной трилогии «Звездных войн» и приобрел популярность межгалактического масштаба среди фанатов. Сольный проект о Бобе Фетте, роль которого исполнил уже знакомый зрителям Темуэра Моррисон, не только приоткроет завесу тайны, окружающую этого неоднозначного и интересного персонажа, но и расскажет о жизни в криминальном подполье Татуина, лидерстве, борьбе за власть и уважении. Работу над шоу, которое является спин-оффом «Мандалорца», возглавлял Роберт Родригес, ранее участвовавший в создании истории о Дине Джарине и малыше Грогу в качестве постановщика. Родригес успел побывать и в режиссерском кресле «Книги Бобы Фетта», которое он разделил с создателем «Мандалорца» Джоном Фавро, Дэйвом Филони («Звездные войны: Бракованная партия»), Стеф Грин («Миллиарды», «Мотель Бейтса»), Кевином Танчароэном («Смертельная битва: Наследие», «Агенты Щ.И.Т.») и Брайс Даллас Ховард («Черное зеркало»).
«Её бросили умирать в песках Татуина, как и меня. Но судьба иногда вмешивается, чтобы спасти несчастных», — сказал как-то Боба Фетт (Темуэра Моррисон) о профессиональной наемнице Феннек Шэнд (Минг-На). Наверное, их встреча действительно была судьбоносной, ибо даже пережив ужасные испытания, эти двое не намерены останавливаться. С помощью своей союзницы Боба стал новым правителем преступной империи Джаббы Хатта. Таким раскладом остались довольны далеко не все... На троне во дворце Хатта сидит именно Фетт, однако разве они делают человека настоящим лидером? Одни считают, что власть приходит вместе со страхом, но Боба убежден, что сможет избежать лишнего насилия и будет контролировать криминальный мир Татуина с помощью уважения. Однако после нападения наемных убийц бывшему охотнику за головами придется пересмотреть свои взгляды: возможно, в опасности не только авторитет Бобы, но и его жизнь.

Страна: США
Продолжительность: ~00:38:00 серия
Перевод: Профессиональный (многоголосый, закадровый) HDrezka Studio
Файл
Качество: WEB-DL 1080p | The.Book.of.Boba.Fett.S01.1080p.DSNP.WEBRip.DDP5.1.x264-NOSiViD
Формат: Matroska
Видео: 1920x1080 at 24.000 fps, MPEG4-AVC, ~6000 kbps avg
Аудио#1: Russian: 48 kHz, AC3, 3/2 (L,C,R,l,r) + LFE ch, ~448 kbps avg |Многоголосый закадровый, HDrezka Studio|
Аудио#2: English: 48 kHz, E-AC3 JOC, 3/2 (L,C,R,l,r) + LFE ch, ~768 kbps avg
Субтитры: Russian (Forced, Full |Где тексты Лебовски?|), English (Full, SDH)
***Примечание: Без рекламы

Скриншоты


MediaInfo

Общее
Уникальный идентификатор : 16717789203544838060773298039744353385 (0xC93BAA530C09C9F80054E85A7A7D469)
Полное имя : The.Book.of.Boba.Fett.S01E01.mkv
Формат : Matroska
Версия формата : Version 4
Размер файла : 1,95 Гбайт
Продолжительность : 37 м. 40 с.
Режим общего битрейта : Переменный
Общий поток : 7 423 Кбит/сек
Название фильма : The Book of Boba Fett S01E01 | mrrvg@rutor
Дата кодирования : UTC 2021-12-29 23:38:49
Программа кодирования : mkvmerge v63.0.0 ('Everything') 64-bit
Библиотека кодирования : libebml v1.4.2 + libmatroska v1.6.4
IMDB : tt13668894
TMDB : tv/115036
TVDB : 393589
Видео
Идентификатор : 1
Формат : AVC
Формат/Информация : Advanced Video Codec
Профиль формата : High@L4
Настройки формата : CABAC / 4 Ref Frames
Параметр CABAC формата : Да
Параметр RefFrames формата : 4 кадра
Идентификатор кодека : V_MPEG4/ISO/AVC
Продолжительность : 37 м. 40 с.
Вид битрейта : Переменный
Битрейт : 6 205 Кбит/сек
Максимальный битрейт : 12,7 Мбит/сек
Ширина : 1 920 пикселей
Высота : 1 080 пикселей
Соотношение сторон : 16:9
Режим частоты кадров : Постоянный
Частота кадров : 24,000 кадра/сек
Цветовое пространство : YUV
Субдискретизация насыщенности : 4:2:0
Битовая глубина : 8 бит
Тип развёртки : Прогрессивная
Бит/(Пиксели*Кадры) : 0.125
Размер потока : 1,63 Гбайт (84%)
Язык : English
Default : Да
Forced : Нет
Цветовой диапазон : Limited
Основные цвета : BT.709
Характеристики трансфера : BT.709
Коэффициенты матрицы : BT.709
Аудио #1
Идентификатор : 2
Формат : AC-3
Формат/Информация : Audio Coding 3
Коммерческое название : Dolby Digital
Идентификатор кодека : A_AC3
Продолжительность : 37 м. 40 с.
Вид битрейта : Постоянный
Битрейт : 448 Кбит/сек
Каналы : 6 каналов
Channel layout : L R C LFE Ls Rs
Частота : 48,0 КГц
Частота кадров : 31,250 кадров/сек (1536 SPF)
Метод сжатия : С потерями
Размер потока : 121 Мбайт (6%)
Язык : Russian
Service kind : Complete Main
Default : Да
Forced : Нет
Аудио #2
Идентификатор : 3
Формат : E-AC-3 JOC
Формат/Информация : Enhanced AC-3 with Joint Object Coding
Коммерческое название : Dolby Digital Plus with Dolby Atmos
Идентификатор кодека : A_EAC3
Продолжительность : 37 м. 40 с.
Вид битрейта : Постоянный
Битрейт : 768 Кбит/сек
Каналы : 6 каналов
Channel layout : L R C LFE Ls Rs
Частота : 48,0 КГц
Частота кадров : 31,250 кадров/сек (1536 SPF)
Метод сжатия : С потерями
Размер потока : 207 Мбайт (10%)
Язык : English
Service kind : Complete Main
Default : Нет
Forced : Нет
Complexity index : 16
Number of dynamic objects : 15
Bed channel count : 1 канал
Bed channel configuration : LFE
Текст #1
Идентификатор : 4
Формат : UTF-8
Идентификатор кодека : S_TEXT/UTF8
Идентификатор кодека/Информация : UTF-8 Plain Text
Продолжительность : 28 м. 9 с.
Битрейт : 0 бит/сек
Count of elements : 2
Размер потока : 155 байт (0%)
Заголовок : Forced
Язык : Russian
Default : Да
Forced : Нет
Текст #2
Идентификатор : 5
Формат : UTF-8
Идентификатор кодека : S_TEXT/UTF8
Идентификатор кодека/Информация : UTF-8 Plain Text
Продолжительность : 28 м. 30 с.
Битрейт : 37 бит/сек
Count of elements : 135
Размер потока : 7,83 Кбайт (0%)
Заголовок : Full | Где тексты Лебовски?
Язык : Russian
Default : Нет
Forced : Нет
Текст #3
Идентификатор : 6
Формат : UTF-8
Идентификатор кодека : S_TEXT/UTF8
Идентификатор кодека/Информация : UTF-8 Plain Text
Продолжительность : 28 м. 30 с.
Битрейт : 22 бит/сек
Count of elements : 133
Размер потока : 4,60 Кбайт (0%)
Заголовок : Full
Язык : English
Default : Нет
Forced : Нет
Текст #4
Идентификатор : 7
Формат : UTF-8
Идентификатор кодека : S_TEXT/UTF8
Идентификатор кодека/Информация : UTF-8 Plain Text
Продолжительность : 33 м. 30 с.
Битрейт : 28 бит/сек
Count of elements : 261
Размер потока : 7,06 Кбайт (0%)
Заголовок : SDH
Язык : English
Default : Нет
Forced : Нет
Меню
00:36:16.417 : en:Credits

Раздача ведется путем добавления новых серий

Когда раздача ведётся путём добавления новых серий, при каждом добавлении создётся новый торрент. Чтобы начать докачку новой серии, пользователям необходимо сделать следующее:
(1) остановить скачивание,
(2) удалить старый торрент у себя из клиента (старые серии удалять не надо),
(3) скачать новый торрент и запустить его у себя в клиенте вместо старого, при этом указать клиенту путь в старую папку, куда и должно происходить скачивание новых серий.
Ваш клиент при этом должен произвести хеширование (проверку) старой папки (если не производит сам - помогите ему сделать это), и будет докачивать только те серии, которых у вас ещё нет. Старые серии при этом не удаляются, а продолжают раздаваться!
Eсли вы уже удалили старые серии, то предотвратить повторную закачку старых серий можно, отжав галочку в соответствующих местах при запуске нового торрента. По возможности, желательно не удалять старые серии как можно дольше, чтобы релизер не столько продолжал раздавать старые серии, а смог сконцентрироваться на новых.
 GOLD TORRENT! DOWNLOAD TRAFFIC DOES NOT CONSIDER! 
Torrent: Registered [ 2022-01-07 00:59 ]   · 8EA1C3218B6D41CD7733B95D9014D751E7BAF182

Download .torrent

Download

24 KB

Status: checked
Completed: 0 times
Size: 4.61 GB
Поделиться:
terms.php
[Profile] [PM]
Display posts:    
Reply to topic

Current time is: 19-Jan 13:38

All times are UTC + 3



You cannot post new topics in this forum
You cannot reply to topics in this forum
You cannot edit your posts in this forum
You cannot delete your posts in this forum
You cannot vote in polls in this forum
You cannot attach files in this forum
You can download files in this forum