[ATV3] Человек-паук: Возвращение домой / Spider-Man: Homecoming (Джон Уоттс / Jon Watts ) [2017, США, Фантастика, боевик, приключения, WEB-DL, HD (1080p)] DUB + Original + sub (rus, eng, ukr)

Reply to topic
 
Author Message

admin ®

Gender: Male

Longevity: 3 years

Posts: 10018

Post 13-Oct-2017 19:33

[Quote]

Человек-паук: Возвращение домой / Spider-Man: Homecoming
«Homework can wait. The city can't»
7.080 / 10 8.00 / 10
- Год выпуска: 2017
Страна: США
Жанр: Фантастика, боевик, приключения
Продолжительность: 02:13:26
Перевод: Дублированный (iTunes)
Оригинальная аудиодорожка: Есть
Cубтитры: Русские форсированные, Английские форсированные, Украинские форсированные, Русские, Английские, Украинские
Режиссёр: Джон Уоттс
Сценарий: Джонатан М. Голдштейн, Джон Фрэнсис Дейли, Джон Уоттс
Продюсер: Виктория Алонсо, Ави Арад, Митчелл Белл
Оператор: Сальваторе Тотино
Композитор: Майкл Джаккино
Художник: Оливер Шолль, Лорен Абиунесс, Одра Эйвери
Монтаж: Дэбби Берман, Дэн Лебентал
В ролях: Том Холланд, Роберт Дауни мл., Майкл Китон, Мариса Томей, Джон Фавро, Джейкоб Баталон, Зендея, Лора Хэрриер, Тони Револори, Дональд Гловер
Бюджет: $175 000 000
Сборы в США: $332 003 538
Сборы в мире: + $542 403 493 = $874 407 031
Сборы в России: $17 154 063
Мировая премьера: 28 июня 2017
Премьера (РФ): 6 июля 2017, «WDSSPR»
Описание: После исторической встречи с командой Мстителей Питер Паркер возвращается домой, стараясь зажить обычной жизнью под опекой своей тёти Мэй. Но теперь за Питером приглядывает ещё кое-что… Тони Старк видел Человека-Паука в деле и должен стать его наставником. Когда новый злодей Стервятник угрожает уничтожить всё, что дорого Питеру, приходит время доказать всем, что такое настоящий супергерой.-Качество исходника: WEB-DL 1080p (NNMClub)
Качество: WEB-DL
Тип: HD (1080p)
Контейнер: M4V
Видео: H.264, 1920x800, 2.40:1, 4 522 Kbps, 23.976 fps
Аудио 1: Русский/Дублированный (iTunes), AAC / 2.0 / 160 Kbps / 48.0 KHz
Аудио 2: Английский/Оригинальная дорожка , AAC / 2.0 / 160 Kbps / 48.0 KHz
Аудио 3: Украинский/Дублированный (iTunes), AAC / 2.0 / 160 Kbps / 48.0 KHz
Аудио 4: Русский/Дублированный (iTunes), AC-3 / 5.1 / 384 Kbps / 48.0 KHz
Аудио 5: Английский/Оригинальная дорожка , AC-3 / 5.1 / 384 Kbps / 48.0 KHz
Субтитры 1: Русские форсированные
Субтитры 2: Английские форсированные
Субтитры 3: Украинские форсированные
Субтитры 4: Русские полные
Субтитры 5: Английские полные
Субтитры 6: Украинские полные
-

iTunes Meta Tags

Sort Name: Spider-Man: Homecoming
XID: Apple:vendor_id:2017-690593
contentID: 1243195844
Screenwriters: Джонатан М. Голдштейн, Джон Фрэнсис Дейли, Джон Уоттс
Producers: Виктория Алонсо, Ави Арад, Митчелл Белл
Director: Джон Уоттс
Cast: Том Холланд, Роберт Дауни мл., Майкл Китон, Мариса Томей, Джон Фавро, Джейкоб Баталон, Зендея, Лора Хэрриер, Тони Револори, Дональд Гловер
Studio: Columbia Pictures
Rating Annotation: Rated PG-13 for sci-fi action violence, some language and brief suggestive comments.
Rating: 4
Long Description: После исторической встречи с командой Мстителей Питер Паркер возвращается домой, стараясь зажить обычной жизнью под опекой своей тёти Мэй. Но теперь за Питером приглядывает ещё кое-что… Тони Старк видел Человека-Паука в деле и должен стать его наставником. Когда новый злодей Стервятник угрожает уничтожить всё, что дорого Питеру, приходит время доказать всем, что такое настоящий супергерой.
Description: После исторической встречи с командой Мстителей Питер Паркер возвращается домой, стараясь зажить обычной жизнью под опекой своей тёти Мэй. Но теперь за Питером приглядывает ещё кое-что…
Release Date: 2017-06-28T08:00:00Z
Genre: Action & Adventure
Artist: Jon Watts
Name: Spider-Man: Homecoming

MediaInfo

General
Complete name : /Users/imac/HandBrake/Spider.Man.Homecoming.WEB-DL.1080p.m4v
Format : MPEG-4
Codec ID : M4V
File size : 5.38 GiB
Duration : 2h 13mn
Overall bit rate mode : Variable
Overall bit rate : 5 772 Kbps
Movie name : Spider-Man: Homecoming
Performer : Jon Watts
Director : Джон Уоттс
Actor : Том Холланд / Роберт Дауни мл. / Майкл Китон / Мариса Томей / Джон Фавро / Джейкоб Баталон / Зендея / Лора Хэрриер / Тони Револори / Дональд Гловер
Screenplay by : Джонатан М. Голдштейн / Джон Фрэнсис Дейли / Джон Уоттс
Producer : Виктория Алонсо / Ави Арад / Митчелл Белл
Production studio : Columbia Pictures
Genre : Action & Adventure
ContentType : Short Film
Description : После исторической встречи с командой Мстителей Питер Паркер возвращается домой, стараясь зажить обычной жизнью под опекой своей тёти Мэй. Но теперь за Питером приглядывает ещё кое-что…
Recorded date : UTC 2017-06-28 08:00:00
Encoded date : UTC 2017-09-29 15:33:26
Tagged date : UTC 2017-09-29 16:15:57
Cover : Yes
Rating : None
Title/Sort : Spider-Man: Homecoming
LongDescription : После исторической встречи с командой Мстителей Питер Паркер возвращается домой, стараясь зажить обычной жизнью под опекой своей тёти Мэй. Но теперь за Питером приглядывает ещё кое-что… Тони Старк видел Человека-Паука в деле и должен стать его наставником. Когда новый злодей Стервятник угрожает уничтожить всё, что дорого Питеру, приходит время доказать всем, что такое настоящий супергерой.
AppleStoreCatalogID : 1243195844
Vendor : Apple:vendor_id:2017-690593
ContentRating : mpaa|PG-13|300|Rated PG-13 for sci-fi action violence, some language and brief suggestive comments.
Video #1
ID : 1
Format : AVC
Format/Info : Advanced Video Codec
Format profile : High@L4
Format settings, CABAC : Yes
Format settings, ReFrames : 5 frames
Codec ID : avc1
Codec ID/Info : Advanced Video Coding
Duration : 2h 13mn
Bit rate : 4 522 Kbps
Width : 1 920 pixels
Height : 800 pixels
Display aspect ratio : 2.40:1
Frame rate mode : Variable
Frame rate : 23.976 fps
Minimum frame rate : 23.810 fps
Maximum frame rate : 24.390 fps
Color space : YUV
Chroma subsampling : 4:2:0
Bit depth : 8 bits
Scan type : Progressive
Bits/(Pixel*Frame) : 0.123
Stream size : 4.21 GiB (78%)
Title : Main Program
Language : English
Encoded date : UTC 2017-09-29 15:33:26
Tagged date : UTC 2017-09-29 15:33:37
Color range : Limited
Color primaries : BT.709
Transfer characteristics : BT.709
Matrix coefficients : BT.709
Video #2
ID : 15
Format : JPEG
Codec ID : jpeg
Duration : 2h 13mn
Bit rate mode : Variable
Bit rate : 621 bps
Width : 640 pixels
Height : 266 pixels
Display aspect ratio : 2.40:1
Frame rate mode : Variable
Frame rate : 0.002 fps
Minimum frame rate : 0.001 fps
Maximum frame rate : 0.003 fps
Color space : YUV
Chroma subsampling : 4:2:0
Bit depth : 8 bits
Compression mode : Lossy
Bits/(Pixel*Frame) : 1.824
Stream size : 606 KiB (0%)
Title : Chapter Images
Language : English
Encoded date : UTC 2017-09-29 15:33:45
Tagged date : UTC 2017-09-29 15:33:45
Audio #1
ID : 2
Format : AAC
Format/Info : Advanced Audio Codec
Format profile : LC
Codec ID : 40
Duration : 2h 13mn
Bit rate mode : Variable
Bit rate : 157 Kbps
Maximum bit rate : 238 Kbps
Channel(s) : 2 channels
Channel positions : Front: L R
Sampling rate : 48.0 KHz
Compression mode : Lossy
Stream size : 150 MiB (3%)
Title : Russian Stereo
Language : Russian
Encoded date : UTC 2017-09-29 15:33:26
Tagged date : UTC 2017-09-29 15:33:39
Audio #2
ID : 3
Format : AAC
Format/Info : Advanced Audio Codec
Format profile : LC
Codec ID : 40
Duration : 2h 13mn
Bit rate mode : Variable
Bit rate : 157 Kbps
Maximum bit rate : 236 Kbps
Channel(s) : 2 channels
Channel positions : Front: L R
Sampling rate : 48.0 KHz
Compression mode : Lossy
Stream size : 150 MiB (3%)
Title : English Stereo
Language : English
Encoded date : UTC 2017-09-29 15:33:26
Tagged date : UTC 2017-09-29 15:33:39
Audio #3
ID : 4
Format : AAC
Format/Info : Advanced Audio Codec
Format profile : LC
Codec ID : 40
Duration : 2h 13mn
Bit rate mode : Variable
Bit rate : 156 Kbps
Maximum bit rate : 228 Kbps
Channel(s) : 2 channels
Channel positions : Front: L R
Sampling rate : 48.0 KHz
Compression mode : Lossy
Stream size : 149 MiB (3%)
Title : Ukrainian Stereo
Language : Ukrainian
Encoded date : UTC 2017-09-29 15:33:26
Tagged date : UTC 2017-09-29 15:33:39
Audio #4
ID : 5
Format : AC-3
Format/Info : Audio Coding 3
Mode extension : CM (complete main)
Format settings, Endianness : Big
Codec ID : ac-3
Duration : 2h 13mn
Bit rate mode : Constant
Bit rate : 384 Kbps
Channel(s) : 6 channels
Channel positions : Front: L C R, Side: L R, LFE
Sampling rate : 48.0 KHz
Bit depth : 16 bits
Compression mode : Lossy
Stream size : 367 MiB (7%)
Title : Russian DD 5.1
Language : Russian
Encoded date : UTC 2017-09-29 15:33:26
Tagged date : UTC 2017-09-29 15:33:37
Audio #5
ID : 6
Format : AC-3
Format/Info : Audio Coding 3
Mode extension : CM (complete main)
Format settings, Endianness : Big
Codec ID : ac-3
Duration : 2h 13mn
Bit rate mode : Constant
Bit rate : 384 Kbps
Channel(s) : 6 channels
Channel positions : Front: L C R, Side: L R, LFE
Sampling rate : 48.0 KHz
Bit depth : 16 bits
Compression mode : Lossy
Stream size : 367 MiB (7%)
Title : English DD 5.1
Language : English
Encoded date : UTC 2017-09-29 15:33:26
Tagged date : UTC 2017-09-29 15:33:37
Text #1
ID : 8
Format : Timed Text
Muxing mode : sbtl
Codec ID : tx3g
Duration : 2h 13mn
Bit rate mode : Variable
Bit rate : 1 bps
Stream size : 885 Bytes (0%)
Title : Russian forced
Language : Russian
Encoded date : UTC 2017-09-29 15:33:26
Tagged date : UTC 2017-09-29 15:33:37
Text #2
ID : 9
Format : Timed Text
Muxing mode : sbtl
Codec ID : tx3g
Duration : 14mn 58s
Bit rate mode : Variable
Bit rate : 1 bps
Stream size : 59.0 Bytes (0%)
Title : English forced
Language : English
Encoded date : UTC 2017-09-29 15:33:26
Tagged date : UTC 2017-09-29 15:33:37
Text #3
ID : 10
Format : Timed Text
Muxing mode : sbtl
Codec ID : tx3g
Duration : 2h 13mn
Bit rate mode : Variable
Bit rate : 15 bps
Stream size : 14.5 KiB (0%)
Title : Ukrainian forced
Language : Ukrainian
Encoded date : UTC 2017-09-29 15:33:26
Tagged date : UTC 2017-09-29 15:33:37
Text #4
ID : 11
Format : Timed Text
Muxing mode : sbtl
Codec ID : tx3g
Duration : 2h 13mn
Bit rate mode : Variable
Bit rate : 114 bps
Stream size : 111 KiB (0%)
Title : Russian full
Language : Russian
Encoded date : UTC 2017-09-29 15:33:26
Tagged date : UTC 2017-09-29 15:33:37
Text #5
ID : 12
Format : Timed Text
Muxing mode : sbtl
Codec ID : tx3g
Duration : 2h 13mn
Bit rate mode : Variable
Bit rate : 73 bps
Stream size : 71.5 KiB (0%)
Title : English full
Language : English
Encoded date : UTC 2017-09-29 15:33:26
Tagged date : UTC 2017-09-29 15:33:37
Text #6
ID : 13
Format : Timed Text
Muxing mode : sbtl
Codec ID : tx3g
Duration : 2h 13mn
Bit rate mode : Variable
Bit rate : 104 bps
Stream size : 102 KiB (0%)
Title : Ukrainian full
Language : Ukrainian
Encoded date : UTC 2017-09-29 15:33:26
Tagged date : UTC 2017-09-29 15:33:37
Menu #1
00:00:00.000 : 1
00:05:33.083 : 2
00:14:23.279 : 3
00:20:49.999 : 4
00:26:18.243 : 5
00:36:26.976 : 6
00:46:02.926 : 7
00:54:39.192 : 8
01:05:09.280 : 9
01:12:02.276 : 10
01:20:19.189 : 11
01:29:40.542 : 12
01:36:55.894 : 13
01:44:43.152 : 14
01:50:30.249 : 15
01:57:52.566 : 16
Menu #2
ID : 14
Codec ID : text
Duration : 2h 13mn
Language : English
Encoded date : UTC 2017-09-29 15:33:39
Tagged date : UTC 2017-09-29 15:33:39
00:00:00.000 : 1
00:05:33.083 : 2
00:14:23.279 : 3
00:20:49.999 : 4
00:26:18.243 : 5
00:36:26.976 : 6
00:46:02.926 : 7
00:54:39.192 : 8
01:05:09.280 : 9
01:12:02.276 : 10
01:20:19.189 : 11
01:29:40.542 : 12
01:36:55.894 : 13
01:44:43.152 : 14
01:50:30.249 : 15
01:57:52.566 : 16
Bit rate mode : VBR

Скриншоты

[Profile] [PM]
Display posts:    
Reply to topic

Current time is: 29-Sep 09:23

All times are UTC + 3



You cannot post new topics in this forum
You cannot reply to topics in this forum
You cannot edit your posts in this forum
You cannot delete your posts in this forum
You cannot vote in polls in this forum
You cannot attach files in this forum
You can download files in this forum