Небо (2021) WEB-DL 1080i от ELEKTRI4KA

Reply to topic
DL-List and Torrent activity [Update пиров]
Size:  2.81 GB   |    Registered:  11 days   |    Completed:  0 times
Seeders:  338  [  0 KB/s  ]   Leechers:  31  [  0 KB/s  ]   Show peers in full details
 
   
 
 
Author Message

admin ®

Gender: Male

Longevity: 4 years 2 months

Posts: 13282

Post 22-Nov-2021 05:21

[Quote]

Информация о фильме
Название: Небо
Год выхода: 2021
Жанр: Биография, драма, боевик
Режиссер: Игорь Копылов
В ролях: Игорь Петренко, Иван Батарев, Сергей Губанов, Мария Миронова, Илья Носков, Николай Козак, Дмитрий Власкин, Сергей Жарков, Дмитрий Блохин, Григорий Некрасов
О фильме:
Подполковник Сошников и капитан Муравьев — два разных характера, две разные судьбы, которым суждено будет сойтись на военной базе Хмеймим. Во время боевого вылета самолет Сошникова был сбит турецким истребителем. Это событие освещали все мировые СМИ, а за ходом спасательной операции следила вся Россия.

Выпущено: Россия / Триикс Медиа
Продолжительность: 02:06:03
Озвучивание: Оригинальное
Файл
Формат: MKV
Качество: WEB-DL 1080i
Видео: MPEG-4 AVC, 2992 Kb/s, 1920x1080
Аудио: Russian: AC3, 192 Kb/s (2 ch)
Субтитры: Нет
Дополнительно: Нет

Инфо-файл:

Complete name : Nebo.2020.WEB-DL.1080p.ELEKTRI4KA.UNIONGANG.mkv
Format : Matroska
Format version : Version 4
File size : 2.81 GiB
Duration : 2 h 6 min
Overall bit rate : 3 187 kb/s
Encoded date : UTC 2021-11-18 08:10:07
Writing application : mkvmerge v8.3.0 ('Over the Horizon') 32bit
Writing library : libebml v1.3.1 + libmatroska v1.4.2
Video
ID : 1
Format : AVC
Format/Info : Advanced Video Codec
Format profile : High@L4.1
Format settings : CABAC / 4 Ref Frames
Format settings, CABAC : Yes
Format settings, Reference frames : 4 frames
Codec ID : V_MPEG4/ISO/AVC
Duration : 2 h 6 min
Bit rate : 2 992 kb/s
Width : 1 920 pixels
Height : 1 080 pixels
Display aspect ratio : 16:9
Frame rate mode : Constant
Frame rate : 25.000 FPS
Color space : YUV
Chroma subsampling : 4:2:0
Bit depth : 8 bits
Scan type : Interlaced
Scan type, store method : Separated fields
Scan order : Top Field First
Bits/(Pixel*Frame) : 0.058
Stream size : 2.63 GiB (94%)
Language : English
Default : Yes
Forced : No
Color range : Limited
Color primaries : BT.709
Transfer characteristics : BT.709
Matrix coefficients : BT.709
Audio
ID : 2
Format : AC-3
Format/Info : Audio Coding 3
Commercial name : Dolby Digital
Codec ID : A_AC3
Duration : 2 h 6 min
Bit rate mode : Constant
Bit rate : 192 kb/s
Channel(s) : 2 channels
Channel layout : L R
Sampling rate : 48.0 kHz
Frame rate : 31.250 FPS (1536 SPF)
Compression mode : Lossy
Stream size : 173 MiB (6%)
Language : Russian
Service kind : Complete Main
Default : Yes
Forced : No

Скриншоты

 GOLD TORRENT! DOWNLOAD TRAFFIC DOES NOT CONSIDER! 
Torrent: Registered [ 2021-11-22 05:21 ]   · B084E726B715AE0D64869C8CF1AAA66DEE131DCA

Download .torrent

Download

8 KB

Status: checked
Completed: 0 times
Size: 2.81 GB
Поделиться:
terms.php
[Profile] [PM]
Display posts:    
Reply to topic

Current time is: 03-Dec 15:49

All times are UTC + 3



You cannot post new topics in this forum
You cannot reply to topics in this forum
You cannot edit your posts in this forum
You cannot delete your posts in this forum
You cannot vote in polls in this forum
You cannot attach files in this forum
You can download files in this forum