Сквозь чёрное стекло (2019) WEB-DLRip от GeneralFilm | iTunes

Reply to topic
DL-List and Torrent activity
Size:  1.46 GB   |    Registered:  1 month 19 days   |    Completed:  0 times
Seeders:  35  [  0 KB/s  ]   Show peers in full details
 
   
 
 
Author Message

admin ®

Gender: Male

Longevity: 2 years 6 months

Posts: 15835

Post 11-Feb-2020 04:40

[Quote]

Название: Сквозь чёрное стекло
Год выпуска: 2019
Жанр: Драма
Выпущено: Россия, «Proline Film»
Режиссер: Константин Лопушанский
В ролях: Максим Суханов, Василиса Денисова, Надежда Маркина, Ольга Онищенко, Андрей Полищук, Анна Екатерининская, Елена Зимина, Анна Дулова, Александра Мамкаева, Алексей Манцыгин
О фильме: История незрячей девушки, судьба которой преподносит уникальный шанс. Состоятельный мужчина готов подарить ей зрение, если она вслепую станет его женой. Этот дар открывает героине жестокую правду жизни...

Качество: WEB-DLRip
Видео: XviD build 73, 720x400 (16:9), 25.000 fps, 1299 Kbps (0.180 bit/pixel)
Аудио: 48.0 kHz, AC3, 2/0 ch, 192 kbps
Продолжительность: 02:19:08
Перевод: Не требуется [Русский]
Cубтитры: нет

Скриншоты

MediaInfo

General
Complete name : D:RazdachiSkvozj.Chernoe.Steklo.2019.WEB-DLRip.GeneralFilm.avi
Format : AVI
Format/Info : Audio Video Interleave
File size : 1.46 GiB
Duration : 2 h 19 min
Overall bit rate : 1 501 kb/s
Writing application : VirtualDubMod 1.5.10.3 | www.virtualdub-fr.org || (build 2550/release)
Writing library : VirtualDubMod build 2550/release
Video
ID : 0
Format : MPEG-4 Visual
Format profile : Advanced Simple@L5
Format settings : BVOP1 / Custom Matrix
Format settings, BVOP : 1
Format settings, QPel : No
Format settings, GMC : No warppoints
Format settings, Matrix : Custom
Codec ID : XVID
Codec ID/Hint : XviD
Duration : 2 h 19 min
Bit rate : 1 299 kb/s
Width : 720 pixels
Height : 400 pixels
Display aspect ratio : 16:9
Frame rate : 25.000 FPS
Color space : YUV
Chroma subsampling : 4:2:0
Bit depth : 8 bits
Scan type : Progressive
Compression mode : Lossy
Bits/(Pixel*Frame) : 0.180
Stream size : 1.26 GiB (87%)
Writing library : XviD 73
Audio
ID : 1
Format : AC-3
Format/Info : Audio Coding 3
Commercial name : Dolby Digital
Codec ID : 2000
Duration : 2 h 19 min
Bit rate mode : Constant
Bit rate : 192 kb/s
Channel(s) : 2 channels
Channel layout : L R
Sampling rate : 48.0 kHz
Frame rate : 31.250 FPS (1536 SPF)
Compression mode : Lossy
Stream size : 191 MiB (13%)
Alignment : Split across interleaves
Interleave, duration : 40 ms (1.00 video frame)
Interleave, preload duratio : 500 ms
Service kind : Complete Main
 GOLD TORRENT! DOWNLOAD TRAFFIC DOES NOT CONSIDER! 
Torrent: Registered [ 2020-02-11 04:40 ]   · AEBB1638B6B12E4D814EBD571614A96EBF1FF8E0

Download .torrent

Download

16 KB

Status: checked
Completed: 0 times
Size: 1.46 GB
Поделиться:
terms.php
[Profile] [PM]
Display posts:    
Reply to topic

Current time is: 30-Mar 20:10

All times are UTC + 3



You cannot post new topics in this forum
You cannot reply to topics in this forum
You cannot edit your posts in this forum
You cannot delete your posts in this forum
You cannot vote in polls in this forum
You cannot attach files in this forum
You can download files in this forum