К дню рождения Владимира Высоцкого. «Своя колея» (2020) HDTV 1080i

Reply to topic
DL-List and Torrent activity
Size:  4.74 GB   |    Registered:  19 days   |    Completed:  0 times
Seeders:  4  [  0 KB/s  ]   Leechers:  2  [  0 KB/s  ]   Show peers in full details
 
   
 
 
Author Message

admin ®

Gender: Male

Longevity: 2 years 4 months

Posts: 15613

Post 06-Feb-2020 04:03

[Quote]

Информация о фильме
Название: К дню рождения Владимира Высоцкого. «Своя колея»
Год выхода: 2020
Жанр: Концерт
Режиссер: Первый канал
В ролях: Екатерина Гусева, Дмитрий Харатьян.
О концерте:
Ежегодная Премия Владимира Высоцкого «Своя колея» была учреждена в 1997 году Благотворительным Фондом Владимира Высоцкого, Министерством Культуры РФ и Комитетом по культуре города Москвы. Лауреатами Премии становятся те, кто не изменяет своим убеждениям, кому сегодня захотел бы посвятить песню Владимир Высоцкий, людям, чья жизнь и творчество созвучны темам его поэзии. Главным критерием в определении Лауреатов являются люди, способные твердо следовать в жизни своей колее, несмотря ни на какие препятствия и повороты судьбы. На торжественном вечере, по традиции, прозвучат песни Высоцкого в исполнении известных музыкантов, актеров, деятелей культуры и искусства. В концертной части принимают участие: Александр Яцко, Сергей Безруков, Зара, Юлия Савичева, Анатолий Белый, Диана Арбенина, Эмиль Кадыров, Глеб Самойлов, Любовь Успенская, Ольга Кормухина, Гоша Куценко, Песни нашего века, Михаил Ефремов, Александр Маршал, Олег Митяев, Екатерина Гусева, Дмитрий Харатьян, Сергей Галанин, Дмитрий Дюжев, Елена Север, Александр Ф. Скляр, Александр Домогаров, Анастасия Макеева, Тамара Гвердцители, Евгений Дятлов.
Страна: Россия
Продолжительность: 01:11:43
Перевод: нет
Файл
Кодек: MPEG-4 AVC
Качество: HDTV (1080i)
Видео: 8376 Кбит/с, 1920x1080
Звук: Русский (MP2, 2 ch, 192 Кбит/с), (AC3, 2 ch, 384 Кбит/с)

Трек-лист:

01. Сергей Безруков - Всю войну под завязку
02. Олег Митяев - Звезды
03. Никита Высоцкий и Зара - Ноль-семь
04. Евгений Дятлов - Разбойничья
05. Диана Арбенина - Я несла свою беду
06. Александр Ф. Скляр - Я из дела ушел
07. Дмитрий Харатьян - Прощание с горами
08. Александр Яцко - Ярмарка
09. Любовь Успенская - Эй, шофер
10. Михаил Ефремов - Я однажды гулял по столице
11. "Песни нашего века" - Утренняя гимнастика
12. Полина Конкина - Так случилось, мужчины ушли
13. Александр Маршал - Песня о моём старшине
14. Сергей Галанин - Штормит весь вечер
15. Никита Высоцкий - И снизу лёд, и сверху - маюсь между...
16. Елена Север и Дмитрий Дюжев - Люблю тебя сейчас
17. Александр Домогаров - Спасите наши души
18. Все участники - На Большом Каретном

МедиаИнфо

General
ID : 1 (0x1)
Complete name : D:торрСвоя колея 2020.01.24.ts
Format : MPEG-TS
File size : 4.74 GiB
Duration : 1 h 11 min
Overall bit rate mode : Variable
Overall bit rate : 9 457 kb/s
Video
ID : 1902 (0x76E)
Menu ID : 92 (0x5C)
Format : AVC
Format/Info : Advanced Video Codec
Format profile : High@L4
Format settings : CABAC / 3 Ref Frames
Format settings, CABAC : Yes
Format settings, Reference frames : 3 frames
Codec ID : 27
Duration : 1 h 11 min
Bit rate : 8 376 kb/s
Width : 1 920 pixels
Height : 1 080 pixels
Display aspect ratio : 16:9
Frame rate : 25.000 FPS
Standard : Component
Color space : YUV
Chroma subsampling : 4:2:0
Bit depth : 8 bits
Scan type : Interlaced
Scan type, store method : Separated fields
Scan order : Top Field First
Bits/(Pixel*Frame) : 0.162
Stream size : 4.20 GiB (89%)
Color range : Limited
Color primaries : BT.709
Transfer characteristics : BT.709
Matrix coefficients : BT.709
Audio #1
ID : 2902 (0xB56)
Menu ID : 92 (0x5C)
Format : AC-3
Format/Info : Audio Coding 3
Commercial name : Dolby Digital
Codec ID : 6
Duration : 1 h 11 min
Bit rate mode : Constant
Bit rate : 384 kb/s
Channel(s) : 6 channels
Channel layout : L R C LFE Ls Rs
Sampling rate : 48.0 kHz
Frame rate : 31.250 FPS (1536 SPF)
Compression mode : Lossy
Stream size : 197 MiB (4%)
Language : Russian
Service kind : Complete Main
Audio #2
ID : 2903 (0xB57)
Menu ID : 92 (0x5C)
Format : MPEG Audio
Format version : Version 1
Format profile : Layer 2
Codec ID : 3
Duration : 1 h 11 min
Bit rate mode : Constant
Bit rate : 224 kb/s
Channel(s) : 2 channels
Sampling rate : 48.0 kHz
Frame rate : 41.667 FPS (1152 SPF)
Compression mode : Lossy
Stream size : 115 MiB (2%)
Language : Russian

Скриншоты:

 GOLD TORRENT! DOWNLOAD TRAFFIC DOES NOT CONSIDER! 
Torrent: Registered [ 2020-02-06 04:03 ]   · A73458B13553035DB887F9A41626654710055F7E

Download .torrent

Download

13 KB

Status: checked
Completed: 0 times
Size: 4.74 GB
Поделиться:
terms.php
[Profile] [PM]
Display posts:    
Reply to topic

Current time is: 25-Feb 09:34

All times are UTC + 3



You cannot post new topics in this forum
You cannot reply to topics in this forum
You cannot edit your posts in this forum
You cannot delete your posts in this forum
You cannot vote in polls in this forum
You cannot attach files in this forum
You can download files in this forum