Они ползут за тобой / Them That Follow (2019) WEB-DL 1080p от селезень | iTunes

Reply to topic
DL-List and Torrent activity
Size:  6.77 GB   |    Registered:  10 days   |    Completed:  0 times
Seeders:  38  [  0 KB/s  ]   Leechers:  4  [  0 KB/s  ]   Show peers in full details
 
   
 
 
Author Message

admin ®

Gender: Male

Longevity: 2 years 2 months

Posts: 14990

Post 02-Dec-2019 21:27

[Quote]

Информация о фильме
Название: Они ползут за тобой
Оригинальное название: Them That Follow
Год выхода: 2019
Жанр: Триллер
Режиссер: Бриттани Поултон, Дэн Мэдисон Сэвидж
В ролях: Кейтлин Девер, Уолтон Гоггинс, Оливия Колман, Томас Манн, Джим Гэффиган, Льюис Пуллман, Элис Энглерт, Доминик Кансельер, Брэдли Галло, Энни Тедеско

О фильме: В глубине Аппалачей запрещенные отношения заставляют дочь пастора противостоять смертельной традиции ее общины.
Страна: США
Студия: Amasia Entertainment, G-BASE
Продолжительность: 01:38:00
Перевод: Профессиональный многоголосый | iTunes
Качество: WEB-DL 1080p
Видео: MPEG-4 AVC, 1920x816, 8866 Кbit/s, 23.976 fps
Аудио #01: 48 kHz, AC3, 5.1, 384 Kbps | iTunes | RUS |
Аудио #02: 48 kHz, E-AC3, 5.1, 640 Kbps | Оригинал | ENG |
Субтитры: Русские (Full), украинские (Full), английские

Скриншоты

MI

General
Unique ID : 336006535154070923810138008697166166634 (0xFCC88137B584D05D7D31346C6DC8FA6A)
Complete name : F:Video111Them.That.Follow.2019.AMZN.WEB-DL.1080p.seleZen.mkv
Format : Matroska
Format version : Version 4
File size : 6.77 GiB
Duration : 1 h 38 min
Overall bit rate : 9 890 kb/s
Movie name : Them That Follow 2019 from селезень
Encoded date : UTC 2019-12-01 20:08:01
Writing application : mkvmerge v40.0.0 ('Old Town Road + Pony') 64-bit
Writing library : libebml v1.3.9 + libmatroska v1.5.2
Video
ID : 1
Format : AVC
Format/Info : Advanced Video Codec
Format profile : High@L4
Format settings : CABAC / 4 Ref Frames
Format settings, CABAC : Yes
Format settings, Reference : 4 frames
Codec ID : V_MPEG4/ISO/AVC
Duration : 1 h 37 min
Bit rate mode : Constant
Bit rate : 8 866 kb/s
Nominal bit rate : 10 000 kb/s
Width : 1 920 pixels
Height : 816 pixels
Display aspect ratio : 2.35:1
Frame rate mode : Constant
Frame rate : 23.976 (24000/1001) FPS
Color space : YUV
Chroma subsampling : 4:2:0
Bit depth : 8 bits
Scan type : Progressive
Bits/(Pixel*Frame) : 0.236
Stream size : 6.07 GiB (90%)
Language : English
Default : Yes
Forced : No
Color range : Limited
Color primaries : BT.709
Transfer characteristics : BT.709
Matrix coefficients : BT.709
Audio #1
ID : 2
Format : AC-3
Format/Info : Audio Coding 3
Commercial name : Dolby Digital
Codec ID : A_AC3
Duration : 1 h 37 min
Bit rate mode : Constant
Bit rate : 384 kb/s
Channel(s) : 6 channels
Channel layout : L R C LFE Ls Rs
Sampling rate : 48.0 kHz
Frame rate : 31.250 FPS (1536 SPF)
Bit depth : 16 bits
Compression mode : Lossy
Stream size : 269 MiB (4%)
Title : iTunes
Language : Russian
Service kind : Complete Main
Default : Yes
Forced : Yes
Audio #2
ID : 3
Format : E-AC-3
Format/Info : Enhanced AC-3
Commercial name : Dolby Digital Plus
Codec ID : A_EAC3
Duration : 1 h 37 min
Bit rate mode : Constant
Bit rate : 640 kb/s
Channel(s) : 6 channels
Channel layout : L R C LFE Ls Rs
Sampling rate : 48.0 kHz
Frame rate : 31.250 FPS (1536 SPF)
Compression mode : Lossy
Stream size : 449 MiB (6%)
Title : Original
Language : English
Service kind : Complete Main
Default : No
Forced : No
Text #1
ID : 4
Format : UTF-8
Codec ID : S_TEXT/UTF8
Codec ID/Info : UTF-8 Plain Text
Duration : 1 h 32 min
Bit rate : 49 b/s
Count of elements : 766
Stream size : 33.9 KiB (0%)
Title : Full
Language : Russian
Default : No
Forced : No
Text #2
ID : 5
Format : UTF-8
Codec ID : S_TEXT/UTF8
Codec ID/Info : UTF-8 Plain Text
Duration : 1 h 36 min
Bit rate : 46 b/s
Count of elements : 765
Stream size : 32.8 KiB (0%)
Title : Full
Language : Ukrainian
Default : No
Forced : No
Text #3
ID : 6
Format : UTF-8
Codec ID : S_TEXT/UTF8
Codec ID/Info : UTF-8 Plain Text
Duration : 1 h 30 min
Bit rate : 33 b/s
Count of elements : 753
Stream size : 21.8 KiB (0%)
Title : Full
Language : English
Default : No
Forced : No
Text #4
ID : 7
Format : UTF-8
Codec ID : S_TEXT/UTF8
Codec ID/Info : UTF-8 Plain Text
Duration : 1 h 32 min
Bit rate : 37 b/s
Count of elements : 959
Stream size : 25.2 KiB (0%)
Title : SDH
Language : English
Default : No
Forced : No
 GOLD TORRENT! DOWNLOAD TRAFFIC DOES NOT CONSIDER! 
Torrent: Registered [ 2019-12-02 21:27 ]   · E19E4B0788E072B8DAFEFDE4D707FE1A8AE54C0F

Download .torrent

Download

9 KB

Status: checked
Completed: 0 times
Size: 6.77 GB
Поделиться:
terms.php
[Profile] [PM]
Display posts:    
Reply to topic

Current time is: 13-Dec 18:28

All times are UTC + 3



You cannot post new topics in this forum
You cannot reply to topics in this forum
You cannot edit your posts in this forum
You cannot delete your posts in this forum
You cannot vote in polls in this forum
You cannot attach files in this forum
You can download files in this forum