Gregorian - 20/2020 [24bit Hi-Res, Limited Edition] (2019) FLAC

Reply to topic
DL-List and Torrent activity
Size:  1.56 GB   |    Registered:  16 days   |    Completed:  0 times
Seeders:  17  [  0 KB/s  ]   Leechers:  3  [  0 KB/s  ]   Show peers in full details
 
   
 
 
Author Message

admin ®

Gender: Male

Longevity: 2 years 2 months

Posts: 14934

Post 21-Nov-2019 20:24

[Quote]


Название: 20/2020
Исполнитель: Gregorian
Страна: Germany
Жанр: New-Age, Enigmatic, Ambientpop, Choral
Год: 2019
Продолжительность: 02:15:22
Битрейт аудио: Lossless
Формат/Кодек: FLAC
Тип рипа: tracks
Разрядность: 24/44.1
Количество каналов: 2.0

TracklisT

01. The Sound of Silence (New Version 2020) (3:37)
02. Moment of Peace (New Version 2020) (4:07)
03. Hymn (New Version 2020) (5:07)
04. In the Air Tonight (New Version 2020) (4:43)
05. Join Me (New Version 2020) (3:40)
06. With or Without You (New Version 2020) (5:22)
07. Engel (Remastered Version 2020) (5:07)
08. Lady in Black (New Version 2020) (4:59)
09. Crying in the Rain (New Version 2020) (4:37)
10. Meadows of Heaven (Remastered Version 2020) (5:49)
11. Hells Bells (Remastered Version 2020) (5:16)
12. Streets of Philadelphia (Remastered Version 2020) (4:06)
13. World Without End (Remastered Version 2020) (3:31)
14. Sky and Sand (New Version 2020) (4:05)
15. Gloria (Remastered Version 2020) (5:12)
16. Masters of Chant (Remastered Version 2020) (3:01)
17. Hallelujah (New Version 2020) (4:58)
18. Frozen World (Remastered Version 2020) (3:20)
19. Pie Jesu (New Version 2020) (3:55)
20. Fairytale of New York (Remastered Version 2020) (4:10)
21. Mary, Did You Know (3:37)
22. Cups (2:21)
23. Viva La Vida (4:15)
24. Faded (3:03)
25. Say Something (3:49)
26. Voyage Voyage (New Version 2020) (3:32)
27. Behind Blue Eyes (4:41)
28. Shine Silently (4:27)
29. True Faith (3:20)
30. You'll Be in My Heart (4:47)
31. Blowing in the Wind (4:40)
32. 20 Years (4:08)

DR

foobar2000 1.4.8 / Dynamic Range Meter 1.1.1
log date: 2019-11-20 22:07:19
--------------------------------------------------------------------------------
Analyzed: Gregorian / 20/2020
--------------------------------------------------------------------------------
DR Peak RMS Duration Track
--------------------------------------------------------------------------------
DR6 -0.60 dB -10.65 dB 3:37 01-The Sound of Silence (New Version 2020)
DR6 -0.60 dB -8.35 dB 4:07 02-Moment of Peace (New Version 2020)
DR7 -0.60 dB -10.86 dB 5:07 03-Hymn (New Version 2020)
DR5 -0.60 dB -9.93 dB 4:43 04-In the Air Tonight (New Version 2020)
DR5 -0.60 dB -8.93 dB 3:40 05-Join Me (New Version 2020)
DR6 -0.60 dB -8.67 dB 5:22 06-With or Without You (New Version 2020)
DR6 -0.60 dB -9.32 dB 5:07 07-Engel (Remastered Version 2020)
DR5 -0.60 dB -8.43 dB 4:59 08-Lady in Black (New Version 2020)
DR6 -0.60 dB -8.85 dB 4:37 09-Crying in the Rain (New Version 2020)
DR5 -0.60 dB -8.37 dB 5:49 10-Meadows of Heaven (Remastered Version 2020)
DR5 -0.60 dB -8.01 dB 5:16 11-Hells Bells (Remastered Version 2020)
DR6 -0.60 dB -9.29 dB 4:06 12-Streets of Philadelphia (Remastered Version 2020)
DR7 -0.60 dB -10.53 dB 3:31 13-World Without End (Remastered Version 2020)
DR6 -0.60 dB -8.13 dB 4:05 14-Sky and Sand (New Version 2020)
DR5 -0.60 dB -9.55 dB 5:12 15-Gloria (Remastered Version 2020)
DR6 -0.60 dB -9.06 dB 3:01 16-Masters of Chant (Remastered Version 2020)
DR7 -0.60 dB -12.52 dB 4:58 17-Hallelujah (New Version 2020)
DR7 -0.60 dB -10.59 dB 3:20 18-Frozen World (Remastered Version 2020)
DR7 -0.60 dB -11.59 dB 3:55 19-Pie Jesu (New Version 2020)
DR5 -0.60 dB -8.28 dB 4:10 20-Fairytale of New York (Remastered Version 2020)
DR10 -0.60 dB -13.89 dB 3:37 21-Mary, Did You Know
DR8 -0.60 dB -10.67 dB 2:21 22-Cups
DR5 -0.60 dB -8.37 dB 4:15 23-Viva La Vida
DR5 -0.60 dB -7.76 dB 3:03 24-Faded
DR6 -0.60 dB -10.34 dB 3:49 25-Say Something
DR6 -0.60 dB -9.11 dB 3:32 26-Voyage Voyage (New Version 2020)
DR5 -0.60 dB -8.11 dB 4:41 27-Behind Blue Eyes
DR6 -0.60 dB -9.56 dB 4:27 28-Shine Silently
DR6 -0.60 dB -8.68 dB 3:20 29-True Faith
DR6 -0.60 dB -8.73 dB 4:47 30-You'll Be in My Heart
DR5 -0.60 dB -9.52 dB 4:40 31-Blowing in the Wind
DR5 -0.60 dB -7.94 dB 4:08 32-20 Years
--------------------------------------------------------------------------------
Number of tracks: 32
Official DR value: DR6
Samplerate: 44100 Hz
Channels: 2
Bits per sample: 24
Bitrate: 1679 kbps
Codec: FLAC
================================================================================
 GOLD TORRENT! DOWNLOAD TRAFFIC DOES NOT CONSIDER! 
Torrent: Registered [ 2019-11-21 20:24 ]   · 9B55F62DEFDC3A8C43DC17D32B153718361CBC2D

Download .torrent

Download

19 KB

Status: checked
Completed: 0 times
Size: 1.56 GB
Поделиться:
terms.php
[Profile] [PM]
Display posts:    
Reply to topic

Current time is: 08-Dec 06:58

All times are UTC + 3



You cannot post new topics in this forum
You cannot reply to topics in this forum
You cannot edit your posts in this forum
You cannot delete your posts in this forum
You cannot vote in polls in this forum
You cannot attach files in this forum
You can download files in this forum