Search found 4 matches

Author Message

admin

Post 06-Feb-2022 05:19

[Quote]

Название: MobyDoc
Исполнитель: Moby
Год: 2021
Жанр: Electronic
Страна: UK
Продолжительность: 01:31:59+01:20:16+00:46:40
Качество: Blu-ray
Разрешение видео/развертка: 1080p
Контейнер: BDMV
Видео кодек: H.264
Аудио кодек: PCM / DTS / Dolby TrueHD
Видео: MPEG-4 AVC Video / 24992 kbps / 1080p / 24 fps / 16:9 / High Profile 4.1
Аудио #1: LPCM Audio / English / 2.0 / 48 kHz / 2304 kbps / 24-bit (Doc)
Аудио #2: DTS-HD Master Audio / Undetermined / 5.1 / 48 kHz / 4135 kbps / 24-bit (DTS Core: 5.1 / 48 kHz / 1509 kbps / 24-bit) (Album)
Аудио #3: Dolby TrueHD Audio / Undetermined / 7.1 / 48 kHz / 6478 kbps / 24-bit (AC3 Embedded: 5.1 / 48 kHz / 448 kbps) (Album)
Аудио #4: LPCM Audio / English / 2.0 / 48 kHz / 1536 kbps / 16-bit (Extras)
01 Doc - 10 глав
02 Album - 16 глав
03 Music Videos

Natural Blues
Extreme Ways
Why Does My Heart Feel So Bad?
04 Extras
Macing Of
Porcelain
The Lonely Night
Natural Blues
God Moving Over The Face Of The Waters
Heroes
Why Does My Heart Feel So Bad?

BDInfo

Disc Title: Moby - Doc
Disc Size: 45 494 769 111 bytes
Protection: AACS
BD-Java: Yes
BDInfo: 0.5.8
Notes:
BDINFO HOME:
Cinema Squid
http://www.cinemasquid.com/blu-ray/tools/bdinfo
INCLUDES FORUMS REPORT FOR:
AVS Forum Blu-ray Audio and Video Specifications Thread
http://www.avsforum.com/avs-vb/showthread.php?t=1155731
********************
PLAYLIST: 00001.MPLS
********************
Код:
Total Video
Title Codec Length Movie Size Disc Size Bitrate Bitrate Main Audio Track Secondary Audio Track
----- ------ ------- -------------- -------------- ------- ------- ------------------ ---------------------
00001.MPLS AVC 1:31:59 19 884 466 176 45 494 769 111 28,82 24,99 LPCM 2.0 2304Kbps (48kHz/24-bit)
Код:
DISC INFO:
Disc Title: Moby - Doc
Disc Size: 45 494 769 111 bytes
Protection: AACS
BD-Java: Yes
BDInfo: 0.5.8
PLAYLIST REPORT:
Name: 00001.MPLS
Length: 1:31:59.833 (h:m:s.ms)
Size: 19 884 466 176 bytes
Total Bitrate: 28,82 Mbps
VIDEO:
Codec Bitrate Deion
----- ------- -----------
MPEG-4 AVC Video 24992 kbps 1080p / 24 fps / 16:9 / High Profile 4.1
AUDIO:
Codec Language Bitrate Deion
----- -------- ------- -----------
LPCM Audio English 2304 kbps 2.0 / 48 kHz / 2304 kbps / 24-bit
SUBTITLES:
Codec Language Bitrate Deion
----- -------- ------- -----------
Presentation Graphics English 45,263 kbps
Presentation Graphics German 40,068 kbps
Presentation Graphics French 35,817 kbps
Presentation Graphics Spanish 35,610 kbps
Presentation Graphics Italian 35,332 kbps
FILES:
Name Time In Length Size Total Bitrate
---- ------- ------ ---- -------------
00005.M2TS 0:00:00.000 1:31:59.833 19 884 466 176 28 819
CHAPTERS:
Number Time In Length Avg Video Rate Max 1-Sec Rate Max 1-Sec Time Max 5-Sec Rate Max 5-Sec Time Max 10Sec Rate Max 10Sec Time Avg Frame Size Max Frame Size Max Frame Time
------ ------- ------ -------------- -------------- -------------- -------------- -------------- -------------- -------------- -------------- -------------- --------------
1 0:00:00.000 0:04:01.541 19 840 kbps 35 645 kbps 00:01:01.749 33 131 kbps 00:00:10.833 33 007 kbps 00:00:05.708 103 317 bytes 302 687 bytes 00:02:41.708
2 0:04:01.541 0:01:47.166 30 589 kbps 41 955 kbps 00:05:02.124 36 219 kbps 00:05:17.125 35 563 kbps 00:05:20.666 159 316 bytes 402 897 bytes 00:05:02.833
3 0:05:48.708 0:11:01.041 24 566 kbps 38 361 kbps 00:06:02.333 35 778 kbps 00:05:58.416 35 350 kbps 00:05:53.249 127 946 bytes 341 889 bytes 00:09:11.083
4 0:16:49.750 0:09:04.750 22 997 kbps 37 526 kbps 00:24:25.874 35 670 kbps 00:25:14.416 35 462 kbps 00:24:16.749 119 778 bytes 372 985 bytes 00:16:55.916
5 0:25:54.500 0:07:55.708 21 928 kbps 36 880 kbps 00:28:13.374 35 594 kbps 00:28:21.666 35 443 kbps 00:28:15.666 114 209 bytes 411 129 bytes 00:33:44.666
6 0:33:50.208 0:10:26.791 24 548 kbps 39 574 kbps 00:34:35.624 35 694 kbps 00:39:03.916 35 209 kbps 00:35:08.583 127 854 bytes 353 976 bytes 00:39:57.000
7 0:44:17.000 0:15:00.333 28 324 kbps 43 887 kbps 00:50:54.333 35 993 kbps 00:51:51.291 35 494 kbps 00:45:15.416 147 520 bytes 399 713 bytes 00:47:03.958
8 0:59:17.333 0:13:33.125 22 253 kbps 37 561 kbps 01:09:07.666 35 928 kbps 01:09:03.708 35 416 kbps 01:09:36.749 115 900 bytes 421 924 bytes 01:03:30.208
9 1:12:50.458 0:11:03.250 29 846 kbps 40 940 kbps 01:22:28.208 35 892 kbps 01:23:05.791 35 517 kbps 01:19:49.041 155 447 bytes 456 274 bytes 01:18:39.625
10 1:23:53.708 0:08:06.125 24 487 kbps 38 463 kbps 01:31:50.916 35 910 kbps 01:31:46.791 35 663 kbps 01:31:41.791 127 547 bytes 385 709 bytes 01:24:09.041
STREAM DIAGNOSTICS:
File PID Type Codec Language Seconds Bitrate Bytes Packets
---- --- ---- ----- -------- -------------- -------------- ------------- -----
00005.M2TS 4113 (0x1011) 0x1B AVC 5519,667 24 992 17 243 653 688 93 792 582
00005.M2TS 4352 (0x1100) 0x80 LPCM eng (English) 5519,667 2 310 1 594 128 348 8 831 736
00005.M2TS 4608 (0x1200) 0x90 PGS eng (English) 5519,667 45 31 230 267 179 462
00005.M2TS 4609 (0x1201) 0x90 PGS deu (German) 5519,667 40 27 646 047 156 770
00005.M2TS 4610 (0x1202) 0x90 PGS fra (French) 5519,667 36 24 713 054 140 709
00005.M2TS 4611 (0x1203) 0x90 PGS spa (Spanish) 5519,667 36 24 570 001 139 889
00005.M2TS 4612 (0x1204) 0x90 PGS ita (Italian) 5519,667 35 24 378 325 138 843
QUICK SUMMARY:
Disc Title: Moby - Doc
Disc Size: 45 494 769 111 bytes
Protection: AACS
BD-Java: Yes
Playlist: 00001.MPLS
Size: 19 884 466 176 bytes
Length: 1:31:59.833
Total Bitrate: 28,82 Mbps
Video: MPEG-4 AVC Video / 24992 kbps / 1080p / 24 fps / 16:9 / High Profile 4.1
Audio: English / LPCM Audio / 2.0 / 48 kHz / 2304 kbps / 24-bit
Subtitle: English / 45,263 kbps
Subtitle: German / 40,068 kbps
Subtitle: French / 35,817 kbps
Subtitle: Spanish / 35,610 kbps
Subtitle: Italian / 35,332 kbps
********************
PLAYLIST: 00000.MPLS
********************
Код:
Total Video
Title Codec Length Movie Size Disc Size Bitrate Bitrate Main Audio Track Secondary Audio Track
----- ------ ------- -------------- -------------- ------- ------- ------------------ ---------------------
00000.MPLS AVC 1:20:16 11 143 249 920 45 494 769 111 18,51 3,00 LPCM 2.0 2304Kbps (48kHz/24-bit) DTS-HD Master 5.1 4135Kbps (48kHz/24-bit)
Код:
DISC INFO:
Disc Title: Moby - Doc
Disc Size: 45 494 769 111 bytes
Protection: AACS
BD-Java: Yes
BDInfo: 0.5.8
PLAYLIST REPORT:
Name: 00000.MPLS
Length: 1:20:16.411 (h:m:s.ms)
Size: 11 143 249 920 bytes
Total Bitrate: 18,51 Mbps
VIDEO:
Codec Bitrate Deion
----- ------- -----------
MPEG-4 AVC Video 3000 kbps 1080i / 29,970 fps / 16:9 / High Profile 4.1
AUDIO:
Codec Language Bitrate Deion
----- -------- ------- -----------
LPCM Audio Undetermined 2304 kbps 2.0 / 48 kHz / 2304 kbps / 24-bit
DTS-HD Master Audio Undetermined 4135 kbps 5.1 / 48 kHz / 4135 kbps / 24-bit (DTS Core: 5.1 / 48 kHz / 1509 kbps / 24-bit)
Dolby TrueHD Audio Undetermined 6478 kbps 7.1 / 48 kHz / 6478 kbps / 24-bit (AC3 Embedded: 5.1 / 48 kHz / 448 kbps)
FILES:
Name Time In Length Size Total Bitrate
---- ------- ------ ---- -------------
00004.M2TS 0:00:00.000 1:20:16.411 11 143 249 920 18 509
CHAPTERS:
Number Time In Length Avg Video Rate Max 1-Sec Rate Max 1-Sec Time Max 5-Sec Rate Max 5-Sec Time Max 10Sec Rate Max 10Sec Time Avg Frame Size Max Frame Size Max Frame Time
------ ------- ------ -------------- -------------- -------------- -------------- -------------- -------------- -------------- -------------- -------------- --------------
1 0:00:00.000 0:03:21.267 2 999 kbps 3 000 kbps 00:00:00.033 3 000 kbps 00:00:00.033 3 000 kbps 00:00:00.033 12 507 bytes 190 296 bytes 00:02:05.091
2 0:03:21.267 0:04:29.269 3 000 kbps 3 000 kbps 00:04:09.215 3 000 kbps 00:04:05.211 3 000 kbps 00:04:00.206 12 513 bytes 190 296 bytes 00:04:10.216
3 0:07:50.536 0:03:43.222 3 000 kbps 3 000 kbps 00:08:19.465 3 000 kbps 00:08:15.461 3 000 kbps 00:08:10.456 12 513 bytes 190 296 bytes 00:08:20.466
4 0:11:33.759 0:05:53.353 3 000 kbps 3 000 kbps 00:12:29.715 3 000 kbps 00:12:25.711 3 000 kbps 00:12:20.706 12 513 bytes 190 296 bytes 00:12:30.716
5 0:17:27.112 0:04:59.298 3 000 kbps 3 000 kbps 00:18:45.090 3 000 kbps 00:18:41.086 3 000 kbps 00:18:36.081 12 513 bytes 190 296 bytes 00:18:46.091
6 0:22:26.411 0:05:17.316 3 000 kbps 3 000 kbps 00:22:55.340 3 000 kbps 00:22:51.336 3 000 kbps 00:22:46.331 12 513 bytes 190 296 bytes 00:22:56.341
7 0:27:43.728 0:07:42.462 3 000 kbps 3 000 kbps 00:29:10.715 3 000 kbps 00:29:06.711 3 000 kbps 00:29:01.706 12 513 bytes 190 296 bytes 00:29:11.716
8 0:35:26.190 0:04:38.277 3 000 kbps 3 000 kbps 00:35:26.190 3 000 kbps 00:35:26.190 3 000 kbps 00:35:26.190 12 513 bytes 190 296 bytes 00:35:27.091
9 0:40:04.468 0:05:42.341 3 000 kbps 3 000 kbps 00:41:41.465 3 000 kbps 00:41:37.461 3 000 kbps 00:41:32.456 12 513 bytes 190 296 bytes 00:41:42.466
10 0:45:46.810 0:06:01.361 3 000 kbps 3 000 kbps 00:45:51.715 3 000 kbps 00:45:47.711 3 000 kbps 00:45:46.810 12 513 bytes 190 296 bytes 00:45:52.716
11 0:51:48.171 0:05:22.322 3 000 kbps 3 000 kbps 00:52:07.090 3 000 kbps 00:52:03.086 3 000 kbps 00:51:58.081 12 513 bytes 190 296 bytes 00:52:08.091
12 0:57:10.493 0:02:51.170 3 000 kbps 3 000 kbps 00:58:22.465 3 000 kbps 00:58:18.461 3 000 kbps 00:58:13.456 12 513 bytes 190 296 bytes 00:58:23.466
13 1:00:01.664 0:05:27.327 3 000 kbps 3 000 kbps 01:00:27.590 3 000 kbps 01:00:23.586 3 000 kbps 01:00:18.581 12 513 bytes 190 296 bytes 01:00:28.591
14 1:05:28.991 0:05:13.312 3 000 kbps 3 000 kbps 01:06:42.965 3 000 kbps 01:06:38.961 3 000 kbps 01:06:33.956 12 513 bytes 190 296 bytes 01:06:43.966
15 1:10:42.304 0:04:16.256 3 000 kbps 3 000 kbps 01:12:52.367 3 000 kbps 01:12:48.363 3 000 kbps 01:12:43.358 12 513 bytes 190 296 bytes 01:10:54.216
16 1:14:58.560 0:05:17.850 3 001 kbps 4 411 kbps 01:20:14.576 3 282 kbps 01:20:10.572 3 141 kbps 01:20:05.567 12 517 bytes 190 296 bytes 01:15:04.466
STREAM DIAGNOSTICS:
File PID Type Codec Language Seconds Bitrate Bytes Packets
---- --- ---- ----- -------- -------------- -------------- ------------- -----
00004.M2TS 4113 (0x1011) 0x1B AVC 4816,278 3 000 1 806 192 889 9 858 968
00004.M2TS 4352 (0x1100) 0x80 LPCM und (Undetermined) 4816,278 2 310 1 390 979 208 7 706 256
00004.M2TS 4353 (0x1101) 0x86 DTS-HD MA und (Undetermined) 4816,278 4 135 2 489 680 296 14 287 788
00004.M2TS 4354 (0x1102) 0x83 TrueHD und (Undetermined) 4816,278 6 927 4 170 093 496 26 023 355
QUICK SUMMARY:
Disc Title: Moby - Doc
Disc Size: 45 494 769 111 bytes
Protection: AACS
BD-Java: Yes
Playlist: 00000.MPLS
Size: 11 143 249 920 bytes
Length: 1:20:16.411
Total Bitrate: 18,51 Mbps
Video: MPEG-4 AVC Video / 3000 kbps / 1080i / 29,970 fps / 16:9 / High Profile 4.1
Audio: Undetermined / LPCM Audio / 2.0 / 48 kHz / 2304 kbps / 24-bit
Audio: Undetermined / DTS-HD Master Audio / 5.1 / 48 kHz / 4135 kbps / 24-bit (DTS Core: 5.1 / 48 kHz / 1509 kbps / 24-bit)
Audio: Undetermined / Dolby TrueHD Audio / 7.1 / 48 kHz / 6478 kbps / 24-bit (AC3 Embedded: 5.1 / 48 kHz / 448 kbps)
********************
PLAYLIST: 00010.MPLS
********************
Код:
Total Video
Title Codec Length Movie Size Disc Size Bitrate Bitrate Main Audio Track Secondary Audio Track
----- ------ ------- -------------- -------------- ------- ------- ------------------ ---------------------
00010.MPLS AVC 0:11:53 2 460 284 928 45 494 769 111 27,57 24,00 LPCM 2.0 2304Kbps (48kHz/24-bit)
Код:
DISC INFO:
Disc Title: Moby - Doc
Disc Size: 45 494 769 111 bytes
Protection: AACS
BD-Java: Yes
BDInfo: 0.5.8
PLAYLIST REPORT:
Name: 00010.MPLS
Length: 0:11:53.921 (h:m:s.ms)
Size: 2 460 284 928 bytes
Total Bitrate: 27,57 Mbps
VIDEO:
Codec Bitrate Deion
----- ------- -----------
MPEG-4 AVC Video 23995 kbps 1080p / 23,976 fps / 16:9 / High Profile 4.1
AUDIO:
Codec Language Bitrate Deion
----- -------- ------- -----------
LPCM Audio English 2304 kbps 2.0 / 48 kHz / 2304 kbps / 24-bit
SUBTITLES:
Codec Language Bitrate Deion
----- -------- ------- -----------
Presentation Graphics English 0,018 kbps
Presentation Graphics German 0,018 kbps
Presentation Graphics French 0,018 kbps
Presentation Graphics Spanish 0,018 kbps
Presentation Graphics Italian 0,018 kbps
FILES:
Name Time In Length Size Total Bitrate
---- ------- ------ ---- -------------
00013.M2TS 0:00:00.000 0:11:53.921 2 460 284 928 27 569
CHAPTERS:
Number Time In Length Avg Video Rate Max 1-Sec Rate Max 1-Sec Time Max 5-Sec Rate Max 5-Sec Time Max 10Sec Rate Max 10Sec Time Avg Frame Size Max Frame Size Max Frame Time
------ ------- ------ -------------- -------------- -------------- -------------- -------------- -------------- -------------- -------------- -------------- --------------
1 0:00:00.000 0:03:16.196 15 153 kbps 28 191 kbps 00:02:23.309 25 798 kbps 00:02:21.933 23 682 kbps 00:02:21.933 78 984 bytes 365 342 bytes 00:01:07.150
2 0:03:16.196 0:04:58.840 32 240 kbps 39 290 kbps 00:05:46.637 36 431 kbps 00:06:45.196 36 103 kbps 00:04:28.226 168 083 bytes 505 257 bytes 00:07:27.447
3 0:08:15.036 0:03:38.885 20 666 kbps 37 692 kbps 00:10:10.609 34 002 kbps 00:10:09.775 31 761 kbps 00:10:09.775 107 762 bytes 374 815 bytes 00:10:13.195
STREAM DIAGNOSTICS:
File PID Type Codec Language Seconds Bitrate Bytes Packets
---- --- ---- ----- -------- -------------- -------------- ------------- -----
00013.M2TS 4113 (0x1011) 0x1B AVC 713,755 24 001 2 141 362 670 11 647 690
00013.M2TS 4352 (0x1100) 0x80 LPCM eng (English) 713,755 2 311 206 180 096 1 142 272
00013.M2TS 4608 (0x1200) 0x90 PGS eng (English) 713,755 0 1 644 16
00013.M2TS 4609 (0x1201) 0x90 PGS deu (German) 713,755 0 1 644 16
00013.M2TS 4610 (0x1202) 0x90 PGS fra (French) 713,755 0 1 644 16
00013.M2TS 4611 (0x1203) 0x90 PGS spa (Spanish) 713,755 0 1 644 16
00013.M2TS 4612 (0x1204) 0x90 PGS ita (Italian) 713,755 0 1 644 16
QUICK SUMMARY:
Disc Title: Moby - Doc
Disc Size: 45 494 769 111 bytes
Protection: AACS
BD-Java: Yes
Playlist: 00010.MPLS
Size: 2 460 284 928 bytes
Length: 0:11:53.921
Total Bitrate: 27,57 Mbps
Video: MPEG-4 AVC Video / 23995 kbps / 1080p / 23,976 fps / 16:9 / High Profile 4.1
Audio: English / LPCM Audio / 2.0 / 48 kHz / 2304 kbps / 24-bit
Subtitle: English / 0,018 kbps
Subtitle: German / 0,018 kbps
Subtitle: French / 0,018 kbps
Subtitle: Spanish / 0,018 kbps
Subtitle: Italian / 0,018 kbps
********************
PLAYLIST: 00004.MPLS
********************
Код:
Total Video
Title Codec Length Movie Size Disc Size Bitrate Bitrate Main Audio Track Secondary Audio Track
----- ------ ------- -------------- -------------- ------- ------- ------------------ ---------------------
00004.MPLS AVC 0:09:03 1 846 468 608 45 494 769 111 27,19 24,00 LPCM 2.0 1536Kbps (48kHz/16-bit)
Код:
DISC INFO:
Disc Title: Moby - Doc
Disc Size: 45 494 769 111 bytes
Protection: AACS
BD-Java: Yes
BDInfo: 0.5.8
PLAYLIST REPORT:
Name: 00004.MPLS
Length: 0:09:03.242 (h:m:s.ms)
Size: 1 846 468 608 bytes
Total Bitrate: 27,19 Mbps
VIDEO:
Codec Bitrate Deion
----- ------- -----------
MPEG-4 AVC Video 23998 kbps 1080i / 29,970 fps / 16:9 / High Profile 4.1
AUDIO:
Codec Language Bitrate Deion
----- -------- ------- -----------
LPCM Audio English 1536 kbps 2.0 / 48 kHz / 1536 kbps / 16-bit
SUBTITLES:
Codec Language Bitrate Deion
----- -------- ------- -----------
Presentation Graphics English 41,961 kbps
Presentation Graphics German 46,241 kbps
Presentation Graphics French 40,765 kbps
Presentation Graphics Spanish 44,971 kbps
Presentation Graphics Italian 36,924 kbps
FILES:
Name Time In Length Size Total Bitrate
---- ------- ------ ---- -------------
00006.M2TS 0:00:00.000 0:09:03.242 1 846 468 608 27 192
CHAPTERS:
Number Time In Length Avg Video Rate Max 1-Sec Rate Max 1-Sec Time Max 5-Sec Rate Max 5-Sec Time Max 10Sec Rate Max 10Sec Time Avg Frame Size Max Frame Size Max Frame Time
------ ------- ------ -------------- -------------- -------------- -------------- -------------- -------------- -------------- -------------- -------------- --------------
1 0:00:00.000 0:09:03.242 23 998 kbps 37 494 kbps 00:05:46.079 33 536 kbps 00:05:43.276 30 910 kbps 00:05:38.171 100 093 bytes 401 133 bytes 00:05:46.913
STREAM DIAGNOSTICS:
File PID Type Codec Language Seconds Bitrate Bytes Packets
---- --- ---- ----- -------- -------------- -------------- ------------- -----
00006.M2TS 4113 (0x1011) 0x1B AVC 543,109 24 004 1 629 610 009 8 866 061
00006.M2TS 4352 (0x1100) 0x80 LPCM eng (English) 543,109 1 543 104 737 636 651 894
00006.M2TS 4608 (0x1200) 0x90 PGS eng (English) 543,109 42 2 849 395 16 091
00006.M2TS 4609 (0x1201) 0x90 PGS deu (German) 543,109 46 3 140 014 17 686
00006.M2TS 4610 (0x1202) 0x90 PGS fra (French) 543,109 41 2 768 145 15 652
00006.M2TS 4611 (0x1203) 0x90 PGS spa (Spanish) 543,109 45 3 053 767 17 205
00006.M2TS 4612 (0x1204) 0x90 PGS ita (Italian) 543,109 37 2 507 347 14 228
QUICK SUMMARY:
Disc Title: Moby - Doc
Disc Size: 45 494 769 111 bytes
Protection: AACS
BD-Java: Yes
Playlist: 00004.MPLS
Size: 1 846 468 608 bytes
Length: 0:09:03.242
Total Bitrate: 27,19 Mbps
Video: MPEG-4 AVC Video / 23998 kbps / 1080i / 29,970 fps / 16:9 / High Profile 4.1
Audio: English / LPCM Audio / 2.0 / 48 kHz / 1536 kbps / 16-bit
Subtitle: English / 41,961 kbps
Subtitle: German / 46,241 kbps
Subtitle: French / 40,765 kbps
Subtitle: Spanish / 44,971 kbps
Subtitle: Italian / 36,924 kbps
********************
PLAYLIST: 00005.MPLS
********************
Код:
Total Video
Title Codec Length Movie Size Disc Size Bitrate Bitrate Main Audio Track Secondary Audio Track
----- ------ ------- -------------- -------------- ------- ------- ------------------ ---------------------
00005.MPLS AVC 0:08:45 1 789 077 504 45 494 769 111 27,22 24,00 LPCM 2.0 1536Kbps (48kHz/16-bit)
Код:
DISC INFO:
Disc Title: Moby - Doc
Disc Size: 45 494 769 111 bytes
Protection: AACS
BD-Java: Yes
BDInfo: 0.5.8
PLAYLIST REPORT:
Name: 00005.MPLS
Length: 0:08:45.758 (h:m:s.ms)
Size: 1 789 077 504 bytes
Total Bitrate: 27,22 Mbps
VIDEO:
Codec Bitrate Deion
----- ------- -----------
MPEG-4 AVC Video 23996 kbps 1080i / 29,970 fps / 16:9 / High Profile 4.1
AUDIO:
Codec Language Bitrate Deion
----- -------- ------- -----------
LPCM Audio English 1536 kbps 2.0 / 48 kHz / 1536 kbps / 16-bit
SUBTITLES:
Codec Language Bitrate Deion
----- -------- ------- -----------
Presentation Graphics English 47,952 kbps
Presentation Graphics German 55,528 kbps
Presentation Graphics French 43,899 kbps
Presentation Graphics Spanish 51,422 kbps
Presentation Graphics Italian 43,130 kbps
FILES:
Name Time In Length Size Total Bitrate
---- ------- ------ ---- -------------
00008.M2TS 0:00:00.000 0:08:45.758 1 789 077 504 27 223
CHAPTERS:
Number Time In Length Avg Video Rate Max 1-Sec Rate Max 1-Sec Time Max 5-Sec Rate Max 5-Sec Time Max 10Sec Rate Max 10Sec Time Avg Frame Size Max Frame Size Max Frame Time
------ ------- ------ -------------- -------------- -------------- -------------- -------------- -------------- -------------- -------------- -------------- --------------
1 0:00:00.000 0:08:45.758 23 996 kbps 41 561 kbps 00:04:03.309 36 824 kbps 00:03:59.405 35 898 kbps 00:08:15.995 100 083 bytes 640 836 bytes 00:07:19.105
STREAM DIAGNOSTICS:
File PID Type Codec Language Seconds Bitrate Bytes Packets
---- --- ---- ----- -------- -------------- -------------- ------------- -----
00008.M2TS 4113 (0x1011) 0x1B AVC 525,625 24 002 1 577 015 378 8 579 728
00008.M2TS 4352 (0x1100) 0x80 LPCM eng (English) 525,625 1 543 101 366 528 630 912
00008.M2TS 4608 (0x1200) 0x90 PGS eng (English) 525,625 48 3 151 392 17 809
00008.M2TS 4609 (0x1201) 0x90 PGS deu (German) 525,625 56 3 649 311 20 539
00008.M2TS 4610 (0x1202) 0x90 PGS fra (French) 525,625 44 2 885 006 16 359
00008.M2TS 4611 (0x1203) 0x90 PGS spa (Spanish) 525,625 51 3 379 466 19 054
00008.M2TS 4612 (0x1204) 0x90 PGS ita (Italian) 525,625 43 2 834 479 16 090
QUICK SUMMARY:
Disc Title: Moby - Doc
Disc Size: 45 494 769 111 bytes
Protection: AACS
BD-Java: Yes
Playlist: 00005.MPLS
Size: 1 789 077 504 bytes
Length: 0:08:45.758
Total Bitrate: 27,22 Mbps
Video: MPEG-4 AVC Video / 23996 kbps / 1080i / 29,970 fps / 16:9 / High Profile 4.1
Audio: English / LPCM Audio / 2.0 / 48 kHz / 1536 kbps / 16-bit
Subtitle: English / 47,952 kbps
Subtitle: German / 55,528 kbps
Subtitle: French / 43,899 kbps
Subtitle: Spanish / 51,422 kbps
Subtitle: Italian / 43,130 kbps
********************
PLAYLIST: 00003.MPLS
********************
Код:
Total Video
Title Codec Length Movie Size Disc Size Bitrate Bitrate Main Audio Track Secondary Audio Track
----- ------ ------- -------------- -------------- ------- ------- ------------------ ---------------------
00003.MPLS AVC 0:08:37 1 754 800 128 45 494 769 111 27,15 23,99 LPCM 2.0 1536Kbps (48kHz/16-bit)
Код:
DISC INFO:
Disc Title: Moby - Doc
Disc Size: 45 494 769 111 bytes
Protection: AACS
BD-Java: Yes
BDInfo: 0.5.8
PLAYLIST REPORT:
Name: 00003.MPLS
Length: 0:08:37.058 (h:m:s.ms)
Size: 1 754 800 128 bytes
Total Bitrate: 27,15 Mbps
VIDEO:
Codec Bitrate Deion
----- ------- -----------
MPEG-4 AVC Video 23990 kbps 1080p / 23,976 fps / 16:9 / High Profile 4.1
AUDIO:
Codec Language Bitrate Deion
----- -------- ------- -----------
LPCM Audio English 1536 kbps 2.0 / 48 kHz / 1536 kbps / 16-bit
SUBTITLES:
Codec Language Bitrate Deion
----- -------- ------- -----------
Presentation Graphics English 36,029 kbps
Presentation Graphics German 40,713 kbps
Presentation Graphics French 35,076 kbps
Presentation Graphics Spanish 39,654 kbps
Presentation Graphics Italian 33,889 kbps
FILES:
Name Time In Length Size Total Bitrate
---- ------- ------ ---- -------------
00002.M2TS 0:00:00.000 0:08:37.058 1 754 800 128 27 151
CHAPTERS:
Number Time In Length Avg Video Rate Max 1-Sec Rate Max 1-Sec Time Max 5-Sec Rate Max 5-Sec Time Max 10Sec Rate Max 10Sec Time Avg Frame Size Max Frame Size Max Frame Time
------ ------- ------ -------------- -------------- -------------- -------------- -------------- -------------- -------------- -------------- -------------- --------------
1 0:00:00.000 0:08:37.058 23 990 kbps 37 753 kbps 00:08:21.125 36 135 kbps 00:08:01.230 35 924 kbps 00:08:13.117 125 071 bytes 455 062 bytes 00:08:23.961
STREAM DIAGNOSTICS:
File PID Type Codec Language Seconds Bitrate Bytes Packets
---- --- ---- ----- -------- -------------- -------------- ------------- -----
00002.M2TS 4113 (0x1011) 0x1B AVC 516,891 23 997 1 550 509 243 8 433 909
00002.M2TS 4352 (0x1100) 0x80 LPCM eng (English) 516,891 1 543 99 689 168 620 472
00002.M2TS 4608 (0x1200) 0x90 PGS eng (English) 516,891 36 2 328 632 13 197
00002.M2TS 4609 (0x1201) 0x90 PGS deu (German) 516,891 41 2 631 353 14 866
00002.M2TS 4610 (0x1202) 0x90 PGS fra (French) 516,891 35 2 267 063 12 863
00002.M2TS 4611 (0x1203) 0x90 PGS spa (Spanish) 516,891 40 2 562 896 14 484
00002.M2TS 4612 (0x1204) 0x90 PGS ita (Italian) 516,891 34 2 190 303 12 443
QUICK SUMMARY:
Disc Title: Moby - Doc
Disc Size: 45 494 769 111 bytes
Protection: AACS
BD-Java: Yes
Playlist: 00003.MPLS
Size: 1 754 800 128 bytes
Length: 0:08:37.058
Total Bitrate: 27,15 Mbps
Video: MPEG-4 AVC Video / 23990 kbps / 1080p / 23,976 fps / 16:9 / High Profile 4.1
Audio: English / LPCM Audio / 2.0 / 48 kHz / 1536 kbps / 16-bit
Subtitle: English / 36,029 kbps
Subtitle: German / 40,713 kbps
Subtitle: French / 35,076 kbps
Subtitle: Spanish / 39,654 kbps
Subtitle: Italian / 33,889 kbps
********************
PLAYLIST: 00009.MPLS
********************
Код:
Total Video
Title Codec Length Movie Size Disc Size Bitrate Bitrate Main Audio Track Secondary Audio Track
----- ------ ------- -------------- -------------- ------- ------- ------------------ ---------------------
00009.MPLS AVC 0:08:22 1 710 041 088 45 494 769 111 27,21 24,00 LPCM 2.0 1536Kbps (48kHz/16-bit)
Код:
DISC INFO:
Disc Title: Moby - Doc
Disc Size: 45 494 769 111 bytes
Protection: AACS
BD-Java: Yes
BDInfo: 0.5.8
PLAYLIST REPORT:
Name: 00009.MPLS
Length: 0:08:22.793 (h:m:s.ms)
Size: 1 710 041 088 bytes
Total Bitrate: 27,21 Mbps
VIDEO:
Codec Bitrate Deion
----- ------- -----------
MPEG-4 AVC Video 24000 kbps 1080p / 23,976 fps / 16:9 / High Profile 4.1
AUDIO:
Codec Language Bitrate Deion
----- -------- ------- -----------
LPCM Audio English 1536 kbps 2.0 / 48 kHz / 1536 kbps / 16-bit
SUBTITLES:
Codec Language Bitrate Deion
----- -------- ------- -----------
Presentation Graphics English 44,026 kbps
Presentation Graphics German 49,552 kbps
Presentation Graphics French 44,957 kbps
Presentation Graphics Spanish 49,033 kbps
Presentation Graphics Italian 41,613 kbps
FILES:
Name Time In Length Size Total Bitrate
---- ------- ------ ---- -------------
00012.M2TS 0:00:00.000 0:08:22.793 1 710 041 088 27 209
CHAPTERS:
Number Time In Length Avg Video Rate Max 1-Sec Rate Max 1-Sec Time Max 5-Sec Rate Max 5-Sec Time Max 10Sec Rate Max 10Sec Time Avg Frame Size Max Frame Size Max Frame Time
------ ------- ------ -------------- -------------- -------------- -------------- -------------- -------------- -------------- -------------- -------------- --------------
1 0:00:00.000 0:08:22.793 24 000 kbps 37 252 kbps 00:02:43.413 36 029 kbps 00:03:55.693 35 916 kbps 00:04:07.580 125 123 bytes 611 787 bytes 00:01:17.577
STREAM DIAGNOSTICS:
File PID Type Codec Language Seconds Bitrate Bytes Packets
---- --- ---- ----- -------- -------------- -------------- ------------- -----
00012.M2TS 4113 (0x1011) 0x1B AVC 502,627 24 008 1 508 358 211 8 204 599
00012.M2TS 4352 (0x1100) 0x80 LPCM eng (English) 502,627 1 543 96 938 876 603 354
00012.M2TS 4608 (0x1200) 0x90 PGS eng (English) 502,627 44 2 767 005 15 687
00012.M2TS 4609 (0x1201) 0x90 PGS deu (German) 502,627 50 3 114 283 17 612
00012.M2TS 4610 (0x1202) 0x90 PGS fra (French) 502,627 45 2 825 488 16 033
00012.M2TS 4611 (0x1203) 0x90 PGS spa (Spanish) 502,627 49 3 081 665 17 428
00012.M2TS 4612 (0x1204) 0x90 PGS ita (Italian) 502,627 42 2 615 349 14 883
QUICK SUMMARY:
Disc Title: Moby - Doc
Disc Size: 45 494 769 111 bytes
Protection: AACS
BD-Java: Yes
Playlist: 00009.MPLS
Size: 1 710 041 088 bytes
Length: 0:08:22.793
Total Bitrate: 27,21 Mbps
Video: MPEG-4 AVC Video / 24000 kbps / 1080p / 23,976 fps / 16:9 / High Profile 4.1
Audio: English / LPCM Audio / 2.0 / 48 kHz / 1536 kbps / 16-bit
Subtitle: English / 44,026 kbps
Subtitle: German / 49,552 kbps
Subtitle: French / 44,957 kbps
Subtitle: Spanish / 49,033 kbps
Subtitle: Italian / 41,613 kbps
********************
PLAYLIST: 00008.MPLS
********************
Код:
Total Video
Title Codec Length Movie Size Disc Size Bitrate Bitrate Main Audio Track Secondary Audio Track
----- ------ ------- -------------- -------------- ------- ------- ------------------ ---------------------
00008.MPLS AVC 0:07:59 1 629 431 808 45 494 769 111 27,18 23,98 LPCM 2.0 1536Kbps (48kHz/16-bit)
Код:
DISC INFO:
Disc Title: Moby - Doc
Disc Size: 45 494 769 111 bytes
Protection: AACS
BD-Java: Yes
BDInfo: 0.5.8
PLAYLIST REPORT:
Name: 00008.MPLS
Length: 0:07:59.645 (h:m:s.ms)
Size: 1 629 431 808 bytes
Total Bitrate: 27,18 Mbps
VIDEO:
Codec Bitrate Deion
----- ------- -----------
MPEG-4 AVC Video 23980 kbps 1080i / 29,970 fps / 16:9 / High Profile 4.1
AUDIO:
Codec Language Bitrate Deion
----- -------- ------- -----------
LPCM Audio English 1536 kbps 2.0 / 48 kHz / 1536 kbps / 16-bit
SUBTITLES:
Codec Language Bitrate Deion
----- -------- ------- -----------
Presentation Graphics English 43,111 kbps
Presentation Graphics German 50,183 kbps
Presentation Graphics French 39,429 kbps
Presentation Graphics Spanish 47,194 kbps
Presentation Graphics Italian 38,623 kbps
FILES:
Name Time In Length Size Total Bitrate
---- ------- ------ ---- -------------
00011.M2TS 0:00:00.000 0:07:59.645 1 629 431 808 27 177
CHAPTERS:
Number Time In Length Avg Video Rate Max 1-Sec Rate Max 1-Sec Time Max 5-Sec Rate Max 5-Sec Time Max 10Sec Rate Max 10Sec Time Avg Frame Size Max Frame Size Max Frame Time
------ ------- ------ -------------- -------------- -------------- -------------- -------------- -------------- -------------- -------------- -------------- --------------
1 0:00:00.000 0:07:59.645 23 980 kbps 33 526 kbps 00:01:54.914 31 109 kbps 00:02:14.934 30 683 kbps 00:02:12.432 100 018 bytes 429 654 bytes 00:03:43.656
STREAM DIAGNOSTICS:
File PID Type Codec Language Seconds Bitrate Bytes Packets
---- --- ---- ----- -------- -------------- -------------- ------------- -----
00011.M2TS 4113 (0x1011) 0x1B AVC 479,512 23 987 1 437 761 281 7 822 186
00011.M2TS 4352 (0x1100) 0x80 LPCM eng (English) 479,512 1 540 92 283 720 574 380
00011.M2TS 4608 (0x1200) 0x90 PGS eng (English) 479,512 43 2 584 742 14 594
00011.M2TS 4609 (0x1201) 0x90 PGS deu (German) 479,512 50 3 008 747 16 915
00011.M2TS 4610 (0x1202) 0x90 PGS fra (French) 479,512 39 2 363 978 13 393
00011.M2TS 4611 (0x1203) 0x90 PGS spa (Spanish) 479,512 47 2 829 525 15 944
00011.M2TS 4612 (0x1204) 0x90 PGS ita (Italian) 479,512 39 2 315 700 13 131
QUICK SUMMARY:
Disc Title: Moby - Doc
Disc Size: 45 494 769 111 bytes
Protection: AACS
BD-Java: Yes
Playlist: 00008.MPLS
Size: 1 629 431 808 bytes
Length: 0:07:59.645
Total Bitrate: 27,18 Mbps
Video: MPEG-4 AVC Video / 23980 kbps / 1080i / 29,970 fps / 16:9 / High Profile 4.1
Audio: English / LPCM Audio / 2.0 / 48 kHz / 1536 kbps / 16-bit
Subtitle: English / 43,111 kbps
Subtitle: German / 50,183 kbps
Subtitle: French / 39,429 kbps
Subtitle: Spanish / 47,194 kbps
Subtitle: Italian / 38,623 kbps
********************
PLAYLIST: 00006.MPLS
********************
Код:
Total Video
Title Codec Length Movie Size Disc Size Bitrate Bitrate Main Audio Track Secondary Audio Track
----- ------ ------- -------------- -------------- ------- ------- ------------------ ---------------------
00006.MPLS AVC 0:07:12 1 478 184 960 45 494 769 111 27,33 23,98 LPCM 2.0 1536Kbps (48kHz/16-bit)
Код:
DISC INFO:
Disc Title: Moby - Doc
Disc Size: 45 494 769 111 bytes
Protection: AACS
BD-Java: Yes
BDInfo: 0.5.8
PLAYLIST REPORT:
Name: 00006.MPLS
Length: 0:07:12.765 (h:m:s.ms)
Size: 1 478 184 960 bytes
Total Bitrate: 27,33 Mbps
VIDEO:
Codec Bitrate Deion
----- ------- -----------
MPEG-4 AVC Video 23984 kbps 1080p / 23,976 fps / 16:9 / High Profile 4.1
AUDIO:
Codec Language Bitrate Deion
----- -------- ------- -----------
LPCM Audio English 1536 kbps 2.0 / 48 kHz / 1536 kbps / 16-bit
SUBTITLES:
Codec Language Bitrate Deion
----- -------- ------- -----------
Presentation Graphics English 69,625 kbps
Presentation Graphics German 76,542 kbps
Presentation Graphics French 67,163 kbps
Presentation Graphics Spanish 76,216 kbps
Presentation Graphics Italian 62,508 kbps
FILES:
Name Time In Length Size Total Bitrate
---- ------- ------ ---- -------------
00009.M2TS 0:00:00.000 0:07:12.765 1 478 184 960 27 325
CHAPTERS:
Number Time In Length Avg Video Rate Max 1-Sec Rate Max 1-Sec Time Max 5-Sec Rate Max 5-Sec Time Max 10Sec Rate Max 10Sec Time Avg Frame Size Max Frame Size Max Frame Time
------ ------- ------ -------------- -------------- -------------- -------------- -------------- -------------- -------------- -------------- -------------- --------------
1 0:00:00.000 0:07:12.765 23 984 kbps 38 495 kbps 00:05:36.878 36 231 kbps 00:05:57.982 35 881 kbps 00:05:52.060 125 042 bytes 492 058 bytes 00:01:04.981
STREAM DIAGNOSTICS:
File PID Type Codec Language Seconds Bitrate Bytes Packets
---- --- ---- ----- -------- -------------- -------------- ------------- -----
00009.M2TS 4113 (0x1011) 0x1B AVC 432,599 23 993 1 297 440 267 7 057 349
00009.M2TS 4352 (0x1100) 0x80 LPCM eng (English) 432,599 1 543 83 437 092 519 318
00009.M2TS 4608 (0x1200) 0x90 PGS eng (English) 432,599 70 3 766 415 21 305
00009.M2TS 4609 (0x1201) 0x90 PGS deu (German) 432,599 77 4 140 578 23 360
00009.M2TS 4610 (0x1202) 0x90 PGS fra (French) 432,599 67 3 633 256 20 580
00009.M2TS 4611 (0x1203) 0x90 PGS spa (Spanish) 432,599 76 4 122 980 23 245
00009.M2TS 4612 (0x1204) 0x90 PGS ita (Italian) 432,599 63 3 381 394 19 215
QUICK SUMMARY:
Disc Title: Moby - Doc
Disc Size: 45 494 769 111 bytes
Protection: AACS
BD-Java: Yes
Playlist: 00006.MPLS
Size: 1 478 184 960 bytes
Length: 0:07:12.765
Total Bitrate: 27,33 Mbps
Video: MPEG-4 AVC Video / 23984 kbps / 1080p / 23,976 fps / 16:9 / High Profile 4.1
Audio: English / LPCM Audio / 2.0 / 48 kHz / 1536 kbps / 16-bit
Subtitle: English / 69,625 kbps
Subtitle: German / 76,542 kbps
Subtitle: French / 67,163 kbps
Subtitle: Spanish / 76,216 kbps
Subtitle: Italian / 62,508 kbps
********************
PLAYLIST: 00007.MPLS
********************
Код:
Total Video
Title Codec Length Movie Size Disc Size Bitrate Bitrate Main Audio Track Secondary Audio Track
----- ------ ------- -------------- -------------- ------- ------- ------------------ ---------------------
00007.MPLS AVC 0:06:45 1 382 971 392 45 494 769 111 27,30 24,00 LPCM 2.0 1536Kbps (48kHz/16-bit)
Код:
DISC INFO:
Disc Title: Moby - Doc
Disc Size: 45 494 769 111 bytes
Protection: AACS
BD-Java: Yes
BDInfo: 0.5.8
PLAYLIST REPORT:
Name: 00007.MPLS
Length: 0:06:45.238 (h:m:s.ms)
Size: 1 382 971 392 bytes
Total Bitrate: 27,30 Mbps
VIDEO:
Codec Bitrate Deion
----- ------- -----------
MPEG-4 AVC Video 23998 kbps 1080i / 29,970 fps / 16:9 / High Profile 4.1
AUDIO:
Codec Language Bitrate Deion
----- -------- ------- -----------
LPCM Audio English 1536 kbps 2.0 / 48 kHz / 1536 kbps / 16-bit
SUBTITLES:
Codec Language Bitrate Deion
----- -------- ------- -----------
Presentation Graphics English 64,258 kbps
Presentation Graphics German 69,905 kbps
Presentation Graphics French 57,334 kbps
Presentation Graphics Spanish 65,467 kbps
Presentation Graphics Italian 55,073 kbps
FILES:
Name Time In Length Size Total Bitrate
---- ------- ------ ---- -------------
00010.M2TS 0:00:00.000 0:06:45.238 1 382 971 392 27 302
CHAPTERS:
Number Time In Length Avg Video Rate Max 1-Sec Rate Max 1-Sec Time Max 5-Sec Rate Max 5-Sec Time Max 10Sec Rate Max 10Sec Time Avg Frame Size Max Frame Size Max Frame Time
------ ------- ------ -------------- -------------- -------------- -------------- -------------- -------------- -------------- -------------- -------------- --------------
1 0:00:00.000 0:06:45.238 23 998 kbps 40 594 kbps 00:06:40.433 36 553 kbps 00:06:36.295 36 141 kbps 00:06:31.424 100 092 bytes 541 636 bytes 00:06:39.766
STREAM DIAGNOSTICS:
File PID Type Codec Language Seconds Bitrate Bytes Packets
---- --- ---- ----- -------- -------------- -------------- ------------- -----
00010.M2TS 4113 (0x1011) 0x1B AVC 405,105 24 006 1 215 616 512 6 613 655
00010.M2TS 4352 (0x1100) 0x80 LPCM eng (English) 405,105 1 543 78 130 272 486 288
00010.M2TS 4608 (0x1200) 0x90 PGS eng (English) 405,105 64 3 254 972 18 392
00010.M2TS 4609 (0x1201) 0x90 PGS deu (German) 405,105 70 3 541 031 19 986
00010.M2TS 4610 (0x1202) 0x90 PGS fra (French) 405,105 57 2 904 264 16 483
00010.M2TS 4611 (0x1203) 0x90 PGS spa (Spanish) 405,105 65 3 316 202 18 720
00010.M2TS 4612 (0x1204) 0x90 PGS ita (Italian) 405,105 55 2 789 709 15 864
QUICK SUMMARY:
Disc Title: Moby - Doc
Disc Size: 45 494 769 111 bytes
Protection: AACS
BD-Java: Yes
Playlist: 00007.MPLS
Size: 1 382 971 392 bytes
Length: 0:06:45.238
Total Bitrate: 27,30 Mbps
Video: MPEG-4 AVC Video / 23998 kbps / 1080i / 29,970 fps / 16:9 / High Profile 4.1
Audio: English / LPCM Audio / 2.0 / 48 kHz / 1536 kbps / 16-bit
Subtitle: English / 64,258 kbps
Subtitle: German / 69,905 kbps
Subtitle: French / 57,334 kbps
Subtitle: Spanish / 65,467 kbps
Subtitle: Italian / 55,073 kbps

Скриншоты

admin

Post 15-Dec-2021 16:14

[Quote]

Название: 101 [Reissue, Remastered, Stereo, Multichannel]
Исполнитель: Depeche Mode
Год: 2021
Жанр: Synth-pop
Страна: UK
Продолжительность: 02:00:19+01:13:04
Формат/Кодек: Blu-ray
Разрешение видео/развертка: 1080p
Контейнер:BDMV
Видео кодек:H.264
Аудио кодек:PCM / AC3
Видео:MPEG-4 AVC Video / 19999 kbps / 1080p / 23.976 fps / 16:9 / High Profile 4.1
Аудио #1:English / LPCM Audio / 2.0 / 48 kHz / 2304 kbps / 24-bit
Аудио #2:English / LPCM Audio / 5.1 / 48 kHz / 6912 kbps / 24-bit
Аудио #3:English / Dolby Digital Audio / 5.1 / 48 kHz / 640 kbps / DN -31dB

Треклист:

1 101 (Film)
Rose Bowl Concert
2 Master And Servant
3 Pimpf
4 Behind The Wheel
5 Strangelove
6 Blasphemous Rumours
7 Stripped
8 Somebody
9 Black Celebration
10 Pleasure, Little Treasure
11 Just Can't Get Enough
12 Everything Counts
13 Never Let Me Down Again
Bonus Videos
14 Everything Counts Music Video
15 A Question Of Lust
16 Sacred
17 Something To Do

BDInfo

Disc Title: Depeche Mode - 101
Disc Size: 45 019 958 385 bytes
Protection: AACS
BD-Java: No
BDInfo: 0.5.8
Notes:
BDINFO HOME:
Cinema Squid
INCLUDES FORUMS REPORT FOR:
AVS Forum Blu-ray Audio and Video Specifications Thread
http://www.avsforum.com/avs-vb/showthread.php?t=1155731
********************
PLAYLIST: 00020.MPLS
********************
Код:
Total Video
Title Codec Length Movie Size Disc Size Bitrate Bitrate Main Audio Track Secondary Audio Track
----- ------ ------- -------------- -------------- ------- ------- ------------------ ---------------------
00020.MPLS AVC 2:00:19 28 539 758 592 45 019 958 385 31,63 20,00 LPCM 2.0 2304Kbps (48kHz/24-bit) LPCM 5.1 6912Kbps (48kHz/24-bit)
Код:
DISC INFO:
Disc Title: Depeche Mode - 101
Disc Size: 45 019 958 385 bytes
Protection: AACS
BD-Java: No
BDInfo: 0.5.8
PLAYLIST REPORT:
Name: 00020.MPLS
Length: 2:00:19.462 (h:m:s.ms)
Size: 28 539 758 592 bytes
Total Bitrate: 31,63 Mbps
VIDEO:
Codec Bitrate Deion
----- ------- -----------
MPEG-4 AVC Video 19999 kbps 1080p / 23,976 fps / 16:9 / High Profile 4.1
AUDIO:
Codec Language Bitrate Deion
----- -------- ------- -----------
LPCM Audio English 2304 kbps 2.0 / 48 kHz / 2304 kbps / 24-bit
LPCM Audio English 6912 kbps 5.1 / 48 kHz / 6912 kbps / 24-bit
Dolby Digital Audio English 640 kbps 5.1 / 48 kHz / 640 kbps
SUBTITLES:
Codec Language Bitrate Deion
----- -------- ------- -----------
Presentation Graphics Dutch 13,559 kbps
Presentation Graphics French 14,225 kbps
Presentation Graphics German 15,256 kbps
Presentation Graphics Italian 14,704 kbps
Presentation Graphics Japanese 15,104 kbps
Presentation Graphics Portuguese 15,813 kbps
Presentation Graphics Spanish 14,443 kbps
Presentation Graphics Spanish 13,973 kbps
FILES:
Name Time In Length Size Total Bitrate
---- ------- ------ ---- -------------
00000.M2TS 0:00:00.000 2:00:15.249 28 531 046 400 31 634
00009.M2TS 2:00:15.249 0:00:03.211 8 441 856 21 029
00006.M2TS 2:00:18.461 0:00:01.000 270 336 2 161
CHAPTERS:
Number Time In Length Avg Video Rate Max 1-Sec Rate Max 1-Sec Time Max 5-Sec Rate Max 5-Sec Time Max 10Sec Rate Max 10Sec Time Avg Frame Size Max Frame Size Max Frame Time
------ ------- ------ -------------- -------------- -------------- -------------- -------------- -------------- -------------- -------------- -------------- --------------
1 0:00:00.000 0:01:28.505 15 844 kbps 27 817 kbps 00:00:37.245 25 642 kbps 00:00:34.159 24 734 kbps 00:00:32.365 82 566 bytes 204 901 bytes 00:01:28.505
2 0:01:28.505 0:05:45.845 24 101 kbps 32 780 kbps 00:05:24.407 29 972 kbps 00:04:14.337 29 864 kbps 00:04:45.118 125 654 bytes 246 103 bytes 00:02:12.924
3 0:07:14.350 0:06:47.657 23 260 kbps 31 638 kbps 00:11:59.677 30 262 kbps 00:11:50.209 29 823 kbps 00:10:28.169 121 269 bytes 248 346 bytes 00:11:41.742
4 0:14:02.007 0:06:48.950 20 180 kbps 30 413 kbps 00:15:08.907 27 234 kbps 00:18:05.417 25 423 kbps 00:18:04.416 105 209 bytes 308 123 bytes 00:17:14.158
5 0:20:50.958 0:03:30.501 20 296 kbps 27 246 kbps 00:20:52.876 25 414 kbps 00:22:16.501 25 228 kbps 00:22:13.874 105 815 bytes 214 340 bytes 00:20:52.960
6 0:24:21.460 0:11:27.019 18 932 kbps 31 155 kbps 00:34:31.903 30 023 kbps 00:34:27.857 29 902 kbps 00:34:22.852 98 701 bytes 249 340 bytes 00:28:36.464
7 0:35:48.479 0:10:47.313 19 229 kbps 30 574 kbps 00:45:04.993 29 944 kbps 00:44:52.940 29 845 kbps 00:44:56.360 100 254 bytes 237 203 bytes 00:36:23.598
8 0:46:35.792 0:10:15.615 18 331 kbps 31 998 kbps 00:53:55.857 29 449 kbps 00:48:35.579 28 380 kbps 00:54:01.488 95 572 bytes 235 816 bytes 00:52:14.172
9 0:56:51.408 0:06:53.412 19 056 kbps 31 127 kbps 00:58:00.226 29 891 kbps 00:57:56.181 29 857 kbps 00:57:51.217 99 347 bytes 231 429 bytes 01:03:42.151
10 1:03:44.821 0:09:04.001 22 734 kbps 31 067 kbps 01:10:28.140 29 963 kbps 01:09:08.018 29 782 kbps 01:11:55.936 118 525 bytes 223 731 bytes 01:12:40.439
11 1:12:48.822 0:03:12.901 16 675 kbps 30 437 kbps 01:13:12.096 29 860 kbps 01:13:08.300 28 347 kbps 01:13:07.383 86 933 bytes 210 214 bytes 01:14:27.421
12 1:16:01.723 0:00:52.927 17 550 kbps 30 327 kbps 01:16:40.387 29 864 kbps 01:16:36.508 24 059 kbps 01:16:31.712 91 498 bytes 202 583 bytes 01:16:41.096
13 1:16:54.651 0:02:00.411 27 333 kbps 32 473 kbps 01:18:00.634 30 394 kbps 01:17:56.588 29 939 kbps 01:17:51.500 142 504 bytes 223 062 bytes 01:18:20.987
14 1:18:55.063 0:06:03.738 25 174 kbps 31 165 kbps 01:24:51.252 29 974 kbps 01:21:44.816 29 908 kbps 01:19:15.167 131 244 bytes 277 814 bytes 01:19:39.149
15 1:24:58.802 0:06:45.238 20 219 kbps 30 976 kbps 01:26:15.086 29 897 kbps 01:26:14.961 29 035 kbps 01:26:14.669 105 413 bytes 219 151 bytes 01:26:15.712
16 1:31:44.040 0:05:34.917 20 985 kbps 30 915 kbps 01:37:01.607 29 995 kbps 01:36:57.561 29 575 kbps 01:36:56.685 109 408 bytes 228 191 bytes 01:35:12.998
17 1:37:18.958 0:06:09.494 17 393 kbps 30 772 kbps 01:41:15.778 28 578 kbps 01:37:31.804 27 835 kbps 01:37:26.924 90 679 bytes 208 363 bytes 01:41:16.528
18 1:43:28.452 0:04:13.753 19 115 kbps 31 267 kbps 01:44:00.776 29 818 kbps 01:44:08.367 29 543 kbps 01:44:00.567 99 657 bytes 233 458 bytes 01:44:03.570
19 1:47:42.205 0:12:36.255 16 603 kbps 33 481 kbps 01:54:23.731 29 655 kbps 01:54:03.253 29 133 kbps 01:53:58.206 86 558 bytes 221 742 bytes 01:54:24.399
20 2:00:18.461 0:00:01.001 1 996 kbps 0 kbps 00:00:00.000 0 kbps 00:00:00.000 0 kbps 00:00:00.000 10 860 bytes 182 469 bytes 02:00:19.420
STREAM DIAGNOSTICS:
File PID Type Codec Language Seconds Bitrate Bytes Packets
---- --- ---- ----- -------- -------------- -------------- ------------- -----
00000.M2TS 4113 (0x1011) 0x1B AVC 7215,083 20 006 18 043 143 051 98 161 244
00000.M2TS 4352 (0x1100) 0x80 LPCM eng (English) 7215,083 2 310 2 083 764 200 11 544 400
00000.M2TS 4353 (0x1101) 0x80 LPCM eng (English) 7215,083 6 919 6 239 748 200 34 633 200
00000.M2TS 4354 (0x1102) 0x81 AC3 eng (English) 7215,083 640 577 221 120 3 382 155
00000.M2TS 4608 (0x1200) 0x90 PGS nld (Dutch) 7215,083 14 12 236 154 74 220
00000.M2TS 4609 (0x1201) 0x90 PGS fra (French) 7215,083 14 12 836 936 77 486
00000.M2TS 4610 (0x1202) 0x90 PGS deu (German) 7215,083 15 13 767 394 82 508
00000.M2TS 4611 (0x1203) 0x90 PGS ita (Italian) 7215,083 15 13 269 635 79 830
00000.M2TS 4612 (0x1204) 0x90 PGS jpn (Japanese) 7215,083 15 13 630 607 82 332
00000.M2TS 4613 (0x1205) 0x90 PGS por (Portuguese) 7215,083 16 14 270 197 85 270
00000.M2TS 4614 (0x1206) 0x90 PGS spa (Spanish) 7215,083 14 13 034 066 78 576
00000.M2TS 4615 (0x1207) 0x90 PGS spa (Spanish) 7215,083 14 12 610 129 76 250
00009.M2TS 4113 (0x1011) 0x1B AVC 3,045 10 509 3 999 416 21 784
00009.M2TS 4352 (0x1100) 0x80 LPCM eng (English) 3,045 2 436 927 048 5 136
00009.M2TS 4353 (0x1101) 0x80 LPCM eng (English) 3,045 7 294 2 776 008 15 408
00009.M2TS 4354 (0x1102) 0x81 AC3 eng (English) 3,045 673 256 000 1 500
00006.M2TS 4113 (0x1011) 0x1B AVC 0,834 2 405 250 731 1 368
QUICK SUMMARY:
Disc Title: Depeche Mode - 101
Disc Size: 45 019 958 385 bytes
Protection: AACS
BD-Java: No
Playlist: 00020.MPLS
Size: 28 539 758 592 bytes
Length: 2:00:19.462
Total Bitrate: 31,63 Mbps
Video: MPEG-4 AVC Video / 19999 kbps / 1080p / 23,976 fps / 16:9 / High Profile 4.1
Audio: English / LPCM Audio / 2.0 / 48 kHz / 2304 kbps / 24-bit
Audio: English / LPCM Audio / 5.1 / 48 kHz / 6912 kbps / 24-bit
Audio: English / Dolby Digital Audio / 5.1 / 48 kHz / 640 kbps
Subtitle: Dutch / 13,559 kbps
Subtitle: French / 14,225 kbps
Subtitle: German / 15,256 kbps
Subtitle: Italian / 14,704 kbps
Subtitle: Japanese / 15,104 kbps
Subtitle: Portuguese / 15,813 kbps
Subtitle: Spanish / 14,443 kbps
Subtitle: Spanish / 13,973 kbps
********************
PLAYLIST: 00030.MPLS
********************
Код:
Total Video
Title Codec Length Movie Size Disc Size Bitrate Bitrate Main Audio Track Secondary Audio Track
----- ------ ------- -------------- -------------- ------- ------- ------------------ ---------------------
00030.MPLS AVC 0:54:26 12 852 627 456 45 019 958 385 31,48 19,99 LPCM 2.0 2304Kbps (48kHz/24-bit) LPCM 5.1 6912Kbps (48kHz/24-bit)
Код:
DISC INFO:
Disc Title: Depeche Mode - 101
Disc Size: 45 019 958 385 bytes
Protection: AACS
BD-Java: No
BDInfo: 0.5.8
PLAYLIST REPORT:
Name: 00030.MPLS
Length: 0:54:26.304 (h:m:s.ms)
Size: 12 852 627 456 bytes
Total Bitrate: 31,48 Mbps
VIDEO:
Codec Bitrate Deion
----- ------- -----------
MPEG-4 AVC Video 19990 kbps 1080p / 23,976 fps / 16:9 / High Profile 4.1
AUDIO:
Codec Language Bitrate Deion
----- -------- ------- -----------
LPCM Audio English 2304 kbps 2.0 / 48 kHz / 2304 kbps / 24-bit
LPCM Audio English 6912 kbps 5.1 / 48 kHz / 6912 kbps / 24-bit
Dolby Digital Audio English 640 kbps 5.1 / 48 kHz / 640 kbps
FILES:
Name Time In Length Size Total Bitrate
---- ------- ------ ---- -------------
00005.M2TS 0:00:00.000 0:54:25.303 12 852 357 120 31 488
00006.M2TS 0:54:25.303 0:00:01.000 270 336 2 161
CHAPTERS:
Number Time In Length Avg Video Rate Max 1-Sec Rate Max 1-Sec Time Max 5-Sec Rate Max 5-Sec Time Max 10Sec Rate Max 10Sec Time Avg Frame Size Max Frame Size Max Frame Time
------ ------- ------ -------------- -------------- -------------- -------------- -------------- -------------- -------------- -------------- -------------- --------------
1 0:00:00.000 0:04:36.943 24 309 kbps 33 840 kbps 00:01:49.526 30 555 kbps 00:01:45.480 30 140 kbps 00:01:40.475 126 715 bytes 282 816 bytes 00:02:07.085
2 0:04:36.943 0:01:18.787 23 345 kbps 30 947 kbps 00:05:28.036 29 902 kbps 00:05:27.910 29 195 kbps 00:05:27.618 121 713 bytes 218 065 bytes 00:05:28.661
3 0:05:55.730 0:04:49.664 21 311 kbps 31 853 kbps 00:08:18.539 29 620 kbps 00:06:24.801 29 409 kbps 00:06:22.048 111 106 bytes 231 178 bytes 00:08:19.207
4 0:10:45.394 0:03:56.444 19 583 kbps 31 287 kbps 00:12:56.984 27 735 kbps 00:13:14.794 25 817 kbps 00:12:28.747 102 095 bytes 239 639 bytes 00:13:07.578
5 0:14:41.839 0:04:28.726 16 609 kbps 31 336 kbps 00:14:49.179 29 693 kbps 00:15:53.410 29 495 kbps 00:15:48.864 86 590 bytes 259 021 bytes 00:18:43.872
6 0:19:10.566 0:05:04.304 18 617 kbps 31 836 kbps 00:24:09.698 29 771 kbps 00:20:10.000 26 946 kbps 00:20:48.246 97 059 bytes 249 033 bytes 00:23:48.593
7 0:24:14.870 0:04:31.688 20 784 kbps 32 188 kbps 00:26:40.307 30 143 kbps 00:26:36.469 29 879 kbps 00:27:05.999 108 357 bytes 230 006 bytes 00:26:34.926
8 0:28:46.558 0:03:20.575 21 191 kbps 31 735 kbps 00:29:59.380 30 079 kbps 00:29:55.418 29 937 kbps 00:29:50.371 110 482 bytes 239 306 bytes 00:32:01.127
9 0:32:07.133 0:04:28.184 26 967 kbps 33 800 kbps 00:32:58.434 30 572 kbps 00:34:50.755 30 104 kbps 00:34:45.750 140 596 bytes 279 299 bytes 00:34:04.417
10 0:36:35.318 0:04:04.786 20 516 kbps 31 247 kbps 00:37:02.011 29 874 kbps 00:37:01.677 29 772 kbps 00:37:01.677 106 959 bytes 242 779 bytes 00:37:53.771
11 0:40:40.104 0:05:03.261 17 900 kbps 30 825 kbps 00:44:22.242 26 688 kbps 00:43:43.621 24 741 kbps 00:40:47.695 93 325 bytes 212 679 bytes 00:45:34.064
12 0:45:43.365 0:08:41.938 15 727 kbps 30 266 kbps 00:45:44.575 27 241 kbps 00:45:43.365 25 949 kbps 00:45:43.574 81 991 bytes 227 995 bytes 00:46:13.395
13 0:54:25.303 0:00:01.001 1 996 kbps 0 kbps 00:00:00.000 0 kbps 00:00:00.000 0 kbps 00:00:00.000 10 860 bytes 182 469 bytes 00:54:26.262
STREAM DIAGNOSTICS:
File PID Type Codec Language Seconds Bitrate Bytes Packets
---- --- ---- ----- -------- -------------- -------------- ------------- -----
00005.M2TS 4113 (0x1011) 0x1B AVC 3265,137 19 996 8 161 400 546 44 401 383
00005.M2TS 4352 (0x1100) 0x80 LPCM eng (English) 3265,137 2 311 943 020 084 5 224 488
00005.M2TS 4353 (0x1101) 0x80 LPCM eng (English) 3265,137 6 919 2 823 835 764 15 673 464
00005.M2TS 4354 (0x1102) 0x81 AC3 eng (English) 3265,137 640 261 224 960 1 530 615
00006.M2TS 4113 (0x1011) 0x1B AVC 0,834 2 405 250 731 1 368
QUICK SUMMARY:
Disc Title: Depeche Mode - 101
Disc Size: 45 019 958 385 bytes
Protection: AACS
BD-Java: No
Playlist: 00030.MPLS
Size: 12 852 627 456 bytes
Length: 0:54:26.304
Total Bitrate: 31,48 Mbps
Video: MPEG-4 AVC Video / 19990 kbps / 1080p / 23,976 fps / 16:9 / High Profile 4.1
Audio: English / LPCM Audio / 2.0 / 48 kHz / 2304 kbps / 24-bit
Audio: English / LPCM Audio / 5.1 / 48 kHz / 6912 kbps / 24-bit
Audio: English / Dolby Digital Audio / 5.1 / 48 kHz / 640 kbps
********************
PLAYLIST: 00041.MPLS
********************
Код:
Total Video
Title Codec Length Movie Size Disc Size Bitrate Bitrate Main Audio Track Secondary Audio Track
----- ------ ------- -------------- -------------- ------- ------- ------------------ ---------------------
00041.MPLS AVC 0:05:26 953 640 960 45 019 958 385 23,33 19,94 LPCM 2.0 2304Kbps (48kHz/24-bit)
Код:
DISC INFO:
Disc Title: Depeche Mode - 101
Disc Size: 45 019 958 385 bytes
Protection: AACS
BD-Java: No
BDInfo: 0.5.8
PLAYLIST REPORT:
Name: 00041.MPLS
Length: 0:05:26.993 (h:m:s.ms)
Size: 953 640 960 bytes
Total Bitrate: 23,33 Mbps
VIDEO:
Codec Bitrate Deion
----- ------- -----------
MPEG-4 AVC Video 19941 kbps 1080p / 23,976 fps / 16:9 / High Profile 4.1
AUDIO:
Codec Language Bitrate Deion
----- -------- ------- -----------
LPCM Audio English 2304 kbps 2.0 / 48 kHz / 2304 kbps / 24-bit
FILES:
Name Time In Length Size Total Bitrate
---- ------- ------ ---- -------------
00002.M2TS 0:00:00.000 0:05:25.992 953 370 624 23 396
00006.M2TS 0:05:25.992 0:00:01.000 270 336 2 161
CHAPTERS:
Number Time In Length Avg Video Rate Max 1-Sec Rate Max 1-Sec Time Max 5-Sec Rate Max 5-Sec Time Max 10Sec Rate Max 10Sec Time Avg Frame Size Max Frame Size Max Frame Time
------ ------- ------ -------------- -------------- -------------- -------------- -------------- -------------- -------------- -------------- -------------- --------------
1 0:00:00.000 0:05:25.992 19 996 kbps 31 837 kbps 00:03:48.937 30 116 kbps 00:02:58.428 29 890 kbps 00:04:07.413 104 238 bytes 256 889 bytes 00:03:03.349
2 0:05:25.992 0:00:01.000 1 996 kbps 0 kbps 00:00:00.000 0 kbps 00:00:00.000 0 kbps 00:00:00.000 10 860 bytes 182 469 bytes 00:05:26.951
STREAM DIAGNOSTICS:
File PID Type Codec Language Seconds Bitrate Bytes Packets
---- --- ---- ----- -------- -------------- -------------- ------------- -----
00002.M2TS 4113 (0x1011) 0x1B AVC 325,826 20 007 814 830 664 4 432 957
00002.M2TS 4352 (0x1100) 0x80 LPCM eng (English) 325,826 2 312 94 145 912 521 584
00006.M2TS 4113 (0x1011) 0x1B AVC 0,834 2 405 250 731 1 368
QUICK SUMMARY:
Disc Title: Depeche Mode - 101
Disc Size: 45 019 958 385 bytes
Protection: AACS
BD-Java: No
Playlist: 00041.MPLS
Size: 953 640 960 bytes
Length: 0:05:26.993
Total Bitrate: 23,33 Mbps
Video: MPEG-4 AVC Video / 19941 kbps / 1080p / 23,976 fps / 16:9 / High Profile 4.1
Audio: English / LPCM Audio / 2.0 / 48 kHz / 2304 kbps / 24-bit
********************
PLAYLIST: 00043.MPLS
********************
Код:
Total Video
Title Codec Length Movie Size Disc Size Bitrate Bitrate Main Audio Track Secondary Audio Track
----- ------ ------- -------------- -------------- ------- ------- ------------------ ---------------------
00043.MPLS AVC 0:05:11 907 333 632 45 019 958 385 23,33 19,94 LPCM 2.0 2304Kbps (48kHz/24-bit)
Код:
DISC INFO:
Disc Title: Depeche Mode - 101
Disc Size: 45 019 958 385 bytes
Protection: AACS
BD-Java: No
BDInfo: 0.5.8
PLAYLIST REPORT:
Name: 00043.MPLS
Length: 0:05:11.144 (h:m:s.ms)
Size: 907 333 632 bytes
Total Bitrate: 23,33 Mbps
VIDEO:
Codec Bitrate Deion
----- ------- -----------
MPEG-4 AVC Video 19939 kbps 1080p / 23,976 fps / 16:9 / High Profile 4.1
AUDIO:
Codec Language Bitrate Deion
----- -------- ------- -----------
LPCM Audio English 2304 kbps 2.0 / 48 kHz / 2304 kbps / 24-bit
FILES:
Name Time In Length Size Total Bitrate
---- ------- ------ ---- -------------
00003.M2TS 0:00:00.000 0:05:10.143 907 063 296 23 397
00006.M2TS 0:05:10.143 0:00:01.000 270 336 2 161
CHAPTERS:
Number Time In Length Avg Video Rate Max 1-Sec Rate Max 1-Sec Time Max 5-Sec Rate Max 5-Sec Time Max 10Sec Rate Max 10Sec Time Avg Frame Size Max Frame Size Max Frame Time
------ ------- ------ -------------- -------------- -------------- -------------- -------------- -------------- -------------- -------------- -------------- --------------
1 0:00:00.000 0:05:10.143 19 997 kbps 30 712 kbps 00:01:00.226 29 878 kbps 00:00:58.808 27 227 kbps 00:00:35.952 104 242 bytes 200 610 bytes 00:01:03.229
2 0:05:10.143 0:00:01.000 1 996 kbps 0 kbps 00:00:00.000 0 kbps 00:00:00.000 0 kbps 00:00:00.000 10 860 bytes 182 469 bytes 00:05:11.102
STREAM DIAGNOSTICS:
File PID Type Codec Language Seconds Bitrate Bytes Packets
---- --- ---- ----- -------- -------------- -------------- ------------- -----
00003.M2TS 4113 (0x1011) 0x1B AVC 309,976 20 008 775 246 142 4 217 634
00003.M2TS 4352 (0x1100) 0x80 LPCM eng (English) 309,976 2 312 89 569 876 496 232
00006.M2TS 4113 (0x1011) 0x1B AVC 0,834 2 405 250 731 1 368
QUICK SUMMARY:
Disc Title: Depeche Mode - 101
Disc Size: 45 019 958 385 bytes
Protection: AACS
BD-Java: No
Playlist: 00043.MPLS
Size: 907 333 632 bytes
Length: 0:05:11.144
Total Bitrate: 23,33 Mbps
Video: MPEG-4 AVC Video / 19939 kbps / 1080p / 23,976 fps / 16:9 / High Profile 4.1
Audio: English / LPCM Audio / 2.0 / 48 kHz / 2304 kbps / 24-bit
********************
PLAYLIST: 00042.MPLS
********************
Код:
Total Video
Title Codec Length Movie Size Disc Size Bitrate Bitrate Main Audio Track Secondary Audio Track
----- ------ ------- -------------- -------------- ------- ------- ------------------ ---------------------
00042.MPLS AVC 0:04:10 729 950 208 45 019 958 385 23,31 19,92 LPCM 2.0 2304Kbps (48kHz/24-bit)
Код:
DISC INFO:
Disc Title: Depeche Mode - 101
Disc Size: 45 019 958 385 bytes
Protection: AACS
BD-Java: No
BDInfo: 0.5.8
PLAYLIST REPORT:
Name: 00042.MPLS
Length: 0:04:10.500 (h:m:s.ms)
Size: 729 950 208 bytes
Total Bitrate: 23,31 Mbps
VIDEO:
Codec Bitrate Deion
----- ------- -----------
MPEG-4 AVC Video 19925 kbps 1080p / 23,976 fps / 16:9 / High Profile 4.1
AUDIO:
Codec Language Bitrate Deion
----- -------- ------- -----------
LPCM Audio English 2304 kbps 2.0 / 48 kHz / 2304 kbps / 24-bit
FILES:
Name Time In Length Size Total Bitrate
---- ------- ------ ---- -------------
00001.M2TS 0:00:00.000 0:04:09.499 729 679 872 23 397
00006.M2TS 0:04:09.499 0:00:01.000 270 336 2 161
CHAPTERS:
Number Time In Length Avg Video Rate Max 1-Sec Rate Max 1-Sec Time Max 5-Sec Rate Max 5-Sec Time Max 10Sec Rate Max 10Sec Time Avg Frame Size Max Frame Size Max Frame Time
------ ------- ------ -------------- -------------- -------------- -------------- -------------- -------------- -------------- -------------- -------------- --------------
1 0:00:00.000 0:04:09.499 19 997 kbps 27 551 kbps 00:03:09.981 26 262 kbps 00:03:09.898 25 537 kbps 00:03:09.022 104 237 bytes 191 839 bytes 00:01:01.770
2 0:04:09.499 0:00:01.000 1 996 kbps 0 kbps 00:00:00.000 0 kbps 00:00:00.000 0 kbps 00:00:00.000 10 860 bytes 182 469 bytes 00:04:10.458
STREAM DIAGNOSTICS:
File PID Type Codec Language Seconds Bitrate Bytes Packets
---- --- ---- ----- -------- -------------- -------------- ------------- -----
00001.M2TS 4113 (0x1011) 0x1B AVC 249,332 20 010 623 650 078 3 392 835
00001.M2TS 4352 (0x1100) 0x80 LPCM eng (English) 249,332 2 312 72 055 600 399 200
00006.M2TS 4113 (0x1011) 0x1B AVC 0,834 2 405 250 731 1 368
QUICK SUMMARY:
Disc Title: Depeche Mode - 101
Disc Size: 45 019 958 385 bytes
Protection: AACS
BD-Java: No
Playlist: 00042.MPLS
Size: 729 950 208 bytes
Length: 0:04:10.500
Total Bitrate: 23,31 Mbps
Video: MPEG-4 AVC Video / 19925 kbps / 1080p / 23,976 fps / 16:9 / High Profile 4.1
Audio: English / LPCM Audio / 2.0 / 48 kHz / 2304 kbps / 24-bit
********************
PLAYLIST: 00044.MPLS
********************
Код:
Total Video
Title Codec Length Movie Size Disc Size Bitrate Bitrate Main Audio Track Secondary Audio Track
----- ------ ------- -------------- -------------- ------- ------- ------------------ ---------------------
00044.MPLS AVC 0:03:51 675 606 528 45 019 958 385 23,31 19,92 LPCM 2.0 2304Kbps (48kHz/24-bit)
Код:
DISC INFO:
Disc Title: Depeche Mode - 101
Disc Size: 45 019 958 385 bytes
Protection: AACS
BD-Java: No
BDInfo: 0.5.8
PLAYLIST REPORT:
Name: 00044.MPLS
Length: 0:03:51.898 (h:m:s.ms)
Size: 675 606 528 bytes
Total Bitrate: 23,31 Mbps
VIDEO:
Codec Bitrate Deion
----- ------- -----------
MPEG-4 AVC Video 19921 kbps 1080p / 23,976 fps / 16:9 / High Profile 4.1
AUDIO:
Codec Language Bitrate Deion
----- -------- ------- -----------
LPCM Audio English 2304 kbps 2.0 / 48 kHz / 2304 kbps / 24-bit
FILES:
Name Time In Length Size Total Bitrate
---- ------- ------ ---- -------------
00004.M2TS 0:00:00.000 0:03:50.897 675 336 192 23 399
00006.M2TS 0:03:50.897 0:00:01.000 270 336 2 161
CHAPTERS:
Number Time In Length Avg Video Rate Max 1-Sec Rate Max 1-Sec Time Max 5-Sec Rate Max 5-Sec Time Max 10Sec Rate Max 10Sec Time Avg Frame Size Max Frame Size Max Frame Time
------ ------- ------ -------------- -------------- -------------- -------------- -------------- -------------- -------------- -------------- -------------- --------------
1 0:00:00.000 0:03:50.897 19 999 kbps 31 356 kbps 00:00:33.074 30 027 kbps 00:00:29.279 29 049 kbps 00:00:24.274 104 246 bytes 348 006 bytes 00:02:10.421
2 0:03:50.897 0:00:01.000 1 996 kbps 0 kbps 00:00:00.000 0 kbps 00:00:00.000 0 kbps 00:00:00.000 10 860 bytes 182 469 bytes 00:03:51.856
STREAM DIAGNOSTICS:
File PID Type Codec Language Seconds Bitrate Bytes Packets
---- --- ---- ----- -------- -------------- -------------- ------------- -----
00004.M2TS 4113 (0x1011) 0x1B AVC 230,731 20 013 577 207 228 3 140 204
00004.M2TS 4352 (0x1100) 0x80 LPCM eng (English) 230,731 2 312 66 682 476 369 432
00006.M2TS 4113 (0x1011) 0x1B AVC 0,834 2 405 250 731 1 368
QUICK SUMMARY:
Disc Title: Depeche Mode - 101
Disc Size: 45 019 958 385 bytes
Protection: AACS
BD-Java: No
Playlist: 00044.MPLS
Size: 675 606 528 bytes
Length: 0:03:51.898
Total Bitrate: 23,31 Mbps
Video: MPEG-4 AVC Video / 19921 kbps / 1080p / 23,976 fps / 16:9 / High Profile 4.1
Audio: English / LPCM Audio / 2.0 / 48 kHz / 2304 kbps / 24-bit
********************
PLAYLIST: 00021.MPLS
********************
Код:
Total Video
Title Codec Length Movie Size Disc Size Bitrate Bitrate Main Audio Track Secondary Audio Track
----- ------ ------- -------------- -------------- ------- ------- ------------------ ---------------------
00021.MPLS AVC 0:00:34 79 994 880 45 019 958 385 18,76 16,95 LPCM 2.0 2304Kbps (48kHz/24-bit) LPCM 5.1 6912Kbps (48kHz/24-bit)
Код:
DISC INFO:
Disc Title: Depeche Mode - 101
Disc Size: 45 019 958 385 bytes
Protection: AACS
BD-Java: No
BDInfo: 0.5.8
PLAYLIST REPORT:
Name: 00021.MPLS
Length: 0:00:34.117 (h:m:s.ms)
Size: 79 994 880 bytes
Total Bitrate: 18,76 Mbps
VIDEO:
Codec Bitrate Deion
----- ------- -----------
MPEG-4 AVC Video 16954 kbps 1080p / 23,976 fps / 16:9 / High Profile 4.1
AUDIO:
Codec Language Bitrate Deion
----- -------- ------- -----------
LPCM Audio English 2304 kbps 2.0 / 48 kHz / 2304 kbps / 24-bit
LPCM Audio English 6912 kbps 5.1 / 48 kHz / 6912 kbps / 24-bit
Dolby Digital Audio English 640 kbps 5.1 / 48 kHz / 640 kbps
FILES:
Name Time In Length Size Total Bitrate
---- ------- ------ ---- -------------
00008.M2TS 0:00:00.000 0:00:34.117 79 994 880 18 758
CHAPTERS:
Number Time In Length Avg Video Rate Max 1-Sec Rate Max 1-Sec Time Max 5-Sec Rate Max 5-Sec Time Max 10Sec Rate Max 10Sec Time Avg Frame Size Max Frame Size Max Frame Time
------ ------- ------ -------------- -------------- -------------- -------------- -------------- -------------- -------------- -------------- -------------- --------------
1 0:00:00.000 0:00:34.117 16 954 kbps 27 606 kbps 00:00:00.709 21 003 kbps 00:00:00.709 20 086 kbps 00:00:00.750 88 391 bytes 570 807 bytes 00:00:31.030
STREAM DIAGNOSTICS:
File PID Type Codec Language Seconds Bitrate Bytes Packets
---- --- ---- ----- -------- -------------- -------------- ------------- -----
00008.M2TS 4113 (0x1011) 0x1B AVC 33,951 17 037 72 304 006 393 400
00008.M2TS 4352 (0x1100) 0x80 LPCM eng (English) 33,951 219 928 492 5 144
00008.M2TS 4353 (0x1101) 0x80 LPCM eng (English) 33,951 655 2 780 332 15 432
00008.M2TS 4354 (0x1102) 0x81 AC3 eng (English) 33,951 61 258 560 1 515
QUICK SUMMARY:
Disc Title: Depeche Mode - 101
Disc Size: 45 019 958 385 bytes
Protection: AACS
BD-Java: No
Playlist: 00021.MPLS
Size: 79 994 880 bytes
Length: 0:00:34.117
Total Bitrate: 18,76 Mbps
Video: MPEG-4 AVC Video / 16954 kbps / 1080p / 23,976 fps / 16:9 / High Profile 4.1
Audio: English / LPCM Audio / 2.0 / 48 kHz / 2304 kbps / 24-bit
Audio: English / LPCM Audio / 5.1 / 48 kHz / 6912 kbps / 24-bit
Audio: English / Dolby Digital Audio / 5.1 / 48 kHz / 640 kbps

Скриншоты

admin

Post 05-Jul-2019 21:06

[Quote]

Название: Armin van Buuren - Live at The Best Of Armin Only. Часть 1.
Исполнитель: Armin van Buuren
Год: 2017
Жанр: House, Trance
Страна: Нидерланды
Продолжительность: 01:15:49
Дополнительная информация: Ровно два года назад, в Johan Cruijff ArenA в Амстердаме, собрались все артисты, с которыми работал Armin van Buuren. Его милые фанаты и замечательная семья, друзья и коллеги, а также специальные гости были на этом уникальном и самом крупном шоу в его карьере.
«Overture» был особенным, 15-минутным треком, который Armin van Buuren сделал для «The Best Of Armin Only». Это сочетание четырех вступительных треков из его альбомов 'Imagine', 'Mirage', 'Embrace' и 'Intense'. Он также добавил несколько штрихов к «Sail», который был одним из двух вступительных треков своего альбома «10 Years», а другой был «Hymne». «Overture» заняла первые 15 минут четырехчасового шоу «Best of Armin Only».
Все начинается как некий забавный трюк. Армин создал «Пинг-понг» специально для своего шоу «Armin Only: Intense», чтобы зрители думали о компоненте шоу, в котором были большие желтые шары, падающие с потолка. Для Армина эта фишка стала незабываемой и выглядело это со сцены, где он стоял, так здорово и потрясающе!
Для шоу "The Best of Armin Only" он сделал специальное редактирование этого трека, которое заканчивается на 165 ударов в минуту. Для несгибаемых, можно сказать!
"Great Spirit" был сделан Armin van Buuren в сотрудничестве с израильским psy-trance дуэтом Vini Vici и племенем Hilight в 2016 году, И Армин тогда ещё не думал, что этот сингл продолжит набирать такие обороты и по сей день. Этот трек звучит почти на каждом большом фестивале в течение всего летнего сезона.
Представленная версия этой композиции - это смесь между оригинальной записью и ремиксом от Wildstylez.
"Это был один из первых моих треков", говорит Armin, "который вдохновил меня на пси-транс. Осталось много отличных воспоминаний!"
Композиция "My Symphony" была специально сделана гимном для шоу "The Best Of Armin Only", премьера которой состоялась на главной сцене фестиваля Ultra Music в Майами в 2017 году. Armin считает, что этот сингл показывает, -"как я изменился, вырос и совершенствовался в искусстве диджеинга, как на протяжении многих лет, особенно в плане музыкального вкуса и непредубежденности по отношению к другим жанрам.
И именно поэтому это трек и стал идеальным гимном для "The Best of Armin Only".
«Alone», это трек Armin van Buuren с американской певицей и автором песен Lauren Evans, который был выпущен в 2014 году как один из треков альбома «Intense». Lauren также выступала с Армином на сцене во время тура «Armin Only: Intense», где выступила там настолько хорошо, что Армин вновь пригласил ее присоединиться к концертному шоу «Best Of Armin Only».
Наслаждайтесь этой душевной и вдохновляющей композицией с убедительным и пронзительным вокалом Lauren Evans, от которого мурашки по всему телу!
Для своего альбома 'Embrace' Armin van Buuren сделал трек под названием 'Old Skool', посвященный тому моменту, когда он впервые впечетлился хаус-музыкой, поскольку это изменило его жизнь и сделало Армина тем, кто он сегодня. Для последних шоу «Armin Only: Embrace» Armin был в поиске такой музыки, которая бы смогла отдать дань уважения его корням как ди-джея.
Сегодняшние треки звучат намного лучше, потому что современное оборудование повышает качество звучания. Вот и поэтому он захотел обновить треки, которые хотел исполнить на шоу, включая и «Dominator». Армин полностью погрузился в сознание Human Resource, первоначальных создателей «Dominator», и попытался придумать свою версию, которая была впервые исполнена в 2016 году.
"Shivers" был заглавным треком второго альбома Armin van Buuren и включал вокал удивительно талантливой певицы по имени Susana. Этот сингл был очень особенным для Армина, который был представлен в Утрехте ещё аж в 2008 году. Сюзанна, исполнив вдохновлённо свою партию, убедила нас в том, что название трека имеет гораздо больше значения.
Armin создал «I Live For That Energy» в качестве гимна для ASOT 800. Он говорит: - "Всегда трудно выбрать между треками, которые вы создали сами, поскольку они всегда особенные для вас, но я осмелюсь сказать, что этот трек является одним из произведений, которые я люблю больше всего. Поэтому, конечно, было уместно сыграть его во время моего шоу 'The Best of Armin Only'."
«D # Fat» был выпущен в 2013 году как первый совместный проект Armin van Buuren с W & W. Армин комментирует: - "Мне просто нужно было поработать с этими парнями, потому что они проделали потрясающую работу с такими релизами, как 'Lift Off', 'Moscow' и, конечно, 'Invasion', гимн, который они сделали для ASOT 500. В прошлом году мы сотрудничали в третий раз (через пять лет после «D # Fat» и через два года после «If It Ain’t Dutch»). Трек называется «Ready To Rave», и я до сих пор часто включаю его в мои текущие live сеты."
«This Light Between Us» - один из основных моментов альбома Армина «Mirage». На треке представлен захватывающий вокал Christian Burns, который помог превратить его в теплый и эмоциональный вокальный транс-трек.
Армин обращается к Cosmic Gate за очередным коллабом после того, как они проделали потрясающую работу по ремиксу для его треков "This World is Watching Me" и "Rain". Результатом стало’ Embargo ‘ – один из трех инструментальных треков в его альбоме’ Embrace ' которым он до сих пор очень гордится.
Во время «Best Of Armin Only» Armin исполнил ремикс Manse на свой трек «Freefall». Он впервые сыграл его ремикс на Ultra Music Festival 2016 в Майами, и он отлично зашёл там на танцполе. Для видеоклипа «Freefall», изображения которого были показаны на экране сцены, на которых Armin van Buuren и BullySongs удивили весь офис лейбла Armada возможностью выпрыгнуть из самолета. Вы бы видели выражения их лиц. Это было так здорово!
"Я просто не знаю, с чего начать трек "In And Out Of Love": признаётся Армин. -"Это был один из моих самых больших хитов на сегодняшний день, и я честно чувствую, что этот трек является одной из причин моего сегодняшнего успеха. Для меня было честью, что знатная Шарон хотела выступить вместе со мной в «Best Of Armin Only», тем более что она пользуется глобальным успехом со своей собственной группой Within Temptation. Оригинальная песня была частью моего альбома 2008 ‘Imagine’. Играя его в своих live сетах за последние несколько лет, я заметил, что ему не хватает полноты сегодняшних постановок, поэтому я создал эту ревизию 2017 года.
“My House Is Your House And Your House Is Mine.” Эти легендарные тексты взяты из «If It Aint Dutch». Это был второй совместный проект Armin van Buuren с W & W и стал абсолютным "разрушителем" мировых танцполов. Он был выпущен в конце 2015 года, когда почти каждый плейлист DJ включал в себя скрещивание Electro House и Trance.
Ждите продолжение этого потрясающего шоу!
Формат/Кодек: 1.8-3.0 Mбит/сек 1920*724 (2.652), 25,000 кадров/сек, AVC (High@L4), (САВАС/3 Ref Frames)
Битрейт аудио: 128 Кбит/сек, 44,1 КГц, 2 канала, AAC LC

Трек-лист

1. Armin van Buuren & Cosmic Gate - Embargo (Live at The Best Of Armin Only).mp4
2. Armin van Buuren & W&W - D# Fat (Live at The Best Of Armin Only).mp4
3. Armin van Buuren & W&W - If It Ain't Dutch [Live at The Best Of Armin Only].mp4
4. Armin van Buuren - I Live For That Energy (ASOT 800 Anthem) [Live at The Best Of Armin Only].mp4
5. Armin van Buuren - My Symphony (Live at The Best Of Armin Only).mp4
6. Armin van Buuren - Overture (Live at The Best Of Armin Only).mp4
7. Armin van Buuren - Ping Pong (Live at The Best Of Armin Only).mp4
8. Armin van Buuren feat. BullySongs - Freefall (Manse Remix) [Live at The Best Of Armin Only].mp4
9. Armin van Buuren feat. Christian Burns - This Light Between Us (Live at The Best Of Armin Only).mp4
10. Armin van Buuren feat. Lauren Evans - Alone (Live at The Best Of Armin Only).mp4
11. Armin van Buuren feat. Sharon den Adel - In And Out Of Love [Live at The Best Of Armin Only].mp4
12. Armin van Buuren feat. Susana - Shivers (Live at The Best Of Armin Only).mp4
13. Armin van Buuren vs Human Resource - Dominator (Festival Mix) [Live at The Best Of Armin Only].mp4
14.Armin van Buuren vs Vini Vici feat. Hilight Tribe - Great Spirit (Live at The Best Of Armin Only).mp4

admin

Post 21-Aug-2018 22:49

[Quote]

Информация о фильме
Название: Armin van Buuren live at Tomorrowland 2018
Год выхода: 2018
Жанр: Electronic, Trance, Uplifting Trance, Vocal Trance, Euphoric Trance, Progressive Trance
О фильме:
Выступление одного из самых известных диджеев Armin van Buuren с мировым именем на музыкальном фестивале Tomorrowland 2018
Файл
Кодек: h.264
Качество: WEBRip 1080p
Видео: 1920x1080, High@L4, 2501 Kbit/s, 25 fps
Звук: AAC-LC, 126 Kbit/s, 2 ch, 44.1 kHz
Продолжительность: 00:58:21

Треклист:

1 Armin van Buuren vs Shapov - Our Origin
2 Armin van Buuren feat. James Newman - Therapy (Leo Reyes Remix)
3 Loud Luxury feat. brando - Body vs Luke Bond - U
4 Armin van Buuren feat. Josh Cumbee - Sunny Days vs Mark Sixma - Sinfonia
5 Armin van Buuren and Sunnery James & Ryan Marciano - You Are Too
6 ID - ID
7 Armin van Buuren feat. Kensington - Heading Up High vs Fatum - Violet
8 Armin van Buuren feat. Mr. Probz - Another You vs KhoMha - Tierra
9 Armin van Buuren & Garibay feat. Olaf Blackwood - I Need You vs NWYR - ID
10 Armin van Buuren x Vini Vici x Alok feat. Zafrir - United
11 Ran-D - Zombie vs Scot Project - D (Don't Go) vs Allen Watts - Flashback
12 Armin van Buuren feat. Trevor Guthrie - This Is What It Feels Like vs Chris Schweizer - Ascension
13 ID - ID
14 Splinta - Shock Therapy (Rising Altitude Mix)
15 Militia - Take Me There vs Armin van Buuren vs Vini Vici feat. Hilight Tribe - Great Spirit
16 Armin van Buuren - Blah Blah Blah vs Armin van Buuren - Blah Blah Blah (Brennan Heart & Toneshifterz Remix) vs Armin van Buuren - Blah Blah Blah (Zany Remix)

Скриншоты


 

Current time is: 28-Jun 15:10

All times are UTC + 3