Search found 45 matches

Author Message

admin

Post 02-May-2022 00:44

[Quote]

Название: Profound Mysteries
Исполнитель: Röyksopp
Год: 2022
Жанр: Progressive, Electro-House
Страна: Norway
Продолжительность: 00:51:02
Формат/Кодек: MP3
Битрейт аудио: 320 kbps

Трек-лист

01. (Nothing But) Ashes… [00:01:53]
02. The Ladder [00:05:33]
03. Impossible (feat. Alison Goldfrapp) [00:06:27]
04. This Time, This Place… (feat. Beki Mari) [00:07:44]
05. How the Flowers Grow (feat. Pixx) [00:05:43]
06. If You Want Me (feat. Susanne Sundfør) [00:05:39]
07. There, Beyond The Trees [00:06:22]
08. Breathe (feat. Astrid S) [00:04:36]
09. The Mourning Sun (feat. Susanne Sundfør) [00:06:09]
10. Press «R» [00:00:52]

admin

Post 30-Apr-2022 01:27

[Quote]

Название: Moonlight Love Affair
Исполнитель: Parov Stelar
Год: 2022
Жанр: House, Swing-House, Electro-Swing
Страна: Austria
Продолжительность: 00:45:28
Формат/Кодек: FLAC
Тип рипа: Tracks
Битрейт аудио: Lossless
Разрядность: 24 Bit/44,1 kHz
Носитель: WEB

Трек-лист

01. Candy Girl (02:42)
02. AKH Odessa (04:01)
03. Toxic Lover (02:56)
04. Fire (02:34)
05. Black Bird (03:21)
06. Golden Dawn (03:43)
07. Dirty Mariposa (05:24)
08. Venom (03:45)
09. Better Believe (02:56)
10. Toy Boy (03:02)
11. Lights Off (04:40)
12. Above the Ground (02:54)
13. Candy Girl (Late Night Mix) (03:30)

DRM
foobar2000 1.6.10 / Замер динамического диапазона (DR) 1.1.1
Дата отчёта: 2022-04-29 08:59:32
--------------------------------------------------------------------------------
Анализ: Parov Stelar / Moonlight Love Affair (1-7)
Parov Stelar, Anduze / Moonlight Love Affair (8)
Parov Stelar, Avec / Moonlight Love Affair (9)
Parov Stelar, Mani Hoffmann / Moonlight Love Affair (10-11)
Parov Stelar, Russian Gentlemen Club / Moonlight Love Affair (12)
Parov Stelar, Vallemarie / Moonlight Love Affair (13)
--------------------------------------------------------------------------------
DR Пики RMS Продолжительность трека
--------------------------------------------------------------------------------
DR4 -0.10 дБ -6.23 дБ 2:56 03-Toxic Lover
DR6 0.00 дБ -7.60 дБ 2:34 04-FIRE
DR3 -0.10 дБ -5.89 дБ 3:43 06-Golden Dawn
DR7 -0.10 дБ -8.71 дБ 5:24 07-Dirty Mariposa
DR5 -0.10 дБ -7.21 дБ 3:45 08-Venom
DR6 -0.10 дБ -8.05 дБ 3:02 10-Toy Boy
DR5 -0.10 дБ -6.13 дБ 3:30 13-Candy Girl (Late Night Mix)
DR6 -0.10 дБ -7.49 дБ 4:40 11-Lights Off
DR7 -0.10 дБ -11.10 дБ 2:54 12-Above the Ground
DR6 -0.10 дБ -8.31 дБ 3:21 05-Black Bird
DR6 -0.10 дБ -7.42 дБ 2:56 09-Better Believe
DR6 -0.10 дБ -7.97 дБ 4:01 02-AKH Odessa
DR6 -0.09 дБ -8.31 дБ 2:42 01-Candy Girl
--------------------------------------------------------------------------------
Количество треков: 13
Реальные значения DR: DR6
Частота: 44100 Гц
Каналов: 2
Разрядность: 24
Битрейт: 1655 кбит/с
Кодек: FLAC
================================================================================

admin

Post 02-Apr-2022 04:23

[Quote]

Название: My Name Is DJ
Исполнитель: DJ PafTron
Год: 2022
Жанр: G-House, Deep House, Trance, Techno, Dance, Rave
Страна: USA
Продолжительность: 09:14:25
Формат/Кодек: MP3
Битрейт аудио: 320 kbps

Трек-лист

01 My Name Is DJ (skit)
02 DJ Battle Africa Club set
03 Train Techno
04 My House Party
05 Gangsta Club Night
06 Techno Club Night
07 Lite Set in Cafe
08 Trance Club Night
09 The Prodigy Mix (old track)
10 AURA Open Air Prom Night Set
11 G-House Main Party
12 House Pre-Party
13 Feel Save Me (mix)
14 Save Me Feel Save Me Feel (mix)
15 No Good (DJ Savin Remix) & The Prodigy-No Good (mix)
16 My Name Is DJ version 2 (skit)
01 My Name Is DJ (skit)
Loopmasters-Airwave Dance Breaks Vol 2
02 DJ Battle Africa Club set
NuKid - How We Do (Original Mix)
DJ Stretch - Move The Beat (Extended Mix)
Snap - The Power (DJ Savin Remix)
Katusha Svoboda - Light, Dark
Heiko and Maiko - Techno Rock (DJ Savin & DJ Alex Pushkarev Easy Mix)
Diplate - Pump! (Original Mix) Sweet Beats
03 Train Techno
Bobby Puma Feat. Katt Rockell - Deeper Than Love (Extended Mix)
Jacob Singer - Kundalini (Sanchez Pietkun Remix)
Arle - Close to You (Stray Beast Remix)
Faithless - Insomnia (HAIPA Remix)
Groove Delight & Thayana Valle - Enterprise
Voltaxx - 5 AM
Gunslinger -Replicant
Rob Chiriqui - Always Here (Original Mix) [by DragoN_Sky]
Alex Di Stefano & Balthazar & Jackrock - Puerto Rico II
Weekend Heroes - Tribal Dose (Original)
04 My House Party
Steven Draxler - Right Time (Club Mix)
Desib-L - Set Me Free (Original Mix)
Bodyfunkers - Overload
Echo Boy - Obsession (Dub Mix)
Ricky Alvarez - Do You See
Peter Gabriels - Hold Down for Me
Fernando Alonso - I Love My House (Club Mix)
Christian Joy - Absolute Flow
Michael Beltone - Moving To The Beat (Club Mix)
Frank Diablo - Break It Down
Captain Freeman - Street Life
G-Mafia - Drop in My Face (Dub Mix)
Frank Diablo - This Is House (Club Mix)
Mike Flava - Let's Go (Club Mix)
The G-Boys - Rockin Beats
DJ Swaggy - Several Days (Club Mix)
John Blame - Back In Town (G-House VIP Mix)
John Slater - Old School (Bass House Mix)
Ricky Alvarez - House Is Mine (VIP Dub Mix)
05 Gangsta Club Night
Zoi - Damn Girl
Fort Arkansas - Living for the Moment (Croatia Squad Remix)
The Prodigy - No Good (DJ SAVIN Remix)
The Bestseller - Gangsta (Original Mix)
Wayne Johnson - Banging (Club Mix)
Styline - High As Hell (Original Mix)
Block & Crown, Kaippa - Play The Theme (Original Mix)
Eidly - Young God (Original Mix)
Shane Robertson - He We Go
06 Techno Club Night
ONYVA - Tibetan People
Format:B - Super Pit
Kintar & MDVE - What We Do
MSCLS - Critical Error (Feat Dmg$)
Nacim Ladj - Minimum Dose (Original Mix)
Purple Robot - Bassline 62 (Original Mix)
Groove Delight, K.A.L.I.L. - Karma (Original Mix)
Luigi Gori & Stephan Seddel & Frankye Lova - Technodubt
Charles D (USA) - Protocol (Devid Dega Remix)
07 Lite Set in Cafe
Shingo Nakamura & RNX - Oregon (RNX Mix)
Bluberg And Flokati - Hold On
Elypsis & Mandy Reign - Poison (Gregory Esayan Vocal Mix)
Gregory Esayan - Game Of Hearts (Original Mix)
Mehilove - Solace (Extended Mix)
Laust Foged - Free (Original Mix)
Alex Rusin - In The Middle Of Nowhere (Original Mix)
katusha-svoboda-zombie original mix
Sam Davies - Cosmos (Sundriver Remix)
Solee Jule Tvardovsky Remix
08 Trance Club Night
Eric De La Vega ft Alaera - Afraid Of Falling In Love (Matt Farmer extended
remix)
Terra V. - Without The Lost Star (Extended Mix)
Up & Forward with Eugene Sender - Believe In Yourself (Exolight Remix)
Ross Rayer; Hidden Tigress - When I Lost You (Syntouch Remix)
Eugenio Tokarev & Syntouch feat. Zara Taylor - We Can Change (Evolve Mix)
Running Man - Amnesia (Amine Maxwell & Atragun Remix)
Madwave - Escape Line
Tsy & Farhad Mahdavi & Angel Falls - In Your Eyes (Dub Mix)
Sergey Lagutin - Lucidtopia (original mix)
Jameson Tullar - Black & White (Tycoos Remix)
Tribal Temptation - Fly Away (Extended Mix)
09 The Prodigy Mix (old track)
Their Law (Featuring Pop Will
Abnormal Bunx
Albuminium Jazz
We Gonna Rock
Everybody In The Place
Bungalow's Island
Jericho (Original Version)
Music Reach (1234)
Out Of Space (Edit)
Goa (Part 2)
Claustrophobic Sting
Scienide
Hyperspeed (G-Force Part 2)
Rhythm Of Life (Original Mix)
One Love (Original Mix)
10 AURA Open Air Prom Night Set
Seemann & Kordy - Gotta Be (Original Mix)
Lykov & Mironov - Back Again (Club Mix)
NuKid - How We Do (Original Mix)
DJ Stretch - Move The Beat (Extended Mix)
Snap - The Power (DJ Savin Remix)
Katusha Svoboda - Light, Dark
Heiko and Maiko - Techno Rock (DJ Savin & DJ Alex Pushkarev Easy Mix)
Diplate - Pump! (Original Mix) Sweet Beats
Max Nikitin - Determination (Original Mix)
Leventina, Chris Reece, Passenger 10 - Start Again feat. Deb Peyton (Leventina Club Mix)
Christina Perri - Human (EDX's Fe5tival Mix) [up by Nicksher]
Empire Of The Sun - We Are The People (DJ STYLEZZ & JAY FOKIN Remix)
Playmen - Gypsy Heart (Incognet Remix)
11 G-House Main Party
Michael Beltone - Moving To The Beat (Club Mix)
Frank Diablo - Break It Down
Captain Freeman - Street Life
G-Mafia - Drop in My Face (Dub Mix)
Frank Diablo - This Is House (Club Mix)
Mike Flava - Let's Go (Club Mix)
The G-Boys - Rockin Beats
DJ Swaggy - Several Days (Club Mix)
John Blame - Back In Town (G-House VIP Mix)
John Slater - Old School (Bass House Mix)
Ricky Alvarez - House Is Mine (VIP Dub Mix)
12 House Pre-Party
Steven Draxler - Right Time (Club Mix)
Desib-L - Set Me Free (Original Mix)
Bodyfunkers - Overload
Echo Boy - Obsession (Dub Mix)
Ricky Alvarez - Do You See
Peter Gabriels - Hold Down for Me
Fernando Alonso - I Love My House (Club Mix)
Christian Joy - Absolute Flow
Michael Beltone - Moving To The Beat (Club Mix)
13 Feel Save Me (mix)
14 Save Me Feel Save Me Feel (mix)
15 No Good (DJ Savin Remix) & The Prodigy-No Good (mix)
16 My Name Is DJ version 2 (skit)
Loopmasters-Airwave Dance Breaks Vol 2

admin

Post 31-Mar-2022 02:53

[Quote]

Название: Catharsis
Исполнитель: De Graal'
Год: 2022
Жанр: House
Лейбл: NYLO
Продолжительность: 00:43:15
Формат/Кодек: FLAC
Битрейт аудио: Lossless

Трек-лист

01 - Sunshine in the Rain (Original Mix) (00:05:01)
02 - The Crazy (Original Mix) (00:04:04)
03 - Spread Love (Original Mix) (00:04:50)
04 - On & Up (Original Mix) (00:03:53)
05 - Just Want You (Original MIx) (00:04:02)
06 - Enjoy My Memory (Original Mix) (00:06:00)
07 - Classic Story (Original Mix) (00:05:00)
08 - Change My Love (Orignial Mix) (00:04:20)
09 - Catharsis (Original Mix) (00:06:02)

Log

DON'T MODIFY THIS FILE
-----------------------
PERFORMER: auCDtect Task Manager, ver. 1.6.0 RC1 build 1.6.0.1
Copyright (c) 2008-2010 y-soft. All rights reserved
http://y-soft.org
ANALYZER: auCDtect: CD records authenticity detector, version 0.8.2
Copyright (c) 2004 Oleg Berngardt. All rights reserved.
Copyright (c) 2004 Alexander Djourik. All rights reserved.
FILE: 09 - Catharsis (Original Mix).flac
Size: 41889225 Hash: 5E6ACE0A15A4F08DD4D775AB8A7A81B1 Accuracy: -m40
Conclusion: MPEG 95%
Signature: 9D8DDAFFAF10D002308B47470F465AAC51FB0FC6
FILE: 08 - Change My Love (Orignial Mix).flac
Size: 34447485 Hash: B906E6E169714CECDB21D07DE1D7C2CA Accuracy: -m40
Conclusion: CDDA 99%
Signature: 7A802639BA7FB9517217E676329DB228D1AC1F7E
FILE: 07 - Classic Story (Original Mix).flac
Size: 41495213 Hash: 11B807B0561C537C12065C5C55513F3A Accuracy: -m40
Conclusion: CDDA 100%
Signature: C41226C683CBDF66521895E03B605122ABA58E37
FILE: 06 - Enjoy My Memory (Original Mix).flac
Size: 45835086 Hash: BA1F9395B6EC1A5A1554E2774A177849 Accuracy: -m40
Conclusion: CDDA 100%
Signature: 611316185F3F84F6B789CF497323CC551A0B2681
FILE: 05 - Just Want You (Original MIx).flac
Size: 29680600 Hash: 45B1F7E9904A8D66D97A7F477316BE55 Accuracy: -m40
Conclusion: CDDA 100%
Signature: F86EE5D85C5DF034D03C31C7C611E6C388C1A1FB
FILE: 04 - On & Up (Original Mix).flac
Size: 28441979 Hash: 663F6A2F40A4996803ADCF0F602E376E Accuracy: -m40
Conclusion: CDDA 100%
Signature: 1ABFD3F9D1CBEB68A976183F3A123DC54E661FA8
FILE: 03 - Spread Love (Original Mix).flac
Size: 38380249 Hash: 8EFA4F4548C5278C5EFC9120E310DF5E Accuracy: -m40
Conclusion: CDDA 100%
Signature: 2655D6C8296705399B2414C40E276E27B2C59B56
FILE: 02 - The Crazy (Original Mix).flac
Size: 29485821 Hash: BCE222888D6010E01E79DF0083FE8B0D Accuracy: -m40
Conclusion: CDDA 100%
Signature: 730A311FA8FF145F565BCFF229C2184F388DCA3F
FILE: 01 - Sunshine in the Rain (Original Mix).flac
Size: 36706885 Hash: 6DA212804019363319DB132F40D37413 Accuracy: -m40
Conclusion: CDDA 100%
Signature: BF2E13A5DACE071E82C56AD042ABF1D6108018C9

admin

Post 17-Mar-2022 04:50

[Quote]

Название: Carry It with You
Исполнитель: ATTLAS
Год: 2022
Жанр: Electronic, Deep-House, Melodic-House, Techno
Лейбл: mau5trap
Продолжительность: 00:57:59
Формат/Кодек: FLAC
Битрейт аудио: Lossless

Трек-лист

1. Waterbug (04:10)
2. Last Walk (06:30)
3. You're Gonna Miss It All (06:06)
4. To Catch a Glimpse (08:19)
5. Ezekiel's Wheel (03:26)
6. Reminiscences of Youth (01:18)
7. Followed Me Home (03:50)
8. Carry It with You (04:33)
9. Railyards (05:29)
10. Sun Episode (06:08)
11. Afterglow (08:06)

Log

DON'T MODIFY THIS FILE
-----------------------
PERFORMER: auCDtect Task Manager, ver. 1.6.0 RC1 build 1.6.0.1
Copyright (c) 2008-2010 y-soft. All rights reserved
http://y-soft.org
ANALYZER: auCDtect: CD records authenticity detector, version 0.8.2
Copyright (c) 2004 Oleg Berngardt. All rights reserved.
Copyright (c) 2004 Alexander Djourik. All rights reserved.
FILE: 11 - ATTLAS - Afterglow.flac
Size: 47762536 Hash: 2D7705652472CC45B63CFF73FBD93C6A Accuracy: -m0
Conclusion: CDDA 100%
Signature: 17A6DA9E52B00B4C6DB2A2850263948897A5A75B
FILE: 10 - ATTLAS - Sun Episode.flac
Size: 40998744 Hash: A475489BBB05289B63370CB09209DE0B Accuracy: -m0
Conclusion: CDDA 100%
Signature: 962A24E108CFCE268C0FD449CCE3CAB44E95C803
FILE: 09 - ATTLAS - Railyards.flac
Size: 37072535 Hash: C2BF200A39A5C22D59BEF7164C1A0732 Accuracy: -m0
Conclusion: CDDA 100%
Signature: 710CF81581092888CFA1A695AB9CA523F33BBA2D
FILE: 08 - ATTLAS - Carry It with You.flac
Size: 21610320 Hash: 15BD96848081BEC26963FFCBAA1CBC2B Accuracy: -m0
Conclusion: CDDA 100%
Signature: C6D9C94202A16D59D6397C5DCE747E561F45E8F4
FILE: 07 - ATTLAS - Followed Me Home.flac
Size: 19583026 Hash: 93DB6641F0D0B6557F0498AA4F3CBE47 Accuracy: -m0
Conclusion: CDDA 100%
Signature: 47107683B1CED0499BC16114CF585C0EBF0BD432
FILE: 06 - ATTLAS - Reminiscences of Youth.flac
Size: 5696650 Hash: 053BF23466C8D7E9F5B46287C6F3DAC5 Accuracy: -m0
Conclusion: CDDA 100%
Signature: 778FF6E7A97D4E0DA420F02DC05DB7A59DF2C794
FILE: 05 - ATTLAS - Ezekiel's Wheel.flac
Size: 18220202 Hash: 50079E10760A4E9FB248B18AF9FB6C36 Accuracy: -m0
Conclusion: CDDA 100%
Signature: 4C0C5FADE04CC028940FC3EC542FBF37A1CEC047
FILE: 04 - ATTLAS - To Catch a Glimpse.flac
Size: 52419452 Hash: CE61A7EC2D1802682773716F1605A592 Accuracy: -m0
Conclusion: CDDA 100%
Signature: F737B343A092CFD4A654F481B39702E95592669C
FILE: 03 - ATTLAS - You're Gonna Miss It All.flac
Size: 29598332 Hash: 96AE10698879E867CC2B6732044364D6 Accuracy: -m0
Conclusion: CDDA 100%
Signature: D1B83A81ED84709DB13AAF78C8E6D26C1532E0D2
FILE: 02 - ATTLAS - Last Walk.flac
Size: 44998827 Hash: 28733781160434DCA8F98C9C649FFC46 Accuracy: -m0
Conclusion: CDDA 100%
Signature: 6B50CA235931922DC8904D8214A75C7821E7CB5F
FILE: 01 - ATTLAS - Waterbug.flac
Size: 22868824 Hash: 30A047B2AA3E025E17BC4F4659B0BE20 Accuracy: -m0
Conclusion: CDDA 100%
Signature: 15FD1CB31EA64ABF9131A0361C0542809CB47F41

admin

Post 03-Dec-2021 03:30

[Quote]

Название: World Of Walker
Исполнитель: Alan Walker
Год: 2021
Жанр: Progressive-House, Techno, Pop, Electronic
Страна: United Kingdom/Norway
Продолжительность: 00:38:05
Формат/Кодек: FLAC
Тип рипа: Tracks
Битрейт аудио: Lossless
Разрядность: 24 Bit/44,1 kHz
Носитель: WEB

Трек-лист

01. Time (Alan Walker Remix) (Feat. Hans Zimmer)
02. Man On The Moon (Feat. Benjamin Ingrosso)
03. Alone, Pt. II (Feat. Ava Max)
04. Paradise (Feat. K-391 & Boy In Space)
05. Out Of Love (Feat. Au/Ra)
06. Red Nexus Rising (Interlude)
07. Sorry (Feat. ISÁK)
08. Fake A Smile (Feat. Salem Ilese)
09. On My Way (Feat. Sabrina Carpenter & Farruko)
10. World We Used To Know (Feat. Winona Oak)
11. Drone Wars (Instrumental)
12. Heading Home (Feat. Ruben)
13. OK
14. Hummell Gets The Rockets (Alan Walker Remix) (Feat. Hans Zimmer)
15. Not You (Feat. Emma Steinbakken)

DRM
foobar2000 1.4.6 / Dynamic Range Meter 1.1.1
--------------------------------------------------------------------------------
Analyzed: Alan Walker / World of Walker
--------------------------------------------------------------------------------
DR Peak RMS Duration Track
--------------------------------------------------------------------------------
DR4 0.00 dB -6.94 dB 2:26 01-Time (Alan Walker Remix)
DR5 0.00 dB -7.35 dB 2:59 02-Man on the Moon
DR5 0.00 dB -7.25 dB 2:59 03-Alone, Pt. II
DR5 0.00 dB -8.12 dB 3:03 04-Paradise
DR5 0.00 dB -7.95 dB 2:25 05-Out of Love
DR5 0.00 dB -8.94 dB 0:40 06-Red Nexus Rising - Interlude
DR4 0.00 dB -8.12 dB 2:45 07-Sorry (feat. ISÁK)
DR5 0.00 dB -8.02 dB 2:45 08-Fake a Smile (feat. Salem Ilese)
DR4 0.00 dB -6.82 dB 3:14 09-On My Way
DR5 0.00 dB -6.51 dB 2:42 10-World We Used to Know
DR4 0.00 dB -8.19 dB 0:43 11-Drone Wars - Instrumental
DR6 0.00 dB -7.33 dB 3:07 12-Heading Home (feat. Ruben)
DR5 0.00 dB -8.00 dB 2:46 13-OK
DR5 0.00 dB -7.99 dB 2:57 14-Hummell Gets the Rockets (Alan Walker Remix)
DR6 0.00 dB -9.00 dB 2:34 15-Not You
--------------------------------------------------------------------------------
Number of tracks: 15
Official DR value: DR5
Samplerate: 44100 Hz
Channels: 2
Bits per sample: 24
Bitrate: 1530 kbps
Codec: FLAC
================================================================================

admin

Post 20-Jul-2021 03:39

[Quote]

Название: Future Static
Исполнитель: Coloray
Год: 2021
Жанр: House, House, Dance
Страна: Germany
Лейбл: Atomnation
Продолжительность: 00:39:59
Формат/Кодек: FLAC
Битрейт аудио: Lossless

Трек-лист

01 - Center Of The C# (00:03:41)
02 - Broken Mirrors (00:03:07)
03 - Echoes (00:04:36)
04 - Line Break I (00:01:04)
05 - Face Of Value (00:03:58)
06 - New Moon + (00:03:59)
07 - Line Break Ii (00:01:17)
08 - Kill The Ego (00:04:15)
09 - Digital Abyss (00:05:09)
10 - Moire (00:03:19)
11 - Line Break Iii (00:00:23)
12 - Resurrection (00:05:05)

Log

DON'T MODIFY THIS FILE
-----------------------
PERFORMER: auCDtect Task Manager, ver. 1.5.1RC3 build 1.5.1.4
Copyright (c) 2008-2010 y-soft. All rights reserved
http://y-soft.org
ANALYZER: auCDtect: CD records authenticity detector, version 0.8.2
Copyright (c) 2004 Oleg Berngardt. All rights reserved.
Copyright (c) 2004 Alexander Djourik. All rights reserved.
FILE: 12 - Resurrection.flac
Size: 34769391 Hash: D7072E5B9CF7F146A727FAAFE118BAE1 Accuracy: -m40
Conclusion: MPEG 95%
Signature: C34AB5CC93C5284879735220D5BCFBB796C045B3
FILE: 11 - Line Break Iii.flac
Size: 2927285 Hash: 9FEEF76741D9EBFFA0007389EEA0650B Accuracy: -m40
Conclusion: CDDA 100%
Signature: 50E995B4073EFFDAB89463F9B396ED4D424FCA11
FILE: 10 - Moire.flac
Size: 20852151 Hash: C2918960BF23B47EFB8CE16F283E5199 Accuracy: -m40
Conclusion: CDDA 99%
Signature: 81E36BE64F051672A9371AB3E97DB3072E056B0D
FILE: 09 - Digital Abyss.flac
Size: 36343286 Hash: 52F9BD605599135E846D5533068E4DBA Accuracy: -m40
Conclusion: CDDA 100%
Signature: 79457DC53F20BC2EEB1F5744DB48545A20F74C89
FILE: 08 - Kill The Ego.flac
Size: 29026831 Hash: 485AB895A7110832EA8CBE85C67C2B0C Accuracy: -m40
Conclusion: CDDA 99%
Signature: 4C1ABB0111A07DB6C07181E7CAFC5CEE8A15B61D
FILE: 07 - Line Break Ii.flac
Size: 7492037 Hash: 2433F5E722305DAEB3C24B47E0DC6991 Accuracy: -m40
Conclusion: CDDA 100%
Signature: 181DEFC0D4D5CF997C4050EE87C09092921E3625
FILE: 06 - New Moon +.flac
Size: 25444377 Hash: E19ECCC1432B7462348FB79B75E199BB Accuracy: -m40
Conclusion: CDDA 100%
Signature: BD38A5B3EB612C9F5C55CED25AB9A5FA1E4F5478
FILE: 05 - Face Of Value.flac
Size: 27635143 Hash: A972CA5E7D34028AA89B11E26E9AC152 Accuracy: -m40
Conclusion: CDDA 100%
Signature: E08FE3A48C43DB829AE9BA42107CE06CF2E5BA21
FILE: 04 - Line Break I.flac
Size: 6751159 Hash: 42DF297003D111F834C85E7EEDD9A87D Accuracy: -m40
Conclusion: CDDA 99%
Signature: 2E4662D96E837246A708200189AA3F7D4F903D65
FILE: 03 - Echoes.flac
Size: 31496592 Hash: 3C3FA6096EA5A8C0329AB9FBBFE43DB7 Accuracy: -m40
Conclusion: CDDA 100%
Signature: 0FC15346E4690257E3B955DFE235DB0D69B936E4
FILE: 02 - Broken Mirrors.flac
Size: 19955655 Hash: 7931266064C6E8C44CDF9DE74CCC644F Accuracy: -m40
Conclusion: CDDA 100%
Signature: 59631231AEA5CD2BDA380ACEAA0E632E1C6469A6
FILE: 01 - Center Of The C#.flac
Size: 21300232 Hash: B76FCFD6348439C536B3419DE892504D Accuracy: -m40
Conclusion: CDDA 99%
Signature: A2EAE0C7FD641924D3BF5F347EDF81A39876D4F0

admin

Post 03-Jul-2021 04:41

[Quote]

Название: This is Apollo 440
Исполнитель: Apollo 440
Год: 2021
Жанр: Electronic, Breaks, House, Alternative dance, Electronic rock, Breakbeat
Страна: UK
Продолжительность: 01:23:48
Формат/Кодек: MP3
Битрейт аудио: 320kbps

Трек-лист

01. Ain't Talkin' 'Bout Dub
02. Stop the Rock
03. Odessa Dubstep
04. Stay Frosty
05. Stadium Parking Lot
06. Bad Chemistry
07. Liquid Cool
08. Omega Point
09. Stealth Requiem
10. The Perfect Crime
11. Christiane
12. High on Your Own Supply
13. Film Me & Finish Me Off
14. Astral America
15. Krupa
16. Lost In Space (Theme)

admin

Post 04-Jun-2021 01:41

[Quote]

Название: Million Miles from Spring [by The Sound Archive]
Исполнитель: RMB vs Dune
Год: 2021
Жанр: Electronic, Experimental, House, Eurodance, Hard Trance, Happy Hardcore, Ambient
Страна: Germany
Продолжительность: 01:18:51
Формат/Кодек: MP3
Битрейт аудио: 320kbps

Трек-лист

01. RMB - Spring [2XLC Radio Edit] (03:09)
02. Dune - Million Miles From Home (04:23)
03. RMB - Reality (07:07)
04. Dune - Hardcore Vibes (03:33)
05. RMB - Redemption 2.0 (04:11)
06. Dune - Hand In Hand (04:34)
07. RMB - Love Is An Ocean (05:30)
08. Dune - Lost In Space (04:45)
09. RMB - Disruptive Technology (05:41)
10. Dune - So Beautiful (06:40)
11. RMB - Eternal Faith (06:11)
12. Dune - Who Wants To Live Forever [feat. The London Session Orchestra] (03:53)
13. RMB - Unreality (05:14)
14. Dune - In The Air [Part 2] (10:29)
15. RMB - Spring 1996 [Video Mix] (03:25)
Дополнительная информация: Почему я решил назвать этот баттл Million Miles from Spring (Миллион миль от весны)? У каждого человека по-старше была в жизни весна (или лето, или осень и т.д...), когда он был очень счастлив и молод, и когда не хотел, чтобы это заканчивалось. И сейчас он находится на расстоянии миллиона миль от того периода времени. Молодость уже в Миллионах миль позади. А музыка из молодости сейчас и здесь. Окунитесь мир дискотек 1990-х.

admin

Post 31-May-2021 13:40

[Quote]

Название: Mobile Home
Исполнитель: GusGus
Год: 2021
Жанр: Tech House, Abstract
Страна: Iceland
Лейбл: Oroom ehf
Продолжительность: 00:37:23
Формат/Кодек: MP3
Битрейт аудио: 320 kbps

Трек-лист

1. Stay The Ride (02:41)
2. Higher (feat. Vök) (03:55)
3. Simple Tuesday (05:36)
4. Love Is Alone (feat. John Grant) (03:21)
5. Our World (06:10)
6. Original Heartbreak (04:36)
7. Silence (03:22)
8. The Rink (03:24)
9. Flush (04:18)

admin

Post 30-May-2021 13:35

[Quote]

Название: Swimming Static
Исполнитель: Elder Island
Год: 2021
Жанр: Electronic, House
Страна: UK
Продолжительность: 00:39:06
Формат/Кодек: MP3
Битрейт аудио: 320 kbps

Трек-лист

01 - Embers [00:03:30]
02 - Purely Educational [00:03:46]
03 - Small Plastic Heart [00:03:42]
04 - Sacred [00:04:16]
05 - Here Am I [00:03:24]
06 - Queen of Kings [00:05:00]
07 - Feral [00:03:18]
08 - Intertwine [00:04:05]
09 - Cannonball [00:04:26]
10 - Late at Night [00:03:35]

admin

Post 24-May-2021 03:25

[Quote]

Название: Hardwell
Исполнитель: Billy Daniel Bunter & Jon Doe
Год: 2021
Жанр: House, Big Room, Future Bass, Electronic
Издание: Revealed Recordings
Дата релиза: 21.05.2021
Продолжительность: 01:58:37
Формат/Кодек: MP3
Битрейт аудио: 320kbps

Трек-лист

01. Hardwell feat. JGUAR - Being Alive (Ryos Remix) [3:30]
02. Hardwell & Amba Shepherd - Apollo (SICK INDIVIDUALS Remix) [3:33]
03. Hardwell feat. Mitch Crown - Spaceman (Dr Phunk Remix) [3:15]
04. Hardwell & Amba Shepherd - Apollo (Maddix Remix) [3:45]
05. Hardwell & KAAZE feat. Loren Allred - This Is Love (BLK RSE Remix) [3:34]
06. Hardwell & Dannic feat. Kelli-Leigh - Chase The Sun (Jac & Harri Remix) [2:44]
07. Hardwell - Retrograde (Drumstone Remix) [5:09]
08. Hardwell feat. JGUAR - Being Alive (Ryos Extended Remix) [4:30]
09. Hardwell Feat. Amba Shepherd - Apollo (SICK INDIVIDUALS Extended Remix) [4:38]
10. Hardwell feat. Mitch Crown - Spaceman (Dr Phunk Extended Remix) [3:42]
11. Hardwell feat. Amba Shepherd - Apollo (Maddix Extended Remix) [5:36]
12. Hardwell & KAAZE feat. Loren Allred - This Is Love (BLK RSE Extended Remix) [4:04]
13. Hardwell & Dannic feat. Kelli-Leigh - Chase The Sun (Jac & Harri Extended Remix) [4:14]
14. Hardwell - Retrograde (Drumstone Extented Remix) [7:12]

admin

Post 21-May-2021 03:41

[Quote]

Название: Innersense
Исполнитель: Felix Raphael
Год: 2021
Жанр: Deep House, Progressive House, Tech House
Лейбл: Poesie Musik
Продолжительность: 00:59:34
Формат/Кодек: FLAC
Битрейт аудио: Lossless

Трек-лист

1. Foreword (feat Stephane Salerno & Seasoul) (03:39)
2. The Way (06:52)
3. Felix Raphael & Allies For Everyone – Safe (06:15)
4. Felix Raphael & Yannek Maunz – Won't Miss (06:33)
5. Felix Raphael & Johanson – Pieces Of You (06:51)
6. Lost On Purpose (feat Seasoul) (06:35)
7. Lights (06:27)
8. Felix Raphael & Allies For Everyone – Fending Off Lows (06:03)
9. Felix Raphael & David Schwartz – Fall Into My Ocean (06:18)
10. Last Thoughts (03:58)

Log

DON'T MODIFY THIS FILE
-----------------------
PERFORMER: auCDtect Task Manager, ver. 1.6.0 RC1 build 1.6.0.1
Copyright (c) 2008-2010 y-soft. All rights reserved
http://y-soft.org
ANALYZER: auCDtect: CD records authenticity detector, version 0.8.2
Copyright (c) 2004 Oleg Berngardt. All rights reserved.
Copyright (c) 2004 Alexander Djourik. All rights reserved.
FILE: 10 - Last Thoughts.flac
Size: 18814471 Hash: 7F31E51C508F21FC9C4D56CD1BBB461B Accuracy: -m0
Conclusion: CDDA 99%
Signature: 665FD5609ED583527CF91F8301F9F198959F5422
FILE: 09 - Fall into My Ocean.flac
Size: 40377435 Hash: 73D8CBDD7DF8BED79D2F93717747491D Accuracy: -m0
Conclusion: CDDA 100%
Signature: 44D7018B5D739A4F7A7BA736401F421ACFB35A00
FILE: 08 - Fending off Lows.flac
Size: 36279037 Hash: A9322355FB36ADAA4DE1EA0F7A2C4E84 Accuracy: -m0
Conclusion: CDDA 99%
Signature: 8884263E2FA8EC1E8B4BCF94CC9573CCC9FBC80D
FILE: 07 - Lights.flac
Size: 39623337 Hash: EED80153AE1B7465876EE724FDC16120 Accuracy: -m0
Conclusion: CDDA 100%
Signature: 913049388FE23D07A0F1B2ADFF0522C1913E9B26
FILE: 06 - Lost on Purpose.flac
Size: 42604335 Hash: 96286D415620202D0167A35B8A988CED Accuracy: -m0
Conclusion: CDDA 100%
Signature: 56773028F535F42580A4088C149C14ECFFD647E0
FILE: 05 - Pieces of You.flac
Size: 38635680 Hash: 555CAA611AAC69F3E9B9613364E6D1EE Accuracy: -m0
Conclusion: CDDA 100%
Signature: A05BC924D6432CEF23BFDF778C510B4C5624AC46
FILE: 04 - Won't Miss.flac
Size: 40089522 Hash: 5F556B2330531DE65A99248CD3CEE36E Accuracy: -m0
Conclusion: CDDA 100%
Signature: 1FF6DC6C53B5D12990E21811DDFCA52F7D4F6289
FILE: 03 - Safe.flac
Size: 40662264 Hash: D4F9A742F45159B488B34D9DB4AD36E0 Accuracy: -m0
Conclusion: CDDA 100%
Signature: 48D0B21D5E444D0B45ACEDBC884B1A3261E72E1F
FILE: 02 - The Way.flac
Size: 39081842 Hash: AA3B5325B3A68E5AA696838DAFC6D29D Accuracy: -m0
Conclusion: CDDA 100%
Signature: 40AA8DDC8B77526CFAB033A8FFABED96508B5BCD
FILE: 01 - Foreword.flac
Size: 21288020 Hash: 84888A823B21971F15D7F4C723273089 Accuracy: -m0
Conclusion: CDDA 100%
Signature: 2C65C8F9DC05FB01503E4F24791DC53C5FA88752

admin

Post 18-May-2021 03:12

[Quote]

Название: The Business (Remixes)
Исполнитель: Tiësto
Год: 2021
Жанр: House, Electronic
Издание: Atlantic Records
Каталог: 075679782069
Продолжительность: 00:18:09
Формат/Кодек: MP3
Битрейт аудио: 320kbps

Трек-лист

01. Tiësto - The Business (Vintage Culture & Dubdogz Remix) [3:10]
02. Tiësto - The Business (SWACQ Remix) [2:49]
03. Tiësto - The Business (220 KID Remix) [3:19]
04. Tiësto - The Business (Sparkee Remix) [3:02]
05. Tiësto & Ty Dolla $ign - The Business, Pt. II (Clean Bandit Remix) [3:04]
06. Tiësto & Ty Dolla $ign - The Business, Pt. II [2:44]

admin

Post 12-May-2021 16:58

[Quote]

Название: The Lead
Исполнитель: Matthieu B.
Год: 2021
Жанр: Deep House
Лейбл: Plastic City Suburbia
Продолжительность: 01:10:08
Формат/Кодек: FLAC
Битрейт аудио: Lossless

Трек-лист

1. Limited Edition (06:41)
2. House Music [Rework] (07:22)
3. Deeper and Deeper (06:24)
4. Jupiter is Calling me (08:07)
5. Ode à mon fils (00:50)
6. Mi Amor (06:26)
7. Slow (06:11)
8. Aphrodite (06:44)
9. Le désert de Lilie (08:03)
10. Building UP (06:53)
11. The Lead (06:21)

Log

DON'T MODIFY THIS FILE
-----------------------
PERFORMER: auCDtect Task Manager, ver. 1.6.0 RC1 build 1.6.0.1
Copyright (c) 2008-2010 y-soft. All rights reserved
http://y-soft.org
ANALYZER: auCDtect: CD records authenticity detector, version 0.8.2
Copyright (c) 2004 Oleg Berngardt. All rights reserved.
Copyright (c) 2004 Alexander Djourik. All rights reserved.
FILE: 11 - The Lead.flac
Size: 31955036 Hash: 2E66050FE8A4A92B87173C22C5C4A2CA Accuracy: -m0
Conclusion: CDDA 100%
Signature: BB7AFD94E5918440BC1015F6A49D2AA4241278A2
FILE: 10 - Building UP.flac
Size: 37619058 Hash: 22237706C3D9D08D7753BF752DEB5210 Accuracy: -m0
Conclusion: CDDA 100%
Signature: B2B14B5161FFC729E60846C4B1D312B048A8FDCF
FILE: 09 - Le désert de Lilie.flac
Size: 47588116 Hash: 2CCA5AA1AF73344DB4F82E3B75DF3393 Accuracy: -m0
Conclusion: CDDA 100%
Signature: 108FC69BCD4586DAE0C8453D874F421D23141429
FILE: 08 - Aphrodite.flac
Size: 45836595 Hash: 8EF68D600E440D1B123275A6C2C80B84 Accuracy: -m0
Conclusion: CDDA 100%
Signature: 9138F07D117AAB57368593731E7CDD0B3576F4C3
FILE: 07 - Slow.flac
Size: 37991801 Hash: 4FD4F8FA019533AB0B58600843AD40C0 Accuracy: -m0
Conclusion: CDDA 99%
Signature: 730340EB1590847A0BF4A2096C9FDB967EA99CF6
FILE: 06 - Mi Amor.flac
Size: 40568136 Hash: 064174EDD416E2F5A401C52549AD26C0 Accuracy: -m0
Conclusion: CDDA 100%
Signature: 2B3F634FF4B823594A74DF24D06FAF10A7687DB0
FILE: 05 - Ode à mon fils.flac
Size: 4886721 Hash: 7FBA6AFF28C9FBE8D58A0E85AC9D704A Accuracy: -m0
Conclusion: CDDA 100%
Signature: 58E666D451005365B0BEB30E325D58CB3E5CB3E2
FILE: 04 - Jupiter is Calling me.flac
Size: 49211900 Hash: EEED0D6C8810B5DE33EF59C24F881368 Accuracy: -m0
Conclusion: CDDA 99%
Signature: A5ED0762C0652D437BD7D2192AA95CACF2FD8165
FILE: 03 - Deeper and Deeper.flac
Size: 38896062 Hash: 8117EF4F032CFA801CCAD623B63E0CEF Accuracy: -m0
Conclusion: CDDA 99%
Signature: BA146131A47B3BAE905AFD331FAAD0C06B13BCF7
FILE: 02 - House Music (Rework).flac
Size: 48274690 Hash: 49E744FC97FA3F8366E2C6FD1AB99EF1 Accuracy: -m0
Conclusion: CDDA 100%
Signature: 8BC36C818986A6C3AEAF5131447249D15F4D3066
FILE: 01 - Limited Edition.flac
Size: 34820223 Hash: 6DC45DA738E494FE23C230D4F974CCDC Accuracy: -m0
Conclusion: CDDA 100%
Signature: 55BF098614F65A9348A7BA885AF1353B18BC199C
 

Current time is: 19-May 19:01

All times are UTC + 3