Search found 7 matches

Author Message

admin

Post 09-Nov-2019 01:00

[Quote]

Название: Vehicle of Spirit (Live)
Исполнитель: Nightwish
Год: 2016
Жанр: Symphonic Gothic Power Metal
Страна: Финляндия
Студия: США, Warner Music
Продолжительность: 02:06:23, 01:51:15, 01:03:18
Файл
Кодек: H.264
Качество: BDRip 720p
Видео: AVC, 1280x720 (16:9), 24 fps ~ 7550 Kbps
Звук: DTS, 48 KHz 6 ch ~ 755 Kb/s
Субтитры: отсутствуют
Официальный сайт

Трек-лист

Nightwish - Vehicle of Spirit. The Wembley Show:
01. Shudder Before The Beautiful
02. Yours Is An Empty Hope
03. Ever Dream
04. Storytime
05. My Walden
06. While your Lips Are Still Red
07. Elan
08. Weak Fantasy
09. 7 Days To The Wolves
10. Alpenglow
11. The Poet And The Pendulum
12. Nemo
13. I Want My Tears Back
14. Stargazers
15. Ghost Love Score
16. Last Ride Of The Day
17. The Greatest Show On Earth
Nightwish - Vehicle of Spirit. The Tampere Show:
01. Shudder Before the Beautiful
02. Yours is an Empty Hope
03. Amaranth
04. She is My Sin
05. Dark Chest of Wonders
06. My Walden
07. The Islander
08. Elan
09. Weak Fantasy
10. Storytime
11. Endless Forms Most Beautiful
12. Alpenglow
13. Stargazers
14. Sleeping Sun
15. Ghost Love Score
16. Last Ride of the Day
17. The Greatest Show on Earth
Nightwish - Vehicle of Spirit (Bonus):
01. Weak Fantasy Vancouver (Orpheum)
02. Nemo Buenos Aires (Luna Park Stadium)
03. The Poet and the Pendulum Mexico City (Teatro Metropolitan)
04. Yours Is an Empty Hope Joensuu (Laulurinne Autodrome)
05. 7 Days to the Wolves Espoo (Barona Areena)
06. Sleeping Sun Vizovice (Masters of Rock Festival)
07. Sahara Tampa (Ritz Club)
08. Edema Ruh Turku (Baltic Princess Cruise)
09. Last Ride of the Day (feat. Tony Kakko) Rio de Janeiro (Rock in Rio)
10. Elan Sydney (Enmore Theatre)
Дополнительная информация: 16 декабря состоялся релиз финских металистов Nightwish, получивший название "Vehicle of Spirit". Эпохальным стало и место проведения съемки - концерт состоялся на знаменитой Уэмбли Арене в Лондоне. Как сообщалось на официальном канале группы, билеты на концерт были полностью проданы через некоторое время после начала старта продаж. Nightwish стали первой финской хэдлайн-группой, выступившей на Уэмбли Арене перед 12 тысячами восторженных зрителей. Особым подарком поклонникам стал "разогрев" - перед хэдлайнерами с шоу выступили финская группы Amorphis и шведские дэт-металисты Arch Enemy. А в конце выступления на сцене к музыкантам присоединился известный ученый, писатель и популяризатор науки - Ричард Доккинз! Но и на этом сюрпризы для фанатов не закончились: музыканты приняли решение выпустить на физическом носителе и концерт в Тампере, записанный летом 2015 года. Режиссером стал скандально известный фотограф Вилле Липиаинен, а сведение и мастеринг в который раз доверили Мике Юссиле, бессменному звукорежиссеру группы.
Состав:
Floor Jansen: Vocals
Marco Hietala: Bass, acoustic guitars & vocals
Emppu Vuorinen: Guitars
Kai Hahto: Drums
Tuomas Holopainen: Keys
Troy Donockley: Uilleann pipes, low whistles, guitars, bouzouki & vocals

Скриншоты:

admin

Post 01-Sep-2019 17:11

[Quote]

«Metallica: WorldWired Tour - 21 июля, 2019 • Москва, Россия • Стадион Лужники»- Информация
Название: Metallica - Live in Moscow
Место съемки: Стадион Лужники, Москва
Исполнитель: Metallica
Год: 2019
Страна: Россия
Жанр: Thrash Metal
Продолжительность: 02:27:28
Описание:
Официальное видео выступления группы «Metallica» на стадионе Лужники в Москве 21 июля 2019 года, в рамках тура WorldWiredTour в поддержку десятого студийного альбома «Hardwired...To Self-Destruct»
Треклист:
01. Hardwired
02. The Memory Remains
03. The Four Horsemen
04. Harvester of Sorrow
05. The Unforgiven
06 .Now That We're Dead
07. Moth Into Flame
08. Sad But True
09. Halo On Fire
10. Rob & Kirk's Doodle (Группа Крови + Bass Solo)
11. Frantic
12. One
13. Master Of Puppets
14. For Whom The Bell Tolls
15. Creeping Death
16. Seek and Destroy
17. Spit Out The Bone
18. Nothing Else Matters
19. Enter Sandman
Файл
Качество: WEBRip 1080p
Формат: MKV
Видео кодек: H264
Аудио кодек: AAC
Видео: 1920x1080 (16:9), 29.970 fps, ~4 200 Kbps Kbps, 0.068 bit/pixel
Аудио: 48 kHz, Advanced Audio Codec, 2 ch, ~320.00 kbps | Original

Источник: NUGS-

Скриншоты



-

MediaInfo

General
Unique ID : 185462666336163592471633836268476959907 (0x8B86CF6D9C4195D5B4BDD21AAA500CA3)
Complete name : METALLICA.Live.in.Moscow.Russia.21.07.2019.WEBRip.1080p.mkv
Format : Matroska
Format version : Version 2
File size : 4.66 GiB
Duration : 2h 27mn
Overall bit rate : 4 520 Kbps
Movie name : Metallica - Luzhniki Stadium, Moscow, Russia - 21 July 2019
Encoded date : UTC 2019-08-31 10:14:15
Writing application : mkvmerge v5.2.1 ('A Far Off Place') built on Jan 2 2012 23:21:10
Writing library : libebml v1.2.3 + libmatroska v1.3.0 / Lavf58.31.104
Cover : Yes
Attachments : cover.jpg
Video
ID : 1
Format : AVC
Format/Info : Advanced Video Codec
Format profile : Main@L4
Format settings, CABAC : Yes
Format settings, ReFrames : 3 frames
Codec ID : V_MPEG4/ISO/AVC
Duration : 2h 27mn
Bit rate mode : Constant
Nominal bit rate : 4 200 Kbps
Width : 1 920 pixels
Height : 1 080 pixels
Display aspect ratio : 16:9
Frame rate mode : Constant
Frame rate : 29.970 (30000/1001) fps
Color space : YUV
Chroma subsampling : 4:2:0
Bit depth : 8 bits
Scan type : Progressive
Bits/(Pixel*Frame) : 0.068
Title : NUGS.NET
Language : English
Default : Yes
Forced : No
Color range : Limited
Color primaries : BT.709
Transfer characteristics : BT.709
Matrix coefficients : BT.709
DURATION : 02:27:28.039000000
Audio
ID : 2
Format : AAC
Format/Info : Advanced Audio Codec
Format profile : LC
Codec ID : A_AAC
Duration : 2h 27mn
Channel(s) : 2 channels
Channel positions : Front: L R
Sampling rate : 48.0 KHz
Frame rate : 46.875 fps (1024 spf)
Compression mode : Lossy
Delay relative to video : -33ms
Title : Original
Language : English
Default : Yes
Forced : No
DURATION : 02:27:28.021000000
Menu
00:00:00.000 : :Hardwired (3:53)
00:03:53.000 : :The Memory Remains (5:32)
00:09:25.000 : :The Four Horsemen (5:50)
00:15:15.000 : :Harvester Of Sorrow (6:16)
00:21:31.000 : :The Unforgiven (7:36)
00:29:07.000 : :Now That Were Dead (7:52)
00:36:59.000 : :Moth Into Flame (6:54)
00:43:53.000 : :Sad But True (7:52)
00:51:45.000 : :Halo On Fire (9:47)
01:01:32.000 : :Kirk And Rob Doodle (8:32)
01:10:04.000 : :Frantic (5:55)
01:15:59.000 : :One (8:48)
01:24:47.000 : :Master Of Puppets (10:03)
01:34:50.000 : :For Whom The Bell Tolls (5:30)
01:40:20.000 : :Creeping Death (6:19)
01:46:39.000 : :Seek and Destroy (11:55)
01:58:34.000 : :Spit Out The Bone (6:56)
02:05:30.000 : :Nothing Else Matters (7:18)
02:12:48.000 : :Enter Sandman (14:43)
-

admin

Post 09-Jul-2019 01:52

[Quote]

Информация о фильме
Название: "Железная тётька: номерок блатной 666"
Оригинальное название: Iron Maden: Flight 666
Год выхода: 2009
Жанр: документальный, музыкальный
Режиссер: Сэм Данн, Скот МакФадьен
В ролях: группа "Iron Maiden", Винни Эппис, Пэт Кэш, Брюс Дикинсон, Ронни Джеймс Дио, Яник Герц, Деррик Грин, Стив Харрис, Адриан Смит, Нико МакБрейн, Род Смоллвуд.
О фильме:
«Iron Maiden: Flight 666» — это полнометражный документальный фильм о первом этапе мирового турне ‘Somewhere Back In Time World Tour’, ставшего самым смелым и неожиданным проектом в истории рок-музыки.
Страна: Великобритания, Канада
Продолжительность: 01:52:20
Перевод: Любительский, альтернативный от студии "БункероК"
Файл
Кодек: MPEG-4
Качество: BDRip 1080
Видео: AVC, 5000 Кбит/сек, 1920х1080(16:9), 23,952 fps
Звук: AAC LC/320 kbps/2/0 (L,R) ch/44,1 kHz

Скриншоты

admin

Post 05-Dec-2018 04:41

[Quote]

Оригинальное название: Lacuna Coil - The 119 Show: Live In London
Год выпуска: 2018
Жанр: Gothic Metal
Выпущено: Англия, Италия, Century Media Int'L
Исполнитель: Lacuna Coil
Продолжительность: 02:16:15
Перевод: Не требуется
О концерте:
В 2018 году отмечает 20-летие дебюта итальянской Gothic Metal группы Lacuna Coil. Чтобы отпраздновать этот особый год, они сыграли исключительное шоу 19 января в Лондоне на O2 Forum Kentish Town. Уникальная феерия, включающая в себя визуальные эффекты, артистов цирка и улучшенное сценическое производство, было профессионально снято и записано для The 119 Show - Live In London, релиз которого вышел 9 ноября. Nothing Stands In Our Way описывается как «полная 20-летняя история о итальянских гот-отцах, рассказанная группой. Иллюстрированная повсюду с редкими и откровенными фотографиями, памятными вещами и персональными артефактами, она увидит основателей группы, просеивающие рождение, рост и полное расцвет группы, чтобы рассказать о 20-летнии Lacuna Coil.»
Кодек: H.264
Качество: BDRip 1080p
Видео: MPEG-4 AVC, 11192 Кбит/с, 1920x1080, 24.000 кадр/с
Звук: Английский (DTS, 2 ch, 1510 Кбит/с), (AC3, 2 ch, 224 Кбит/с)
Релиз группа NovaLan
Автор релиза Sergei7721

Треклист

01. Intro
02. A Current Obsession
03. 1.19
04. My Wings
05. End Of Time
06. Blood, Tears, Dust
07. Swamped
08. The Army Inside
09. Veins Of Glass
10. One Cold Day
11. The House Of Shame
12. When A Dead Man Walks
13. Tight Rope
14. Soul Into Hades
15. Hyperfast
16. I Like It
17. Heaven's A Lie
18. Senzafine
19. Closer
20. Comalies
21. Our Truth
22. Intermezzo
23. Falling
24. Wide Awake
25. I Forgive (But I Won't Forget Your Name)
26. Enjoy The Silence
27. Nothing Stands In Our Way
28. Final Credits

MediaInfo

Полное имя : D:Lacuna.Coil.The.119.Show.2018.x264.BDRip.1080p.NovaLan.mkv
Формат : Matroska
Версия формата : Version 4 / Version 2
Размер файла : 12,3 Гбайт
Продолжительность : 2 ч. 16 м.
Общий поток : 12,9 Мбит/сек
Название фильма : Lacuna Coil - The 119 Show 2018 - NovaLan
Дата кодирования : UTC 2018-12-01 09:39:16
Программа кодирования : mkvmerge v6.9.1 ('Blue Panther') 64bit built on Apr 18 2014 18:23:38
Библиотека кодирования : libebml v1.3.0 + libmatroska v1.4.1
Видео
Идентификатор : 1
Формат : AVC
Формат/Информация : Advanced Video Codec
Профиль формата : High@L4.1
Параметр CABAC формата : Да
Параметр ReFrames формата : 4 кадра
Идентификатор кодека : V_MPEG4/ISO/AVC
Продолжительность : 2 ч. 16 м.
Битрейт : 11,2 Мбит/сек
Ширина : 1920 пикселей
Высота : 1080 пикселей
Соотношение сторон : 16:9
Частота кадров : 24,000 кадра/сек
Цветовое пространство : YUV
Субдискретизация насыщенности : 4:2:0
Битовая глубина : 8 бит
Тип развёртки : Прогрессивная
Бит/(Пиксели*Кадры) : 0.225
Размер потока : 10,4 Гбайт (85%)
Заголовок : Sergei7721
Библиотека кодирования : x264 core 157 r2935 545de2f
Настройки программы : cabac=1 / ref=4 / deblock=1:-1:-1 / analyse=0x3:0x113 / me=umh / subme=11 / psy=1 / psy_rd=1.00:0.20 / mixed_ref=1 / me_range=24 / chroma_me=1 / trellis=2 / 8x8dct=1 / cqm=0 / deadzone=21,11 / fast_pskip=0 / chroma_qp_offset=-3 / threads=18 / lookahead_threads=2 / sliced_threads=0 / nr=0 / decimate=0 / interlaced=0 / bluray_compat=0 / constrained_intra=0 / bframes=6 / b_pyramid=2 / b_adapt=2 / b_bias=0 / direct=3 / weightb=1 / open_gop=0 / weightp=2 / keyint=240 / keyint_min=24 / scenecut=40 / intra_refresh=0 / rc_lookahead=40 / rc=2pass / mbtree=0 / bitrate=11192 / ratetol=1.0 / qcomp=0.60 / qpmin=0 / qpmax=69 / qpstep=4 / cplxblur=20.0 / qblur=0.5 / vbv_maxrate=50000 / vbv_bufsize=62500 / nal_hrd=none / filler=0 / ip_ratio=1.40 / pb_ratio=1.30 / aq=1:1.00
Default : Да
Forced : Нет
Аудио #1
Идентификатор : 2
Формат : DTS
Формат/Информация : Digital Theater Systems
Идентификатор кодека : A_DTS
Продолжительность : 2 ч. 16 м.
Вид битрейта : Постоянный
Битрейт : 1510 Кбит/сек
Каналы : 2 канала
Расположение каналов : Front: L R
Частота : 48,0 КГц
Битовая глубина : 16 бит
Метод сжатия : С потерями
Размер потока : 1,44 Гбайт (12%)
Язык : English
Default : Да
Forced : Нет
Аудио #2
Идентификатор : 3
Формат : AC-3
Формат/Информация : Audio Coding 3
Расширение режима : CM (complete main)
Параметр Endianness формата : Big
Идентификатор кодека : A_AC3
Продолжительность : 2 ч. 16 м.
Вид битрейта : Постоянный
Битрейт : 224 Кбит/сек
Каналы : 2 канала
Расположение каналов : Front: L R
Частота : 48,0 КГц
Битовая глубина : 16 бит
Метод сжатия : С потерями
Размер потока : 218 Мбайт (2%)
Язык : English
Default : Нет
Forced : Нет
Меню
00:00:00.000 : en:00:00:00.000
00:01:34.375 : en:00:01:34.375
00:06:24.208 : en:00:06:24.208
00:11:09.583 : en:00:11:09.583
00:15:26.458 : en:00:15:26.458
00:19:40.958 : en:00:19:40.958
00:23:57.958 : en:00:23:57.958
00:30:04.000 : en:00:30:04.000
00:33:33.291 : en:00:33:33.291
00:39:45.833 : en:00:39:45.833
00:46:04.375 : en:00:46:04.375
00:51:29.500 : en:00:51:29.500
00:58:00.458 : en:00:58:00.458
01:02:36.625 : en:01:02:36.625
01:08:07.875 : en:01:08:07.875
01:13:04.291 : en:01:13:04.291
01:17:08.000 : en:01:17:08.000
01:22:06.125 : en:01:22:06.125
01:26:09.958 : en:01:26:09.958
01:30:12.000 : en:01:30:12.000
01:35:09.791 : en:01:35:09.791
01:39:38.125 : en:01:39:38.125
01:42:32.958 : en:01:42:32.958
01:49:49.458 : en:01:49:49.458
01:53:57.375 : en:01:53:57.375
02:01:26.791 : en:02:01:26.791
02:07:24.000 : en:02:07:24.000
02:14:09.833 : en:02:14:09.833
02:16:15.750 : en:02:16:15.750

Скриншоты

admin

Post 05-Dec-2018 04:23

[Quote]

Accept - Symphonic Terror: Live at Wacken
Год выхода: 2018
Жанр: Rock, Heavy Metal
О фильме:
Немецкие металлисты "Accept" выпустили свой новый концертный альбом. Пластинка получила название "Symphonic Terror. Live At Wacken 2017" и появилась 23 ноября 2018 года на лейбле Nuclear Blast. Запись прошла 3 августа 2017 года на легендарном фестивале Wacken Open Air, где группа отыграла самое большое и экстраординарное шоу в своей карьере перед 80 000 человек, а также тысячами других фэнов, которые смотрели его в прямом эфире.
Производство: Германия, Nuclear Blast
Продолжительность: 02:02:57
Качество: Blu-ray 1080p
Видео: MPEG-4 AVC Video / 16862 kbps / 1080p / 24 fps / 16:9 / High Profile 4.1
Аудио #1: LPCM Audio / 2.0 / 48 kHz / 1536 kbps / 16-bit
Аудио #2: LPCM Audio / 5.1 / 48 kHz / 4608 kbps / 16-bit

Треклист:

Part 1 - Accept
1. Die by the Sword
2. Restless and Wild
3. Koolaid
4. Pandemic
5. Final Journey
Part 2 - Heartbangers Symphony
6. Night on Bald Mountain
7. Scherzo
8. Romeo and Juliet
9. Pathétique
10. Double Cello Concerto in G Minor
11. Symphony NO. 40 in G Minor
Part 3 - Accept with Orchestra
12. Princess of the Dawn
13. Stalingrad
14. Dark Side of My Heart
15. Breaker
16. Shadow Soldiers
17. Dying Breed
18. Fast as a Shark
19. Metal Heart
20. Teutonic Terror
21. Balls to the Wall

Mediainfo:

General
Complete name : D:mp3Accept - Symphonic Terror (Live at Wacken 2017) Blu-Ray 1080pBDMVPLAYLIST1003.mpls
Format : Blu-ray Playlist
File size : 646 Bytes
Duration : 2 h 2 min
Overall bit rate mode : Variable
Overall bit rate : 1 b/s
Video #1
ID : 4113 (0x1011)
Menu ID : 1 (0x1)
Format : AVC
Format/Info : Advanced Video Codec
Format profile : High@L4.1
Format settings, CABAC : Yes
Format settings, ReFrames : 3 frames
Codec ID : 27
Duration : 2 h 1 min
Bit rate mode : Variable
Bit rate : 17.5 Mb/s
Maximum bit rate : 33.0 Mb/s
Width : 1 920 pixels
Height : 1 080 pixels
Display aspect ratio : 16:9
Frame rate : 24.000 FPS
Standard : NTSC
Color space : YUV
Chroma subsampling : 4:2:0
Bit depth : 8 bits
Scan type : Progressive
Bits/(Pixel*Frame) : 0.351
Stream size : 14.8 GiB
Color range : Limited
Color primaries : BT.709
Transfer characteristics : BT.709
Matrix coefficients : BT.709
format_identifier : HDMV
Source : 00003.m2ts
Video #2
ID : 4113 (0x1011)
Menu ID : 1 (0x1)
Format : AVC
Format/Info : Advanced Video Codec
Format profile : High@L4.1
Format settings, CABAC : Yes
Format settings, ReFrames : 3 frames
Format settings, GOP : M=3, N=12
Codec ID : 27
Duration : 1 min 44 s
Bit rate mode : Variable
Bit rate : 7 613 kb/s
Maximum bit rate : 33.0 Mb/s
Width : 1 920 pixels
Height : 1 080 pixels
Display aspect ratio : 16:9
Frame rate : 24.000 FPS
Standard : NTSC
Color space : YUV
Chroma subsampling : 4:2:0
Bit depth : 8 bits
Scan type : Progressive
Bits/(Pixel*Frame) : 0.153
Stream size : 94.6 MiB
Color range : Limited
Color primaries : BT.709
Transfer characteristics : BT.709
Matrix coefficients : BT.709
format_identifier : HDMV
Source : 00007.m2ts
Video #3
ID : 4113 (0x1011)
Menu ID : 1 (0x1)
Format : AVC
Format/Info : Advanced Video Codec
Format profile : High@L4.1
Format settings, CABAC : Yes
Format settings, ReFrames : 3 frames
Codec ID : 27
Duration : 417 ms
Bit rate mode : Variable
Maximum bit rate : 29.9 Mb/s
Width : 1 920 pixels
Height : 1 080 pixels
Display aspect ratio : 16:9
Frame rate : 24.000 FPS
Standard : NTSC
Color space : YUV
Chroma subsampling : 4:2:0
Bit depth : 8 bits
Scan type : Progressive
Color range : Limited
Color primaries : BT.709
Transfer characteristics : BT.709
Matrix coefficients : BT.709
format_identifier : HDMV
Source : 00006.m2ts
Audio #1
ID : 4352 (0x1100)
Menu ID : 1 (0x1)
Format : PCM
Format settings, Endianness : Big
Format settings, Sign : Signed
Muxing mode : Blu-ray
Codec ID : 128
Duration : 2 h 1 min
Bit rate mode : Constant
Bit rate : 1 536 kb/s
Channel(s) : 2 channels
Channel positions : Front: L R
Sampling rate : 48.0 kHz
Bit depth : 16 bits
Stream size : 1.30 GiB
format_identifier : HDMV
Source : 00003.m2ts
Audio #2
ID : 4353 (0x1101)
Menu ID : 1 (0x1)
Format : PCM
Format settings, Endianness : Big
Format settings, Sign : Signed
Muxing mode : Blu-ray
Codec ID : 128
Duration : 2 h 1 min
Bit rate mode : Constant
Bit rate : 4 608 kb/s
Channel(s) : 6 channels
Channel positions : Front: L C R, Side: L R, LFE
Sampling rate : 48.0 kHz
Bit depth : 16 bits
Stream size : 3.90 GiB
format_identifier : HDMV
Source : 00003.m2ts
Audio #3
ID : 4352 (0x1100)
Menu ID : 1 (0x1)
Format : PCM
Format settings, Endianness : Big
Format settings, Sign : Signed
Muxing mode : Blu-ray
Codec ID : 128
Duration : 1 min 43 s
Bit rate mode : Constant
Bit rate : 1 536 kb/s
Channel(s) : 2 channels
Channel positions : Front: L R
Sampling rate : 48.0 kHz
Bit depth : 16 bits
Stream size : 18.9 MiB
format_identifier : HDMV
Source : 00007.m2ts
Menu
00:00:00.000 : Chapter 1
00:05:28.000 : Chapter 2
00:10:11.416 : Chapter 3
00:15:17.000 : Chapter 4
00:21:19.500 : Chapter 5
00:26:53.208 : Chapter 6
00:32:56.000 : Chapter 7
00:38:28.000 : Chapter 8
00:44:13.000 : Chapter 9
00:50:06.000 : Chapter 10
00:53:43.000 : Chapter 11
00:58:25.000 : Chapter 12
01:05:58.000 : Chapter 13
01:12:19.000 : Chapter 14
01:17:03.000 : Chapter 15
01:21:45.000 : Chapter 16
01:27:43.000 : Chapter 17
01:34:01.000 : Chapter 18
01:38:29.000 : Chapter 19
01:46:05.000 : Chapter 20
01:51:48.000 : Chapter 21

Скриншоты:

admin

Post 21-Sep-2018 05:11

[Quote]

Название: (Черный кофе) - Выступление в ЦДХ
Исполнитель/Группа: Дмитрий Варшавский
Жанр: Heavy metal
Год выпуска: 2018
Продолжительность: 00:53:53
Формат: MKV
Качество: WEBRip 1080p
Видео кодек: H.264
Аудио кодек: AAC
Видео: H.264 1920x1080 (16:9) 25fps 3 000 Kbps
Аудио: AAC, 48000Hz, 2ch, 128 kbps

Треклист

1.Жди и надейся
2.Пылает за окном звезда
3.Листья
4.Леди осень

MedaInfo

Varshavsky_03.18.mkv
Format : Matroska
Format version : Version 4 / Version 2
File size : 385 MiB
Duration : 17 min 15 s
Overall bit rate : 3 121 kb/s
Encoded date : UTC 2018-09-20 22:19:44
Writing application : mkvmerge v8.3.0 ('Over the Horizon') 64bit
Writing library : libebml v1.3.1 + libmatroska v1.4.2
Video
ID : 1
Format : AVC
Format/Info : Advanced Video Codec
Format profile : High@L4
Format settings, CABAC : Yes
Format settings, ReFrames : 2 frames
Codec ID : V_MPEG4/ISO/AVC
Duration : 17 min 15 s
Bit rate : 2 994 kb/s
Width : 1 920 pixels
Height : 1 080 pixels
Display aspect ratio : 16:9
Frame rate mode : Constant
Frame rate : 25.000 FPS
Color space : YUV
Chroma subsampling : 4:2:0
Bit depth : 8 bits
Scan type : Progressive
Bits/(Pixel*Frame) : 0.058
Stream size : 369 MiB (96%)
Default : Yes
Forced : No
Color range : Limited
Color primaries : BT.709
Transfer characteristics : BT.709
Matrix coefficients : BT.709
Audio
ID : 2
Format : AAC
Format/Info : Advanced Audio Codec
Format profile : LC
Codec ID : A_AAC
Duration : 17 min 15 s
Bit rate : 126 kb/s
Channel(s) : 2 channels
Channel positions : Front: L R
Sampling rate : 44.1 kHz
Frame rate : 43.066 FPS (1024 spf)
Compression mode : Lossy
Stream size : 15.5 MiB (4%)
Default : Yes
Forced : No

Скриншоты

admin

Post 18-Aug-2018 08:01

[Quote]

Название: Nightwish - Showtime, Storytime
Год выхода: 2013
Жанр: Symphonic Power Metal
Продолжительность: 01:38:06
Страна: Финляндия
Студия: Nuclear Blast, Scene Nation
Описание:
Выступление знаменитой финской Symphonic Power Metal команды "Nightwish" на "Wacken Open Air 2013" с новой нидерландской вокалисткой Floor Jansen (ex - After Forever, действующая вокалистка ReVamp и Nightwish).

Состав:

Флор Янсен — вокал
Туомас Холопайнен — клавишные
Марко Хиетала — бас-гитара, вокал
Эмппу Вуоринен — гитара
Юкка Невалайнен — ударные
Трой Донокли — волынка, флейта

Треклист:

01. Dark Chest of Wonders
02. Wish I Had an Angel
03. She Is My Sin
04. Ghost River
05. Ever Dream
06. Storytime
07. I Want My Tears Back
08. Nemo
09. Last of the Wilds
10. Bless the Child
11. Romanticide
12. Amaranth
13. Ghost Love Score
14. Song of Myself
15. Last Ride of the Day
16. Outro (Imaginaerum)
Файл
Кодек: HEVC x265
Качество: BDRip-HEVC 1080p
Видео: 1920x1080, 24.000 кадр/сек, 7926 Кбит/сек, (Main 10@L4.1@High), 8bit
Аудио: English, DTS 1509 Кбит/сек, 6 канала(ов),24bit 48,0 КГц
Навигация по главам: Есть

Mediainfo

General
Unique ID : 234153345231156721223271205289262273945 (0xB0284B3E12C0C73880F11A9A946B5599)
Complete name : S:MUSICALNightwish - Showtime, Storytime (2013) BDRip 1080p [HEVC].mkv
Format : Matroska
Format version : Version 4 / Version 2
File size : 6.47 GiB
Duration : 1 h 38 min
Overall bit rate : 9 437 kb/s
Encoded date : UTC 2017-10-14 14:09:11
Writing application : mkvmerge v13.0.0 ('The Juggler') 64bit
Writing library : libebml v1.3.4 + libmatroska v1.4.5
Cover : Yes
Attachments : cover.jpg
Video
ID : 1
Format : HEVC
Format/Info : High Efficiency Video Coding
Format profile : Main@L4.1@High
Codec ID : V_MPEGH/ISO/HEVC
Duration : 1 h 38 min
Bit rate : 7 926 kb/s
Width : 1 920 pixels
Height : 1 080 pixels
Display aspect ratio : 16:9
Frame rate mode : Constant
Frame rate : 24.000 FPS
Color space : YUV
Chroma subsampling : 4:2:0
Bit depth : 8 bits
Bits/(Pixel*Frame) : 0.159
Stream size : 5.43 GiB (84%)
Writing library : x265 2.5+17-f8ae7afc1f61:[Windows][GCC 7.1.0][64 bit] 8bit
Encoding settings : cpuid=1050111 / frame-threads=5 / numa-pools=4 / wpp / no-pmode / no-pme / no-psnr / no-ssim / log-level=3 / input-csp=1 / input-res=1920x1080 / interlace=0 / total-frames=0 / level-idc=41 / high-tier=1 / uhd-bd=0 / ref=4 / no-allow-non-conformance / no-repeat-headers / annexb / no-aud / no-hrd / info / hash=0 / no-temporal-layers / open-gop / min-keyint=23 / keyint=250 / bframes=8 / b-adapt=2 / b-pyramid / bframe-bias=0 / rc-lookahead=40 / lookahead-slices=6 / scenecut=40 / no-intra-refresh / ctu=64 / min-cu-size=8 / no-rect / no-amp / max-tu-size=32 / tu-inter-depth=2 / tu-intra-depth=2 / limit-tu=0 / rdoq-level=0 / dynamic-rd=0.00 / no-ssim-rd / signhide / no-tskip / nr-intra=0 / nr-inter=0 / no-constrained-intra / strong-intra-smoothing / max-merge=3 / limit-refs=3 / no-limit-modes / me=3 / subme=7 / merange=32 / temporal-mvp / weightp / weightb / no-analyze-src-pics / deblock=-3:-3 / no-sao / no-sao-non-deblock / rd=3 / no-early-skip / rskip / no-fast-intra / no-tskip-fast / no-cu-lossless / no-b-intra / no-splitrd-skip / rdpenalty=0 / psy-rd=1.00 / psy-rdoq=0.00 / no-rd-refine / analysis-reuse-mode=0 / no-lossless / cbqpoffs=0 / crqpoffs=0 / rc=crf / crf=20.5 / qcomp=0.60 / qpstep=4 / stats-write=0 / stats-read=0 / vbv-maxrate=50000 / vbv-bufsize=35714 / vbv-init=0.9 / crf-max=30.0 / crf-min=0.0 / ipratio=1.40 / pbratio=1.30 / aq-mode=1 / aq-strength=1.00 / cutree / zone-count=0 / no-strict-cbr / qg-size=32 / no-rc-grain / qpmax=69 / qpmin=0 / no-const-vbv / sar=1 / overscan=0 / videoformat=5 / range=0 / colorprim=1 / transfer=1 / colormatrix=1 / chromaloc=0 / display-window=0 / max-cll=0,0 / min-luma=0 / max-luma=255 / log2-max-poc-lsb=8 / vui-timing-info / vui-hrd-info / slices=1 / opt-qp-pps / opt-ref-list-length-pps / no-multi-pass-opt-rps / scenecut-bias=0.05 / no-opt-cu-delta-qp / no-aq-motion / no-hdr / no-hdr-opt / no-dhdr10-opt / analysis-reuse-level=5 / scale-factor=0 / refine-intra=0 / refine-inter=0 / refine-mv=0 / no-limit-sao / ctu-info=0
Language : English
Default : Yes
Forced : No
Color range : Limited
Color primaries : BT.709
Transfer characteristics : BT.709
Matrix coefficients : BT.709
Audio
ID : 2
Format : DTS
Format/Info : Digital Theater Systems
Codec ID : A_DTS
Duration : 1 h 38 min
Bit rate mode : Constant
Bit rate : 1 509 kb/s
Channel(s) : 6 channels
Channel positions : Front: L C R, Side: L R, LFE
Sampling rate : 48.0 kHz
Frame rate : 93.750 FPS (512 SPF)
Bit depth : 16 bits
Compression mode : Lossy
Delay relative to video : 11 ms
Stream size : 1.03 GiB (16%)
Language : English
Default : Yes
Forced : No
Menu
00:00:00.000 : :Intro
00:01:08.750 : :Dark Chest of Wonders
00:05:47.500 : :Wish I Had an Angel
00:10:38.125 : :She Is My Sin
00:15:51.667 : :Ghost River
00:22:12.292 : :Ever Dream
00:27:49.792 : :Storytime
00:33:54.375 : :I Want My Tears Back
00:40:48.958 : :Nemo
00:45:39.583 : :Last of the Wilds
00:52:33.125 : :Bless the Child
00:59:58.958 : :Romanticide
01:05:41.667 : :Amaranth
01:10:21.875 : :Ghost Love Score
01:21:19.167 : :Song of Myself
01:29:32.917 : :Last Ride of the Day
01:34:22.500 : :Outro (Imaginaerum)

Скриншоты

 

Current time is: 08-Jul 10:21

All times are UTC + 3