Search found 10 matches

Author Message

admin

Post 09-Nov-2019 01:10

[Quote]

Название: Vehicle of Spirits
Исполнитель: Nightwish
Год выпуска: 2015
Жанр: Symphonic Power Metal
Выпущено: США, Warner Music
Продолжительность: 2:06:23
Выступление финской группы Nightwish в Лондоне на Уэмбли-арене со своим альбомом "Vehicle of Spirits".
Файл
Качество: BDRip 720p
Видео: AVC; 1280х720p (16:9); 24 fps; ~7000 kbps
Звук-1: Eng; Flac; 2 ch; 48 KHz; ~1038 Kbps
Звук-2: Eng; DTS; 6 ch; 48 KHz; 1536 Kbps

Треклист

01. Shudder Before the Beautiful
02. Yours Is an Empty Hope
03. Ever Dream
04. Storytime
05. My Walden
06. While Your Lips Are Still Red
07. Elan
08. Weak Fantasy
09. 7 Days to the Wolves
10. Alpenglow
11. The Poet and the Pendulum
12. Nemo
13. I Want My Tears Back
14. Stargazers
15. Ghost Love Score
16. Last Ride of the Day
17. The Greatest Show on Earth

Медиаинфо

Общее
Уникальный идентификатор : 116210854944714656065170864331915833752 (0x576D6583A6B01D4113CD931C6504B198)
Полное имя : D:/Хранилище/Видео/Nightwish/Nightwish.Vehicle.of.Spirit.The.Wembley.2015.mkv
Формат : Matroska
Версия формата : Version 4
Размер файла : 8,45 Гбайт
Продолжительность : 2 ч. 6 м.
Режим общего битрейта : Переменный
Общий поток : 9576 Кбит/сек
Название фильма : Nightwish - Vehicle of Spirit
Дата кодирования : UTC 2019-11-06 22:33:39
Программа кодирования : mkvmerge v39.0.0 ('In The Waiting Line') 64-bit
Библиотека кодирования : libebml v1.3.9 + libmatroska v1.5.2
Обложка : Yes
Attachments : cover.png
Видео
Идентификатор : 1
Формат : AVC
Формат/Информация : Advanced Video Codec
Профиль формата : High@L4
Настройки формата : CABAC / 9 Ref Frames
Параметр CABAC формата : Да
Параметр RefFrames формата : 9 кадров
Идентификатор кодека : V_MPEG4/ISO/AVC
Продолжительность : 2 ч. 6 м.
Битрейт : 7000 Кбит/сек
Ширина : 1280 пикселей
Высота : 720 пикселей
Соотношение сторон : 16:9
Режим частоты кадров : Постоянный
Частота кадров : 24,000 кадра/сек
Цветовое пространство : YUV
Субдискретизация насыщенности : 4:2:0
Битовая глубина : 8 бит
Тип развёртки : Прогрессивная
Бит/(Пиксели*Кадры) : 0.316
Размер потока : 6,18 Гбайт (73%)
Библиотека кодирования : x264 core 157 r2935 545de2f
Настройки программы : cabac=1 / ref=9 / deblock=1:-3:-3 / analyse=0x3:0x133 / me=tesa / subme=11 / psy=1 / psy_rd=1.00:0.00 / mixed_ref=1 / me_range=32 / chroma_me=1 / trellis=2 / 8x8dct=1 / cqm=0 / deadzone=21,11 / fast_pskip=0 / chroma_qp_offset=-2 / threads=22 / lookahead_threads=5 / sliced_threads=0 / nr=0 / decimate=1 / interlaced=0 / bluray_compat=0 / constrained_intra=0 / bframes=16 / b_pyramid=2 / b_adapt=2 / b_bias=0 / direct=3 / weightb=0 / open_gop=0 / weightp=2 / keyint=240 / keyint_min=24 / scenecut=40 / intra_refresh=0 / rc_lookahead=120 / rc=2pass / mbtree=1 / bitrate=7000 / ratetol=1.0 / qcomp=0.70 / qpmin=0 / qpmax=69 / qpstep=4 / cplxblur=20.0 / qblur=0.5 / vbv_maxrate=25000 / vbv_bufsize=31250 / nal_hrd=none / filler=0 / ip_ratio=1.40 / aq=1:0.80
Default : Да
Forced : Да
Аудио #1
Идентификатор : 2
Формат : FLAC
Формат/Информация : Free Lossless Audio Codec
Идентификатор кодека : A_FLAC
Продолжительность : 2 ч. 6 м.
Вид битрейта : Переменный
Битрейт : 1038 Кбит/сек
Каналы : 2 канала
ChannelLayout : L R
Частота : 48,0 КГц
Частота кадров : 10,417 кадров/сек (4608 SPF)
Битовая глубина : 16 бит
Метод сжатия : Без потерь
Размер потока : 938 Мбайт (11%)
Заголовок : Flac 2ch
Язык : English
Default : Да
Forced : Да
Аудио #2
Идентификатор : 3
Формат : DTS
Формат/Информация : Digital Theater Systems
Идентификатор кодека : A_DTS
Продолжительность : 2 ч. 6 м.
Вид битрейта : Постоянный
Битрейт : 1536 Кбит/сек
Каналы : 6 каналов
ChannelLayout : C L R Ls Rs LFE
Частота : 48,0 КГц
Частота кадров : 93,750 кадра/сек (512 SPF)
Битовая глубина : 16 бит
Метод сжатия : С потерями
Размер потока : 1,36 Гбайт (16%)
Заголовок : DTS 6ch
Язык : English
Default : Нет
Forced : Нет
Меню
00:00:00.000 : :01. Shudder Before the Beautiful
00:06:59.000 : :02. Yours Is an Empty Hope
00:12:40.375 : :03. Ever Dream
00:18:10.708 : :04. Storytime
00:24:11.958 : :05. My Walden
00:28:26.958 : :06. While Your Lips Are Still Red
00:33:56.542 : :07. Elan
00:38:28.542 : :08. Weak Fantasy
00:44:43.958 : :09. 7 Days to the Wolves
00:52:00.000 : :10. Alpenglow
00:56:57.208 : :11. The Poet and the Pendulum
01:10:57.792 : :12. Nemo
01:15:45.750 : :13. I Want My Tears Back
01:23:20.875 : :14. Stargazers
01:28:00.583 : :15. Ghost Love Score
01:38:55.125 : :16. Last Ride of the Day
01:43:38.875 : :17. The Greatest Show on Earth
02:00:39.542 : :18. End

Скриншоты

admin

Post 09-Nov-2019 01:00

[Quote]

Название: Vehicle of Spirit (Live)
Исполнитель: Nightwish
Год: 2016
Жанр: Symphonic Gothic Power Metal
Страна: Финляндия
Студия: США, Warner Music
Продолжительность: 02:06:23, 01:51:15, 01:03:18
Файл
Кодек: H.264
Качество: BDRip 720p
Видео: AVC, 1280x720 (16:9), 24 fps ~ 7550 Kbps
Звук: DTS, 48 KHz 6 ch ~ 755 Kb/s
Субтитры: отсутствуют
Официальный сайт

Трек-лист

Nightwish - Vehicle of Spirit. The Wembley Show:
01. Shudder Before The Beautiful
02. Yours Is An Empty Hope
03. Ever Dream
04. Storytime
05. My Walden
06. While your Lips Are Still Red
07. Elan
08. Weak Fantasy
09. 7 Days To The Wolves
10. Alpenglow
11. The Poet And The Pendulum
12. Nemo
13. I Want My Tears Back
14. Stargazers
15. Ghost Love Score
16. Last Ride Of The Day
17. The Greatest Show On Earth
Nightwish - Vehicle of Spirit. The Tampere Show:
01. Shudder Before the Beautiful
02. Yours is an Empty Hope
03. Amaranth
04. She is My Sin
05. Dark Chest of Wonders
06. My Walden
07. The Islander
08. Elan
09. Weak Fantasy
10. Storytime
11. Endless Forms Most Beautiful
12. Alpenglow
13. Stargazers
14. Sleeping Sun
15. Ghost Love Score
16. Last Ride of the Day
17. The Greatest Show on Earth
Nightwish - Vehicle of Spirit (Bonus):
01. Weak Fantasy Vancouver (Orpheum)
02. Nemo Buenos Aires (Luna Park Stadium)
03. The Poet and the Pendulum Mexico City (Teatro Metropolitan)
04. Yours Is an Empty Hope Joensuu (Laulurinne Autodrome)
05. 7 Days to the Wolves Espoo (Barona Areena)
06. Sleeping Sun Vizovice (Masters of Rock Festival)
07. Sahara Tampa (Ritz Club)
08. Edema Ruh Turku (Baltic Princess Cruise)
09. Last Ride of the Day (feat. Tony Kakko) Rio de Janeiro (Rock in Rio)
10. Elan Sydney (Enmore Theatre)
Дополнительная информация: 16 декабря состоялся релиз финских металистов Nightwish, получивший название "Vehicle of Spirit". Эпохальным стало и место проведения съемки - концерт состоялся на знаменитой Уэмбли Арене в Лондоне. Как сообщалось на официальном канале группы, билеты на концерт были полностью проданы через некоторое время после начала старта продаж. Nightwish стали первой финской хэдлайн-группой, выступившей на Уэмбли Арене перед 12 тысячами восторженных зрителей. Особым подарком поклонникам стал "разогрев" - перед хэдлайнерами с шоу выступили финская группы Amorphis и шведские дэт-металисты Arch Enemy. А в конце выступления на сцене к музыкантам присоединился известный ученый, писатель и популяризатор науки - Ричард Доккинз! Но и на этом сюрпризы для фанатов не закончились: музыканты приняли решение выпустить на физическом носителе и концерт в Тампере, записанный летом 2015 года. Режиссером стал скандально известный фотограф Вилле Липиаинен, а сведение и мастеринг в который раз доверили Мике Юссиле, бессменному звукорежиссеру группы.
Состав:
Floor Jansen: Vocals
Marco Hietala: Bass, acoustic guitars & vocals
Emppu Vuorinen: Guitars
Kai Hahto: Drums
Tuomas Holopainen: Keys
Troy Donockley: Uilleann pipes, low whistles, guitars, bouzouki & vocals

Скриншоты:

admin

Post 01-Sep-2019 17:11

[Quote]

«Metallica: WorldWired Tour - 21 июля, 2019 • Москва, Россия • Стадион Лужники»- Информация
Название: Metallica - Live in Moscow
Место съемки: Стадион Лужники, Москва
Исполнитель: Metallica
Год: 2019
Страна: Россия
Жанр: Thrash Metal
Продолжительность: 02:27:28
Описание:
Официальное видео выступления группы «Metallica» на стадионе Лужники в Москве 21 июля 2019 года, в рамках тура WorldWiredTour в поддержку десятого студийного альбома «Hardwired...To Self-Destruct»
Треклист:
01. Hardwired
02. The Memory Remains
03. The Four Horsemen
04. Harvester of Sorrow
05. The Unforgiven
06 .Now That We're Dead
07. Moth Into Flame
08. Sad But True
09. Halo On Fire
10. Rob & Kirk's Doodle (Группа Крови + Bass Solo)
11. Frantic
12. One
13. Master Of Puppets
14. For Whom The Bell Tolls
15. Creeping Death
16. Seek and Destroy
17. Spit Out The Bone
18. Nothing Else Matters
19. Enter Sandman
Файл
Качество: WEBRip 1080p
Формат: MKV
Видео кодек: H264
Аудио кодек: AAC
Видео: 1920x1080 (16:9), 29.970 fps, ~4 200 Kbps Kbps, 0.068 bit/pixel
Аудио: 48 kHz, Advanced Audio Codec, 2 ch, ~320.00 kbps | Original

Источник: NUGS--

MediaInfo

General
Unique ID : 185462666336163592471633836268476959907 (0x8B86CF6D9C4195D5B4BDD21AAA500CA3)
Complete name : METALLICA.Live.in.Moscow.Russia.21.07.2019.WEBRip.1080p.mkv
Format : Matroska
Format version : Version 2
File size : 4.66 GiB
Duration : 2h 27mn
Overall bit rate : 4 520 Kbps
Movie name : Metallica - Luzhniki Stadium, Moscow, Russia - 21 July 2019
Encoded date : UTC 2019-08-31 10:14:15
Writing application : mkvmerge v5.2.1 ('A Far Off Place') built on Jan 2 2012 23:21:10
Writing library : libebml v1.2.3 + libmatroska v1.3.0 / Lavf58.31.104
Cover : Yes
Attachments : cover.jpg
Video
ID : 1
Format : AVC
Format/Info : Advanced Video Codec
Format profile : Main@L4
Format settings, CABAC : Yes
Format settings, ReFrames : 3 frames
Codec ID : V_MPEG4/ISO/AVC
Duration : 2h 27mn
Bit rate mode : Constant
Nominal bit rate : 4 200 Kbps
Width : 1 920 pixels
Height : 1 080 pixels
Display aspect ratio : 16:9
Frame rate mode : Constant
Frame rate : 29.970 (30000/1001) fps
Color space : YUV
Chroma subsampling : 4:2:0
Bit depth : 8 bits
Scan type : Progressive
Bits/(Pixel*Frame) : 0.068
Title : NUGS.NET
Language : English
Default : Yes
Forced : No
Color range : Limited
Color primaries : BT.709
Transfer characteristics : BT.709
Matrix coefficients : BT.709
DURATION : 02:27:28.039000000
Audio
ID : 2
Format : AAC
Format/Info : Advanced Audio Codec
Format profile : LC
Codec ID : A_AAC
Duration : 2h 27mn
Channel(s) : 2 channels
Channel positions : Front: L R
Sampling rate : 48.0 KHz
Frame rate : 46.875 fps (1024 spf)
Compression mode : Lossy
Delay relative to video : -33ms
Title : Original
Language : English
Default : Yes
Forced : No
DURATION : 02:27:28.021000000
Menu
00:00:00.000 : :Hardwired (3:53)
00:03:53.000 : :The Memory Remains (5:32)
00:09:25.000 : :The Four Horsemen (5:50)
00:15:15.000 : :Harvester Of Sorrow (6:16)
00:21:31.000 : :The Unforgiven (7:36)
00:29:07.000 : :Now That Were Dead (7:52)
00:36:59.000 : :Moth Into Flame (6:54)
00:43:53.000 : :Sad But True (7:52)
00:51:45.000 : :Halo On Fire (9:47)
01:01:32.000 : :Kirk And Rob Doodle (8:32)
01:10:04.000 : :Frantic (5:55)
01:15:59.000 : :One (8:48)
01:24:47.000 : :Master Of Puppets (10:03)
01:34:50.000 : :For Whom The Bell Tolls (5:30)
01:40:20.000 : :Creeping Death (6:19)
01:46:39.000 : :Seek and Destroy (11:55)
01:58:34.000 : :Spit Out The Bone (6:56)
02:05:30.000 : :Nothing Else Matters (7:18)
02:12:48.000 : :Enter Sandman (14:43)
-

admin

Post 09-Jul-2019 01:52

[Quote]

Информация о фильме
Название: "Железная тётька: номерок блатной 666"
Оригинальное название: Iron Maden: Flight 666
Год выхода: 2009
Жанр: документальный, музыкальный
Режиссер: Сэм Данн, Скот МакФадьен
В ролях: группа "Iron Maiden", Винни Эппис, Пэт Кэш, Брюс Дикинсон, Ронни Джеймс Дио, Яник Герц, Деррик Грин, Стив Харрис, Адриан Смит, Нико МакБрейн, Род Смоллвуд.
О фильме:
«Iron Maiden: Flight 666» — это полнометражный документальный фильм о первом этапе мирового турне ‘Somewhere Back In Time World Tour’, ставшего самым смелым и неожиданным проектом в истории рок-музыки.
Страна: Великобритания, Канада
Продолжительность: 01:52:20
Перевод: Любительский, альтернативный от студии "БункероК"
Файл
Кодек: MPEG-4
Качество: BDRip 1080
Видео: AVC, 5000 Кбит/сек, 1920х1080(16:9), 23,952 fps
Звук: AAC LC/320 kbps/2/0 (L,R) ch/44,1 kHz

Скриншоты

admin

Post 05-Dec-2018 04:41

[Quote]

Оригинальное название: Lacuna Coil - The 119 Show: Live In London
Год выпуска: 2018
Жанр: Gothic Metal
Выпущено: Англия, Италия, Century Media Int'L
Исполнитель: Lacuna Coil
Продолжительность: 02:16:15
Перевод: Не требуется
О концерте:
В 2018 году отмечает 20-летие дебюта итальянской Gothic Metal группы Lacuna Coil. Чтобы отпраздновать этот особый год, они сыграли исключительное шоу 19 января в Лондоне на O2 Forum Kentish Town. Уникальная феерия, включающая в себя визуальные эффекты, артистов цирка и улучшенное сценическое производство, было профессионально снято и записано для The 119 Show - Live In London, релиз которого вышел 9 ноября. Nothing Stands In Our Way описывается как «полная 20-летняя история о итальянских гот-отцах, рассказанная группой. Иллюстрированная повсюду с редкими и откровенными фотографиями, памятными вещами и персональными артефактами, она увидит основателей группы, просеивающие рождение, рост и полное расцвет группы, чтобы рассказать о 20-летнии Lacuna Coil.»
Кодек: H.264
Качество: BDRip 1080p
Видео: MPEG-4 AVC, 11192 Кбит/с, 1920x1080, 24.000 кадр/с
Звук: Английский (DTS, 2 ch, 1510 Кбит/с), (AC3, 2 ch, 224 Кбит/с)
Релиз группа NovaLan
Автор релиза Sergei7721

Треклист

01. Intro
02. A Current Obsession
03. 1.19
04. My Wings
05. End Of Time
06. Blood, Tears, Dust
07. Swamped
08. The Army Inside
09. Veins Of Glass
10. One Cold Day
11. The House Of Shame
12. When A Dead Man Walks
13. Tight Rope
14. Soul Into Hades
15. Hyperfast
16. I Like It
17. Heaven's A Lie
18. Senzafine
19. Closer
20. Comalies
21. Our Truth
22. Intermezzo
23. Falling
24. Wide Awake
25. I Forgive (But I Won't Forget Your Name)
26. Enjoy The Silence
27. Nothing Stands In Our Way
28. Final Credits

MediaInfo

Полное имя : D:Lacuna.Coil.The.119.Show.2018.x264.BDRip.1080p.NovaLan.mkv
Формат : Matroska
Версия формата : Version 4 / Version 2
Размер файла : 12,3 Гбайт
Продолжительность : 2 ч. 16 м.
Общий поток : 12,9 Мбит/сек
Название фильма : Lacuna Coil - The 119 Show 2018 - NovaLan
Дата кодирования : UTC 2018-12-01 09:39:16
Программа кодирования : mkvmerge v6.9.1 ('Blue Panther') 64bit built on Apr 18 2014 18:23:38
Библиотека кодирования : libebml v1.3.0 + libmatroska v1.4.1
Видео
Идентификатор : 1
Формат : AVC
Формат/Информация : Advanced Video Codec
Профиль формата : High@L4.1
Параметр CABAC формата : Да
Параметр ReFrames формата : 4 кадра
Идентификатор кодека : V_MPEG4/ISO/AVC
Продолжительность : 2 ч. 16 м.
Битрейт : 11,2 Мбит/сек
Ширина : 1920 пикселей
Высота : 1080 пикселей
Соотношение сторон : 16:9
Частота кадров : 24,000 кадра/сек
Цветовое пространство : YUV
Субдискретизация насыщенности : 4:2:0
Битовая глубина : 8 бит
Тип развёртки : Прогрессивная
Бит/(Пиксели*Кадры) : 0.225
Размер потока : 10,4 Гбайт (85%)
Заголовок : Sergei7721
Библиотека кодирования : x264 core 157 r2935 545de2f
Настройки программы : cabac=1 / ref=4 / deblock=1:-1:-1 / analyse=0x3:0x113 / me=umh / subme=11 / psy=1 / psy_rd=1.00:0.20 / mixed_ref=1 / me_range=24 / chroma_me=1 / trellis=2 / 8x8dct=1 / cqm=0 / deadzone=21,11 / fast_pskip=0 / chroma_qp_offset=-3 / threads=18 / lookahead_threads=2 / sliced_threads=0 / nr=0 / decimate=0 / interlaced=0 / bluray_compat=0 / constrained_intra=0 / bframes=6 / b_pyramid=2 / b_adapt=2 / b_bias=0 / direct=3 / weightb=1 / open_gop=0 / weightp=2 / keyint=240 / keyint_min=24 / scenecut=40 / intra_refresh=0 / rc_lookahead=40 / rc=2pass / mbtree=0 / bitrate=11192 / ratetol=1.0 / qcomp=0.60 / qpmin=0 / qpmax=69 / qpstep=4 / cplxblur=20.0 / qblur=0.5 / vbv_maxrate=50000 / vbv_bufsize=62500 / nal_hrd=none / filler=0 / ip_ratio=1.40 / pb_ratio=1.30 / aq=1:1.00
Default : Да
Forced : Нет
Аудио #1
Идентификатор : 2
Формат : DTS
Формат/Информация : Digital Theater Systems
Идентификатор кодека : A_DTS
Продолжительность : 2 ч. 16 м.
Вид битрейта : Постоянный
Битрейт : 1510 Кбит/сек
Каналы : 2 канала
Расположение каналов : Front: L R
Частота : 48,0 КГц
Битовая глубина : 16 бит
Метод сжатия : С потерями
Размер потока : 1,44 Гбайт (12%)
Язык : English
Default : Да
Forced : Нет
Аудио #2
Идентификатор : 3
Формат : AC-3
Формат/Информация : Audio Coding 3
Расширение режима : CM (complete main)
Параметр Endianness формата : Big
Идентификатор кодека : A_AC3
Продолжительность : 2 ч. 16 м.
Вид битрейта : Постоянный
Битрейт : 224 Кбит/сек
Каналы : 2 канала
Расположение каналов : Front: L R
Частота : 48,0 КГц
Битовая глубина : 16 бит
Метод сжатия : С потерями
Размер потока : 218 Мбайт (2%)
Язык : English
Default : Нет
Forced : Нет
Меню
00:00:00.000 : en:00:00:00.000
00:01:34.375 : en:00:01:34.375
00:06:24.208 : en:00:06:24.208
00:11:09.583 : en:00:11:09.583
00:15:26.458 : en:00:15:26.458
00:19:40.958 : en:00:19:40.958
00:23:57.958 : en:00:23:57.958
00:30:04.000 : en:00:30:04.000
00:33:33.291 : en:00:33:33.291
00:39:45.833 : en:00:39:45.833
00:46:04.375 : en:00:46:04.375
00:51:29.500 : en:00:51:29.500
00:58:00.458 : en:00:58:00.458
01:02:36.625 : en:01:02:36.625
01:08:07.875 : en:01:08:07.875
01:13:04.291 : en:01:13:04.291
01:17:08.000 : en:01:17:08.000
01:22:06.125 : en:01:22:06.125
01:26:09.958 : en:01:26:09.958
01:30:12.000 : en:01:30:12.000
01:35:09.791 : en:01:35:09.791
01:39:38.125 : en:01:39:38.125
01:42:32.958 : en:01:42:32.958
01:49:49.458 : en:01:49:49.458
01:53:57.375 : en:01:53:57.375
02:01:26.791 : en:02:01:26.791
02:07:24.000 : en:02:07:24.000
02:14:09.833 : en:02:14:09.833
02:16:15.750 : en:02:16:15.750

Скриншоты

admin

Post 05-Dec-2018 04:38

[Quote]

Оригинальное название: Lacuna Coil - The 119 Show (Live In London)
Год выпуска: 2018
Жанр: Gothic Metal
Выпущено: Англия, Италия, Century Media Int'L
Исполнитель: Lacuna Coil
Продолжительность: 02:16:15
Перевод: Не требуется
О концерте:
В 2018 году отмечает 20-летие дебюта итальянской Gothic Metal группы Lacuna Coil. Чтобы отпраздновать этот особый год, они сыграли исключительное шоу 19 января в Лондоне на O2 Forum Kentish Town. Уникальная феерия, включающая в себя визуальные эффекты, артистов цирка и улучшенное сценическое производство, было профессионально снято и записано для The 119 Show - Live In London, релиз которого вышел 9 ноября. Nothing Stands In Our Way описывается как «полная 20-летняя история о итальянских гот-отцах, рассказанная группой. Иллюстрированная повсюду с редкими и откровенными фотографиями, памятными вещами и персональными артефактами, она увидит основателей группы, просеивающие рождение, рост и полное расцвет группы, чтобы рассказать о 20-летнии Lacuna Coil.»
Кодек: H.264
Качество: Blu-Ray Remux 1080p
Видео: MPEG-4 AVC, 18533 Кбит/с, 1920x1080, 24.000 кадр/с
Звук: Английский (LPCM, 2 ch, 1536 Кбит/с), (AC3, 2 ch, 224 Кбит/с)
Релиз группа NovaLan
Автор релиза Sergei7721

MediaInfo

DISC INFO:
Disc Title: Lacuna.Coil.The.119.Show.2018.BDRemux.1080p.NovaLan
Disc Size: 21 949 660 968 bytes
Protection: AACS
BD-Java: No
BDInfo: 0.5.8
PLAYLIST REPORT:
Name: 00000.MPLS
Length: 2:16:15.776 (h:m:s.ms)
Size: 21 949 470 720 bytes
Total Bitrate: 21,48 Mbps
VIDEO:
Codec Bitrate Deion
----- ------- -----------
MPEG-4 AVC Video 18533 kbps 1080p / 24 fps / 16:9 / High Profile 4.1
AUDIO:
Codec Language Bitrate Deion
----- -------- ------- -----------
LPCM Audio English 1536 kbps 2.0 / 48 kHz / 1536 kbps / 16-bit
Dolby Digital Audio English 224 kbps 2.0 / 48 kHz / 224 kbps / DN -4dB
FILES:
Name Time In Length Size Total Bitrate
---- ------- ------ ---- -------------
00000.M2TS 0:00:00.000 2:16:15.776 21 949 470 720 21 478
CHAPTERS:
Number Time In Length Avg Video Rate Max 1-Sec Rate Max 1-Sec Time Max 5-Sec Rate Max 5-Sec Time Max 10Sec Rate Max 10Sec Time Avg Frame Size Max Frame Size Max Frame Time
------ ------- ------ -------------- -------------- -------------- -------------- -------------- -------------- -------------- -------------- -------------- --------------
1 0:00:00.000 0:01:34.375 21 675 kbps 60 493 kbps 00:00:52.041 39 421 kbps 00:00:00.291 36 111 kbps 00:00:00.291 112 842 bytes 585 070 bytes 00:00:53.083
2 0:01:34.375 0:04:49.832 15 674 kbps 49 630 kbps 00:02:23.458 25 405 kbps 00:04:32.250 22 366 kbps 00:03:14.499 81 637 bytes 588 765 bytes 00:02:23.500
3 0:06:24.207 0:04:45.375 21 940 kbps 57 628 kbps 00:06:35.083 36 625 kbps 00:06:35.083 31 445 kbps 00:09:51.874 114 269 bytes 581 556 bytes 00:08:08.458
4 0:11:09.583 0:04:16.875 17 516 kbps 60 330 kbps 00:14:53.083 30 409 kbps 00:12:23.958 27 365 kbps 00:14:51.541 91 229 bytes 739 990 bytes 00:14:53.499
5 0:15:26.458 0:04:14.500 15 279 kbps 44 196 kbps 00:18:15.041 31 653 kbps 00:15:52.416 25 169 kbps 00:15:47.874 79 580 bytes 503 003 bytes 00:17:00.874
6 0:19:40.958 0:04:17.000 19 679 kbps 59 572 kbps 00:23:51.124 33 339 kbps 00:21:28.124 29 465 kbps 00:21:24.291 102 492 bytes 550 108 bytes 00:21:08.999
7 0:23:57.958 0:06:06.041 18 916 kbps 54 007 kbps 00:26:25.499 39 361 kbps 00:25:31.958 32 202 kbps 00:25:31.958 98 511 bytes 563 787 bytes 00:26:25.583
8 0:30:04.000 0:03:29.291 18 974 kbps 62 352 kbps 00:33:16.041 36 217 kbps 00:32:16.291 28 501 kbps 00:32:11.291 98 841 bytes 626 551 bytes 00:31:25.249
9 0:33:33.291 0:06:12.541 19 511 kbps 61 915 kbps 00:36:02.583 37 948 kbps 00:33:54.499 31 643 kbps 00:33:51.499 101 618 bytes 652 221 bytes 00:38:01.208
10 0:39:45.833 0:06:18.541 14 416 kbps 56 489 kbps 00:42:52.874 33 044 kbps 00:45:45.916 28 932 kbps 00:45:40.874 75 077 bytes 703 078 bytes 00:42:53.416
11 0:46:04.375 0:05:25.125 19 177 kbps 61 304 kbps 00:46:42.499 34 311 kbps 00:50:41.583 31 253 kbps 00:50:20.374 99 882 bytes 607 852 bytes 00:47:37.791
12 0:51:29.500 0:06:30.958 18 015 kbps 43 964 kbps 00:53:31.124 30 569 kbps 00:53:46.999 27 716 kbps 00:56:26.541 93 837 bytes 532 151 bytes 00:55:18.333
13 0:58:00.458 0:04:36.166 20 802 kbps 62 385 kbps 00:59:05.916 35 317 kbps 01:02:01.333 29 286 kbps 01:00:19.624 108 328 bytes 570 683 bytes 01:00:05.541
14 1:02:36.625 0:05:31.250 20 823 kbps 61 501 kbps 01:04:05.249 36 018 kbps 01:07:13.208 33 055 kbps 01:07:11.208 108 454 bytes 721 503 bytes 01:04:05.791
15 1:08:07.875 0:04:56.416 20 784 kbps 61 462 kbps 01:08:21.333 35 324 kbps 01:12:49.666 29 160 kbps 01:12:49.666 108 265 bytes 665 808 bytes 01:11:32.833
16 1:13:04.291 0:04:03.708 23 344 kbps 59 461 kbps 01:13:30.333 36 497 kbps 01:13:30.333 32 105 kbps 01:13:30.333 121 564 bytes 563 243 bytes 01:13:30.874
17 1:17:08.000 0:04:58.125 18 077 kbps 61 084 kbps 01:17:52.624 38 384 kbps 01:17:18.749 31 233 kbps 01:17:15.916 94 152 bytes 615 461 bytes 01:19:50.916
18 1:22:06.125 0:04:03.832 15 405 kbps 41 407 kbps 01:24:38.708 31 854 kbps 01:24:34.624 28 122 kbps 01:24:34.124 80 245 bytes 529 020 bytes 01:25:24.791
19 1:26:09.957 0:04:02.042 16 105 kbps 53 514 kbps 01:28:13.041 33 270 kbps 01:28:46.916 27 205 kbps 01:28:41.749 83 868 bytes 621 767 bytes 01:28:13.458
20 1:30:12.000 0:04:57.791 14 699 kbps 49 932 kbps 01:33:09.374 32 384 kbps 01:33:08.708 23 884 kbps 01:33:07.624 76 568 bytes 592 953 bytes 01:33:09.416
21 1:35:09.791 0:04:28.333 22 008 kbps 61 903 kbps 01:37:01.916 34 332 kbps 01:38:28.791 32 278 kbps 01:39:15.624 114 607 bytes 659 640 bytes 01:36:48.374
22 1:39:38.125 0:02:54.832 19 160 kbps 45 349 kbps 01:40:01.791 32 386 kbps 01:40:00.208 30 492 kbps 01:39:52.999 99 813 bytes 498 911 bytes 01:40:02.833
23 1:42:32.958 0:07:16.500 18 544 kbps 38 182 kbps 01:48:36.249 34 438 kbps 01:48:34.416 32 722 kbps 01:48:29.374 96 585 bytes 461 465 bytes 01:43:28.083
24 1:49:49.458 0:04:07.917 18 629 kbps 35 640 kbps 01:50:53.249 30 487 kbps 01:50:52.249 25 256 kbps 01:51:03.874 97 012 bytes 492 861 bytes 01:49:49.583
25 1:53:57.375 0:07:29.416 18 500 kbps 55 635 kbps 01:58:29.874 38 342 kbps 02:00:26.583 34 126 kbps 02:00:25.958 96 362 bytes 635 688 bytes 02:00:05.499
26 2:01:26.791 0:05:57.208 16 079 kbps 54 579 kbps 02:04:30.208 34 991 kbps 02:05:37.833 30 544 kbps 02:05:38.083 83 736 bytes 563 586 bytes 02:01:45.291
27 2:07:24.000 0:06:45.833 22 805 kbps 62 110 kbps 02:08:32.583 39 576 kbps 02:12:21.166 34 667 kbps 02:12:20.333 118 789 bytes 602 722 bytes 02:08:16.749
28 2:14:09.833 0:02:05.942 8 991 kbps 13 530 kbps 02:15:51.791 12 300 kbps 02:15:50.291 11 927 kbps 02:15:50.791 46 853 bytes 141 846 bytes 02:15:52.333

Скриншоты

admin

Post 05-Dec-2018 04:23

[Quote]

Accept - Symphonic Terror: Live at Wacken
Год выхода: 2018
Жанр: Rock, Heavy Metal
О фильме:
Немецкие металлисты "Accept" выпустили свой новый концертный альбом. Пластинка получила название "Symphonic Terror. Live At Wacken 2017" и появилась 23 ноября 2018 года на лейбле Nuclear Blast. Запись прошла 3 августа 2017 года на легендарном фестивале Wacken Open Air, где группа отыграла самое большое и экстраординарное шоу в своей карьере перед 80 000 человек, а также тысячами других фэнов, которые смотрели его в прямом эфире.
Производство: Германия, Nuclear Blast
Продолжительность: 02:02:57
Качество: Blu-ray 1080p
Видео: MPEG-4 AVC Video / 16862 kbps / 1080p / 24 fps / 16:9 / High Profile 4.1
Аудио #1: LPCM Audio / 2.0 / 48 kHz / 1536 kbps / 16-bit
Аудио #2: LPCM Audio / 5.1 / 48 kHz / 4608 kbps / 16-bit

Треклист:

Part 1 - Accept
1. Die by the Sword
2. Restless and Wild
3. Koolaid
4. Pandemic
5. Final Journey
Part 2 - Heartbangers Symphony
6. Night on Bald Mountain
7. Scherzo
8. Romeo and Juliet
9. Pathétique
10. Double Cello Concerto in G Minor
11. Symphony NO. 40 in G Minor
Part 3 - Accept with Orchestra
12. Princess of the Dawn
13. Stalingrad
14. Dark Side of My Heart
15. Breaker
16. Shadow Soldiers
17. Dying Breed
18. Fast as a Shark
19. Metal Heart
20. Teutonic Terror
21. Balls to the Wall

Mediainfo:

General
Complete name : D:mp3Accept - Symphonic Terror (Live at Wacken 2017) Blu-Ray 1080pBDMVPLAYLIST1003.mpls
Format : Blu-ray Playlist
File size : 646 Bytes
Duration : 2 h 2 min
Overall bit rate mode : Variable
Overall bit rate : 1 b/s
Video #1
ID : 4113 (0x1011)
Menu ID : 1 (0x1)
Format : AVC
Format/Info : Advanced Video Codec
Format profile : High@L4.1
Format settings, CABAC : Yes
Format settings, ReFrames : 3 frames
Codec ID : 27
Duration : 2 h 1 min
Bit rate mode : Variable
Bit rate : 17.5 Mb/s
Maximum bit rate : 33.0 Mb/s
Width : 1 920 pixels
Height : 1 080 pixels
Display aspect ratio : 16:9
Frame rate : 24.000 FPS
Standard : NTSC
Color space : YUV
Chroma subsampling : 4:2:0
Bit depth : 8 bits
Scan type : Progressive
Bits/(Pixel*Frame) : 0.351
Stream size : 14.8 GiB
Color range : Limited
Color primaries : BT.709
Transfer characteristics : BT.709
Matrix coefficients : BT.709
format_identifier : HDMV
Source : 00003.m2ts
Video #2
ID : 4113 (0x1011)
Menu ID : 1 (0x1)
Format : AVC
Format/Info : Advanced Video Codec
Format profile : High@L4.1
Format settings, CABAC : Yes
Format settings, ReFrames : 3 frames
Format settings, GOP : M=3, N=12
Codec ID : 27
Duration : 1 min 44 s
Bit rate mode : Variable
Bit rate : 7 613 kb/s
Maximum bit rate : 33.0 Mb/s
Width : 1 920 pixels
Height : 1 080 pixels
Display aspect ratio : 16:9
Frame rate : 24.000 FPS
Standard : NTSC
Color space : YUV
Chroma subsampling : 4:2:0
Bit depth : 8 bits
Scan type : Progressive
Bits/(Pixel*Frame) : 0.153
Stream size : 94.6 MiB
Color range : Limited
Color primaries : BT.709
Transfer characteristics : BT.709
Matrix coefficients : BT.709
format_identifier : HDMV
Source : 00007.m2ts
Video #3
ID : 4113 (0x1011)
Menu ID : 1 (0x1)
Format : AVC
Format/Info : Advanced Video Codec
Format profile : High@L4.1
Format settings, CABAC : Yes
Format settings, ReFrames : 3 frames
Codec ID : 27
Duration : 417 ms
Bit rate mode : Variable
Maximum bit rate : 29.9 Mb/s
Width : 1 920 pixels
Height : 1 080 pixels
Display aspect ratio : 16:9
Frame rate : 24.000 FPS
Standard : NTSC
Color space : YUV
Chroma subsampling : 4:2:0
Bit depth : 8 bits
Scan type : Progressive
Color range : Limited
Color primaries : BT.709
Transfer characteristics : BT.709
Matrix coefficients : BT.709
format_identifier : HDMV
Source : 00006.m2ts
Audio #1
ID : 4352 (0x1100)
Menu ID : 1 (0x1)
Format : PCM
Format settings, Endianness : Big
Format settings, Sign : Signed
Muxing mode : Blu-ray
Codec ID : 128
Duration : 2 h 1 min
Bit rate mode : Constant
Bit rate : 1 536 kb/s
Channel(s) : 2 channels
Channel positions : Front: L R
Sampling rate : 48.0 kHz
Bit depth : 16 bits
Stream size : 1.30 GiB
format_identifier : HDMV
Source : 00003.m2ts
Audio #2
ID : 4353 (0x1101)
Menu ID : 1 (0x1)
Format : PCM
Format settings, Endianness : Big
Format settings, Sign : Signed
Muxing mode : Blu-ray
Codec ID : 128
Duration : 2 h 1 min
Bit rate mode : Constant
Bit rate : 4 608 kb/s
Channel(s) : 6 channels
Channel positions : Front: L C R, Side: L R, LFE
Sampling rate : 48.0 kHz
Bit depth : 16 bits
Stream size : 3.90 GiB
format_identifier : HDMV
Source : 00003.m2ts
Audio #3
ID : 4352 (0x1100)
Menu ID : 1 (0x1)
Format : PCM
Format settings, Endianness : Big
Format settings, Sign : Signed
Muxing mode : Blu-ray
Codec ID : 128
Duration : 1 min 43 s
Bit rate mode : Constant
Bit rate : 1 536 kb/s
Channel(s) : 2 channels
Channel positions : Front: L R
Sampling rate : 48.0 kHz
Bit depth : 16 bits
Stream size : 18.9 MiB
format_identifier : HDMV
Source : 00007.m2ts
Menu
00:00:00.000 : Chapter 1
00:05:28.000 : Chapter 2
00:10:11.416 : Chapter 3
00:15:17.000 : Chapter 4
00:21:19.500 : Chapter 5
00:26:53.208 : Chapter 6
00:32:56.000 : Chapter 7
00:38:28.000 : Chapter 8
00:44:13.000 : Chapter 9
00:50:06.000 : Chapter 10
00:53:43.000 : Chapter 11
00:58:25.000 : Chapter 12
01:05:58.000 : Chapter 13
01:12:19.000 : Chapter 14
01:17:03.000 : Chapter 15
01:21:45.000 : Chapter 16
01:27:43.000 : Chapter 17
01:34:01.000 : Chapter 18
01:38:29.000 : Chapter 19
01:46:05.000 : Chapter 20
01:51:48.000 : Chapter 21

Скриншоты:

admin

Post 21-Sep-2018 05:11

[Quote]

Название: (Черный кофе) - Выступление в ЦДХ
Исполнитель/Группа: Дмитрий Варшавский
Жанр: Heavy metal
Год выпуска: 2018
Продолжительность: 00:53:53
Формат: MKV
Качество: WEBRip 1080p
Видео кодек: H.264
Аудио кодек: AAC
Видео: H.264 1920x1080 (16:9) 25fps 3 000 Kbps
Аудио: AAC, 48000Hz, 2ch, 128 kbps

Треклист

1.Жди и надейся
2.Пылает за окном звезда
3.Листья
4.Леди осень

MedaInfo

Varshavsky_03.18.mkv
Format : Matroska
Format version : Version 4 / Version 2
File size : 385 MiB
Duration : 17 min 15 s
Overall bit rate : 3 121 kb/s
Encoded date : UTC 2018-09-20 22:19:44
Writing application : mkvmerge v8.3.0 ('Over the Horizon') 64bit
Writing library : libebml v1.3.1 + libmatroska v1.4.2
Video
ID : 1
Format : AVC
Format/Info : Advanced Video Codec
Format profile : High@L4
Format settings, CABAC : Yes
Format settings, ReFrames : 2 frames
Codec ID : V_MPEG4/ISO/AVC
Duration : 17 min 15 s
Bit rate : 2 994 kb/s
Width : 1 920 pixels
Height : 1 080 pixels
Display aspect ratio : 16:9
Frame rate mode : Constant
Frame rate : 25.000 FPS
Color space : YUV
Chroma subsampling : 4:2:0
Bit depth : 8 bits
Scan type : Progressive
Bits/(Pixel*Frame) : 0.058
Stream size : 369 MiB (96%)
Default : Yes
Forced : No
Color range : Limited
Color primaries : BT.709
Transfer characteristics : BT.709
Matrix coefficients : BT.709
Audio
ID : 2
Format : AAC
Format/Info : Advanced Audio Codec
Format profile : LC
Codec ID : A_AAC
Duration : 17 min 15 s
Bit rate : 126 kb/s
Channel(s) : 2 channels
Channel positions : Front: L R
Sampling rate : 44.1 kHz
Frame rate : 43.066 FPS (1024 spf)
Compression mode : Lossy
Stream size : 15.5 MiB (4%)
Default : Yes
Forced : No

Скриншоты

admin

Post 18-Aug-2018 08:01

[Quote]

Название: Nightwish - Showtime, Storytime
Год выхода: 2013
Жанр: Symphonic Power Metal
Продолжительность: 01:38:06
Страна: Финляндия
Студия: Nuclear Blast, Scene Nation
Описание:
Выступление знаменитой финской Symphonic Power Metal команды "Nightwish" на "Wacken Open Air 2013" с новой нидерландской вокалисткой Floor Jansen (ex - After Forever, действующая вокалистка ReVamp и Nightwish).

Состав:

Флор Янсен — вокал
Туомас Холопайнен — клавишные
Марко Хиетала — бас-гитара, вокал
Эмппу Вуоринен — гитара
Юкка Невалайнен — ударные
Трой Донокли — волынка, флейта

Треклист:

01. Dark Chest of Wonders
02. Wish I Had an Angel
03. She Is My Sin
04. Ghost River
05. Ever Dream
06. Storytime
07. I Want My Tears Back
08. Nemo
09. Last of the Wilds
10. Bless the Child
11. Romanticide
12. Amaranth
13. Ghost Love Score
14. Song of Myself
15. Last Ride of the Day
16. Outro (Imaginaerum)
Файл
Кодек: HEVC x265
Качество: BDRip-HEVC 1080p
Видео: 1920x1080, 24.000 кадр/сек, 7926 Кбит/сек, (Main 10@L4.1@High), 8bit
Аудио: English, DTS 1509 Кбит/сек, 6 канала(ов),24bit 48,0 КГц
Навигация по главам: Есть

Mediainfo

General
Unique ID : 234153345231156721223271205289262273945 (0xB0284B3E12C0C73880F11A9A946B5599)
Complete name : S:MUSICALNightwish - Showtime, Storytime (2013) BDRip 1080p [HEVC].mkv
Format : Matroska
Format version : Version 4 / Version 2
File size : 6.47 GiB
Duration : 1 h 38 min
Overall bit rate : 9 437 kb/s
Encoded date : UTC 2017-10-14 14:09:11
Writing application : mkvmerge v13.0.0 ('The Juggler') 64bit
Writing library : libebml v1.3.4 + libmatroska v1.4.5
Cover : Yes
Attachments : cover.jpg
Video
ID : 1
Format : HEVC
Format/Info : High Efficiency Video Coding
Format profile : Main@L4.1@High
Codec ID : V_MPEGH/ISO/HEVC
Duration : 1 h 38 min
Bit rate : 7 926 kb/s
Width : 1 920 pixels
Height : 1 080 pixels
Display aspect ratio : 16:9
Frame rate mode : Constant
Frame rate : 24.000 FPS
Color space : YUV
Chroma subsampling : 4:2:0
Bit depth : 8 bits
Bits/(Pixel*Frame) : 0.159
Stream size : 5.43 GiB (84%)
Writing library : x265 2.5+17-f8ae7afc1f61:[Windows][GCC 7.1.0][64 bit] 8bit
Encoding settings : cpuid=1050111 / frame-threads=5 / numa-pools=4 / wpp / no-pmode / no-pme / no-psnr / no-ssim / log-level=3 / input-csp=1 / input-res=1920x1080 / interlace=0 / total-frames=0 / level-idc=41 / high-tier=1 / uhd-bd=0 / ref=4 / no-allow-non-conformance / no-repeat-headers / annexb / no-aud / no-hrd / info / hash=0 / no-temporal-layers / open-gop / min-keyint=23 / keyint=250 / bframes=8 / b-adapt=2 / b-pyramid / bframe-bias=0 / rc-lookahead=40 / lookahead-slices=6 / scenecut=40 / no-intra-refresh / ctu=64 / min-cu-size=8 / no-rect / no-amp / max-tu-size=32 / tu-inter-depth=2 / tu-intra-depth=2 / limit-tu=0 / rdoq-level=0 / dynamic-rd=0.00 / no-ssim-rd / signhide / no-tskip / nr-intra=0 / nr-inter=0 / no-constrained-intra / strong-intra-smoothing / max-merge=3 / limit-refs=3 / no-limit-modes / me=3 / subme=7 / merange=32 / temporal-mvp / weightp / weightb / no-analyze-src-pics / deblock=-3:-3 / no-sao / no-sao-non-deblock / rd=3 / no-early-skip / rskip / no-fast-intra / no-tskip-fast / no-cu-lossless / no-b-intra / no-splitrd-skip / rdpenalty=0 / psy-rd=1.00 / psy-rdoq=0.00 / no-rd-refine / analysis-reuse-mode=0 / no-lossless / cbqpoffs=0 / crqpoffs=0 / rc=crf / crf=20.5 / qcomp=0.60 / qpstep=4 / stats-write=0 / stats-read=0 / vbv-maxrate=50000 / vbv-bufsize=35714 / vbv-init=0.9 / crf-max=30.0 / crf-min=0.0 / ipratio=1.40 / pbratio=1.30 / aq-mode=1 / aq-strength=1.00 / cutree / zone-count=0 / no-strict-cbr / qg-size=32 / no-rc-grain / qpmax=69 / qpmin=0 / no-const-vbv / sar=1 / overscan=0 / videoformat=5 / range=0 / colorprim=1 / transfer=1 / colormatrix=1 / chromaloc=0 / display-window=0 / max-cll=0,0 / min-luma=0 / max-luma=255 / log2-max-poc-lsb=8 / vui-timing-info / vui-hrd-info / slices=1 / opt-qp-pps / opt-ref-list-length-pps / no-multi-pass-opt-rps / scenecut-bias=0.05 / no-opt-cu-delta-qp / no-aq-motion / no-hdr / no-hdr-opt / no-dhdr10-opt / analysis-reuse-level=5 / scale-factor=0 / refine-intra=0 / refine-inter=0 / refine-mv=0 / no-limit-sao / ctu-info=0
Language : English
Default : Yes
Forced : No
Color range : Limited
Color primaries : BT.709
Transfer characteristics : BT.709
Matrix coefficients : BT.709
Audio
ID : 2
Format : DTS
Format/Info : Digital Theater Systems
Codec ID : A_DTS
Duration : 1 h 38 min
Bit rate mode : Constant
Bit rate : 1 509 kb/s
Channel(s) : 6 channels
Channel positions : Front: L C R, Side: L R, LFE
Sampling rate : 48.0 kHz
Frame rate : 93.750 FPS (512 SPF)
Bit depth : 16 bits
Compression mode : Lossy
Delay relative to video : 11 ms
Stream size : 1.03 GiB (16%)
Language : English
Default : Yes
Forced : No
Menu
00:00:00.000 : :Intro
00:01:08.750 : :Dark Chest of Wonders
00:05:47.500 : :Wish I Had an Angel
00:10:38.125 : :She Is My Sin
00:15:51.667 : :Ghost River
00:22:12.292 : :Ever Dream
00:27:49.792 : :Storytime
00:33:54.375 : :I Want My Tears Back
00:40:48.958 : :Nemo
00:45:39.583 : :Last of the Wilds
00:52:33.125 : :Bless the Child
00:59:58.958 : :Romanticide
01:05:41.667 : :Amaranth
01:10:21.875 : :Ghost Love Score
01:21:19.167 : :Song of Myself
01:29:32.917 : :Last Ride of the Day
01:34:22.500 : :Outro (Imaginaerum)

Скриншоты

admin

Post 16-Aug-2018 09:07

[Quote]

Название: Rammstein - Paris
Год выхода: 2017
Жанр: Индастриал метал
Продолжительность: 01:49:21
Страна:Великобритания
СтудияSpinefarm, Black Dog Films
Режиссер:Юнас Окерлунд
Описание:
Концертный фильм немецкой NDH-группы Rammstein. Премьера фильма состоялась 23 марта 2017 года в кинотеатрах, а затем 19 мая фильм выпустили во всех доступных форматах. Записан на концертах в Париже 6 и 7 марта 2012 года в рамках тура Made in Germany.

Состав:

Тилль Линдеманн — вокал,
Рихард Круспе — соло-гитара, бэк-вокал,
Пауль Ландерс — ритм-гитара, бэк-вокал,
Оливер Ридель — бас-гитара,
Кристоф Шнайдер — ударные,
Кристиан Лоренц — клавишные.

Треклист:

01. Intro
02. Sonne
03. Wollt Ihr Das Bett In Flammen Sehen
04. Keine Lust
05. Sehnsucht
06. Asche Zu Asche
07. Feuer Frei!
08. Mutter
09. Mein Teil
10. Du Riechst So gut
11. Links 2-3-4
12. Du Hast
13. Haifisch
14. Bück Dich
15. Mann Gegen Mann
16. Ohne Dich
17. Mein Herz Brennt
18. Amerika
19. Ich Will
20. Engel
21. Pussy
22. Frühling In Paris
23. Making Of
Файл
Кодек: HEVC x265
Качество: BDRip-HEVC 1080p
Видео: 1920x1080, 25,000 кадр/сек, 7564 Кбит/сек, (Main 10@L4.1@High), 8bit
Звук:
Аудио1: AC3 640 Кбит/сек, 6 канала(ов),16bit 48,0 КГц
Аудио2: DTS-HD MA 4763 Кбит/сек, 6 канала(ов),24bit 48,0 КГц (отдельно)
Навигация по главам: Есть

Mediainfo

General
Unique ID : 220890902008456848466997931936854846060 (0xA62E0A4E9D9A25A3A9081356DC482A6C)
Complete name : T:HDFILMSRammstein - Paris 2017Rammstein - Paris (2017) BDRip 1080p [HEVC].mkv
Format : Matroska
Format version : Version 4 / Version 2
File size : 7.35 GiB
Duration : 2 h 8 min
Overall bit rate : 8 206 kb/s
Encoded date : UTC 2017-09-13 15:24:24
Writing application : mkvmerge v13.0.0 ('The Juggler') 64bit
Writing library : libebml v1.3.4 + libmatroska v1.4.5
Cover : Yes
Attachments : cover.jpg
Video
ID : 1
Format : HEVC
Format/Info : High Efficiency Video Coding
Format profile : Main@L4.1@High
Codec ID : V_MPEGH/ISO/HEVC
Duration : 2 h 8 min
Bit rate : 7 564 kb/s
Width : 1 920 pixels
Height : 1 080 pixels
Display aspect ratio : 16:9
Frame rate mode : Constant
Frame rate : 25.000 FPS
Color space : YUV
Chroma subsampling : 4:2:0
Bit depth : 8 bits
Bits/(Pixel*Frame) : 0.146
Stream size : 6.77 GiB (92%)
Writing library : x265 2.5+16-bac53338585c:[Windows][GCC 7.1.0][64 bit] 8bit
Encoding settings : cpuid=1050111 / frame-threads=5 / numa-pools=4 / wpp / no-pmode / no-pme / no-psnr / no-ssim / log-level=3 / input-csp=1 / input-res=1920x1080 / interlace=0 / total-frames=0 / level-idc=41 / high-tier=1 / uhd-bd=0 / ref=4 / no-allow-non-conformance / no-repeat-headers / annexb / no-aud / no-hrd / info / hash=0 / no-temporal-layers / open-gop / min-keyint=23 / keyint=250 / bframes=10 / b-adapt=2 / b-pyramid / bframe-bias=0 / rc-lookahead=40 / lookahead-slices=6 / scenecut=40 / no-intra-refresh / ctu=64 / min-cu-size=8 / no-rect / no-amp / max-tu-size=32 / tu-inter-depth=2 / tu-intra-depth=2 / limit-tu=0 / rdoq-level=0 / dynamic-rd=0.00 / no-ssim-rd / signhide / no-tskip / nr-intra=0 / nr-inter=0 / no-constrained-intra / strong-intra-smoothing / max-merge=3 / limit-refs=3 / no-limit-modes / me=2 / subme=6 / merange=32 / temporal-mvp / weightp / weightb / no-analyze-src-pics / deblock=-3:-3 / no-sao / no-sao-non-deblock / rd=3 / no-early-skip / rskip / no-fast-intra / no-tskip-fast / no-cu-lossless / no-b-intra / no-splitrd-skip / rdpenalty=0 / psy-rd=2.00 / psy-rdoq=0.00 / no-rd-refine / analysis-reuse-mode=0 / no-lossless / cbqpoffs=0 / crqpoffs=0 / rc=crf / crf=20.0 / qcomp=0.60 / qpstep=4 / stats-write=0 / stats-read=0 / vbv-maxrate=50000 / vbv-bufsize=35714 / vbv-init=0.9 / crf-max=30.0 / crf-min=0.0 / ipratio=1.40 / pbratio=1.30 / aq-mode=1 / aq-strength=0.80 / cutree / zone-count=0 / no-strict-cbr / qg-size=32 / no-rc-grain / qpmax=69 / qpmin=0 / no-const-vbv / sar=1 / overscan=0 / videoformat=5 / range=0 / colorprim=2 / transfer=2 / colormatrix=2 / chromaloc=0 / display-window=0 / max-cll=0,0 / min-luma=0 / max-luma=255 / log2-max-poc-lsb=8 / vui-timing-info / vui-hrd-info / slices=1 / opt-qp-pps / opt-ref-list-length-pps / no-multi-pass-opt-rps / scenecut-bias=0.05 / no-opt-cu-delta-qp / no-aq-motion / no-hdr / no-hdr-opt / no-dhdr10-opt / analysis-reuse-level=5 / scale-factor=0 / refine-intra=0 / refine-inter=0 / refine-mv=0 / no-limit-sao / ctu-info=0
Language : German
Default : Yes
Forced : No
Audio
ID : 2
Format : AC-3
Format/Info : Audio Coding 3
Codec ID : A_AC3
Duration : 2 h 8 min
Bit rate mode : Constant
Bit rate : 640 kb/s
Channel(s) : 6 channels
Channel positions : Front: L C R, Side: L R, LFE
Sampling rate : 48.0 kHz
Frame rate : 31.250 FPS (1536 SPF)
Bit depth : 16 bits
Compression mode : Lossy
Stream size : 587 MiB (8%)
Language : German
Service kind : Complete Main
Default : Yes
Forced : No
Menu
00:00:00.000 : :Глава 1
00:05:45.040 : :Глава 2
00:10:46.400 : :Глава 3
00:15:47.560 : :Глава 4
00:19:57.000 : :Глава 5
00:24:21.960 : :Глава 6
00:28:29.360 : :Глава 7
00:32:02.840 : :Глава 8
00:37:26.080 : :Глава 9
00:45:10.000 : :Глава 10
00:50:38.480 : :Глава 11
00:55:41.520 : :Глава 12
00:59:59.960 : :Глава 13
01:06:57.560 : :Глава 14
01:14:52.400 : :Глава 15
01:19:07.840 : :Глава 16
01:27:21.120 : :Глава 17
01:32:27.600 : :Глава 18
01:37:21.920 : :Глава 19
01:41:26.160 : :Глава 20
01:46:42.120 : :Глава 21
02:01:47.600 : :Глава 22

Скриншоты

 

Current time is: 09-Dec 02:40

All times are UTC + 3