Search found 105 matches

Author Message

admin

Post Yesterday 23:18

[Quote]

Название: Бал-Маскарад
Исполнитель: Виталий Дубинин
Год: 2022
Жанр: Метал
Страна: Россия
Продолжительность: 00:58:43
Формат/Кодек: МР3
Битрейт аудио: 320 kbps

Трек-лист

01. Интро
02. Бал-маскарад
03. Бес в твоих глазах
04. Русский сон
05. Бег по кругу
06. Чужие
07. Призрак темной стороны
08. Пламя
09. Наполеон
10. Здесь и сейчас
11. Дети дождя
Дополнительная информация:
Это первый большой сольник в гигантской дискографии Виталия Дубинина (АРИЯ).

admin

Post 06-May-2022 01:13

[Quote]

Название: IX жизней. [2CD.Live]
Исполнитель: Гран-Куражъ
Год: 2022
Жанр: Heavy, Power-Metal
Страна: Россия
Лейбл: M2BA
Продолжительность: 02:12:09
Формат/Кодек: FLAC
Битрейт аудио: Lossless

CD1

01. Интро
02. Достучаться до небес (П. Елфимов)
03. Только вперёд (П. Елфимов)
04. По ту сторону неба (П. Елфимов)
05. Полукровки (П. Елфимов)
06. Кто? (П. Елфимов)
07. Лёд и пламя (П. Елфимов)
08. Скоморох (П. Елфимов)
09. Волна (П. Елфимов)
10. Пожелай мне (Е. Колчин)
11. Если жив ещё (Е. Колчин)
12. Голос твой (Е. Колчин)
13. Огненный закат (Е. Колчин)
14. Мир бумажных королей (Е. Колчин)
15. Сказки тёмной души (Е. Колчин)
16. Не обещай (Е. Колчин)LogExact Audio Copy V1.6 from 23. October 2020
Отчёт EAC об извлечении, выполненном 5. мая 2022, 13:11
Гран-Куражъ / IX жизней. Live (CD-1)
Дисковод: HL-DT-STDVDRAM GH24NSD1 Adapter: 1 ID: 0
Режим чтения : Достоверность
Использование точного потока : Да
Отключение кэша аудио : Да
Использование указателей C2 : Нет
Коррекция смещения при чтении : 6
Способность читать области Lead-in и Lead-out : Нет
Заполнение пропущенных сэмплов тишиной : Да
Удаление блоков с тишиной в начале и конце : Нет
При вычислениях CRC использовались нулевые сэмплы : Да
Интерфейс : Встроенный Win32-интерфейс для Win NT/2000
Выходной формат : Пользовательский кодировщик
Выбранный битрейт : 896 kBit/s
Качество : Высокий
Добавление ID3-тега : Нет
Утилита сжатия : C:Program Files (x86)Exact Audio CopyFlacflac.exe
Дополнительные параметры : -V -8 -T "Date=%year%" -T "Genre=%genre%" %source%
TOC извлечённого CD
Трек | Старт | Длительность | Начальный сектор | Конечный сектор
---------------------------------------------------------------------
1 | 0:00.00 | 1:51.68 | 0 | 8392
2 | 1:51.68 | 4:53.06 | 8393 | 30373
3 | 6:44.74 | 4:53.00 | 30374 | 52348
4 | 11:37.74 | 5:10.34 | 52349 | 75632
5 | 16:48.33 | 4:16.51 | 75633 | 94883
6 | 21:05.09 | 4:38.09 | 94884 | 115742
7 | 25:43.18 | 3:55.00 | 115743 | 133367
8 | 29:38.18 | 5:19.51 | 133368 | 157343
9 | 34:57.69 | 3:17.28 | 157344 | 172146
10 | 38:15.22 | 4:16.56 | 172147 | 191402
11 | 42:32.03 | 3:43.67 | 191403 | 208194
12 | 46:15.70 | 5:01.37 | 208195 | 230806
13 | 51:17.32 | 5:00.28 | 230807 | 253334
14 | 56:17.60 | 4:29.56 | 253335 | 273565
15 | 60:47.41 | 3:53.65 | 273566 | 291105
16 | 64:41.31 | 3:34.18 | 291106 | 307173
Характеристики диапазона извлечения и сообщения об ошибках
Выбранный диапазон
Имя файла C:UsersUser1MusicГран-Куражъ-2022-IX жизней. Live (2CD)CD-1Гран-Куражъ - IX жизней. Live (CD-1).wav
Пиковый уровень 100.0 %
Скорость извлечения 7.9 X
Качество диапазона 100.0 %
CRC теста 4AFF7690
CRC копии 4AFF7690
Копирование... OK
Ошибок не произошло
AccurateRip: сводка
Трек 1 отсутствует в базе данных
Трек 2 отсутствует в базе данных
Трек 3 отсутствует в базе данных
Трек 4 отсутствует в базе данных
Трек 5 отсутствует в базе данных
Трек 6 отсутствует в базе данных
Трек 7 отсутствует в базе данных
Трек 8 отсутствует в базе данных
Трек 9 отсутствует в базе данных
Трек 10 отсутствует в базе данных
Трек 11 отсутствует в базе данных
Трек 12 отсутствует в базе данных
Трек 13 отсутствует в базе данных
Трек 14 отсутствует в базе данных
Трек 15 отсутствует в базе данных
Трек 16 отсутствует в базе данных
Ни одного трека нет в базе AccurateRip
Конец отчёта
---- CUETools DB Plugin V2.1.6
[CTDB TOCID: O40q5KR29KhJ1f13uw0a1lcJU0k-] disk not present in database
Submit result: O40q5KR29KhJ1f13uw0a1lcJU0k- has been uploaded
==== Контрольная сумма отчёта D59EA7008ECD4C007F0E3C487A6298F5507E3F46B894BC2254A7327AD6AC8007 ====

CD2

17. Жить как никто другой (П. Елфимов, Е. Колчин)
18. Первый день осени (П. Елфимов)
19. Поколения других (П. Елфимов)
20. Старт во тьме (М. Житняков)
21. От заката до зари (М. Житняков)
22. Поздно для любви (М. Житняков)
23. На войне (М. Житняков)
24. Новой надежды свет (М. Житняков)
25. Сердца в Атлантиде (М. Житняков)
26. У ветра спроси (М. Житняков)
27. Кто есть кто (П. Елфимов, М. Житняков)
28. Адреналин (П. Елфимов)
29. Герои (П. Елфимов, Е. Колчин, М. Житняков)
30. 9 жизней (П. Елфимов, Е. Колчин, М. Житняков)
---------------
31. Скрытый трек: Бременские музыканты (Мы к вам заехали на час + Песня Бременских музыкантов)LogExact Audio Copy V1.6 from 23. October 2020
Отчёт EAC об извлечении, выполненном 20. апреля 2022, 12:17
Гран-Куражъ / IX жизней. Live (CD-2)
Дисковод: HL-DT-STDVDRAM GH24NSD1 Adapter: 1 ID: 0
Режим чтения : Достоверность
Использование точного потока : Да
Отключение кэша аудио : Да
Использование указателей C2 : Нет
Коррекция смещения при чтении : 6
Способность читать области Lead-in и Lead-out : Нет
Заполнение пропущенных сэмплов тишиной : Да
Удаление блоков с тишиной в начале и конце : Нет
При вычислениях CRC использовались нулевые сэмплы : Да
Интерфейс : Встроенный Win32-интерфейс для Win NT/2000
Выходной формат : Пользовательский кодировщик
Выбранный битрейт : 896 kBit/s
Качество : Высокий
Добавление ID3-тега : Нет
Утилита сжатия : C:Program Files (x86)Exact Audio CopyFlacflac.exe
Дополнительные параметры : -V -8 -T "Date=%year%" -T "Genre=%genre%" %source%
TOC извлечённого CD
Трек | Старт | Длительность | Начальный сектор | Конечный сектор
---------------------------------------------------------------------
1 | 0:00.00 | 5:18.46 | 0 | 23895
2 | 5:18.46 | 4:06.00 | 23896 | 42345
3 | 9:24.46 | 4:00.00 | 42346 | 60345
4 | 13:24.46 | 3:19.56 | 60346 | 75326
5 | 16:44.27 | 3:14.37 | 75327 | 89913
6 | 19:58.64 | 5:09.00 | 89914 | 113088
7 | 25:07.64 | 6:34.37 | 113089 | 142675
8 | 31:42.26 | 4:45.25 | 142676 | 164075
9 | 36:27.51 | 4:36.00 | 164076 | 184775
10 | 41:03.51 | 5:33.61 | 184776 | 209811
11 | 46:37.37 | 3:14.18 | 209812 | 224379
12 | 49:51.55 | 4:29.00 | 224380 | 244554
13 | 54:20.55 | 4:44.46 | 244555 | 265900
14 | 59:05.26 | 5:00.56 | 265901 | 288456
15 | 64:06.07 | 6:34.00 | 288457 | 318006
Характеристики диапазона извлечения и сообщения об ошибках
Выбранный диапазон
Имя файла C:UsersUser1MusicГран-Куражъ-2022-IX жизней. Live (2CD)CD-2Гран-Куражъ - IX жизней. Live (CD-2).wav
Пиковый уровень 100.0 %
Скорость извлечения 2.0 X
Качество диапазона 100.0 %
CRC теста 6344C584
CRC копии 6344C584
Копирование... OK
Ошибок не произошло
AccurateRip: сводка
Трек 1 отсутствует в базе данных
Трек 2 отсутствует в базе данных
Трек 3 отсутствует в базе данных
Трек 4 отсутствует в базе данных
Трек 5 отсутствует в базе данных
Трек 6 отсутствует в базе данных
Трек 7 отсутствует в базе данных
Трек 8 отсутствует в базе данных
Трек 9 отсутствует в базе данных
Трек 10 отсутствует в базе данных
Трек 11 отсутствует в базе данных
Трек 12 отсутствует в базе данных
Трек 13 отсутствует в базе данных
Трек 14 отсутствует в базе данных
Трек 15 отсутствует в базе данных
Ни одного трека нет в базе AccurateRip
Конец отчёта
---- CUETools DB Plugin V2.1.6
[CTDB TOCID: Bw40H9G.b5JfuhE2IPZL5hsnSEQ-] found
Submit result: Bw40H9G.b5JfuhE2IPZL5hsnSEQ- has been confirmed
Track | CTDB Status
1 | (1/1) Accurately ripped
2 | (1/1) Accurately ripped
3 | (1/1) Accurately ripped
4 | (1/1) Accurately ripped
5 | (1/1) Accurately ripped
6 | (1/1) Accurately ripped
7 | (1/1) Accurately ripped
8 | (1/1) Accurately ripped
9 | (1/1) Accurately ripped
10 | (1/1) Accurately ripped
11 | (1/1) Accurately ripped
12 | (1/1) Accurately ripped
13 | (1/1) Accurately ripped
14 | (1/1) Accurately ripped
15 | (1/1) Accurately ripped
==== Контрольная сумма отчёта 6877C143F9986A4197968BBF5A3C9189B630B11BD161EB6481062C510633A139 ====

admin

Post 04-May-2022 01:39

[Quote]

Название: Концерт с симфоническим оркестром
Исполнитель: Кипелов
Год: 2020
Жанр: Heavy-Metal, Symphonic
Страна: Россия
Продолжительность: 02:16:28
Формат/Кодек: FLAC
Тип рипа: Image+.cue
Битрейт аудио: Lossless
Носитель: CD

Трек-лист

CD1
01. Интро
02. Жить вопреки
03. Власть огня
04. Вавилон
05. Наваждение
06. Дыхание последней любви
07. Белый ад
08. Пророк
09. Косово поле
10. Сальери и его Отражение
11. Потерянный рай (инструментальная версия)
CD2
01. Дыхание тьмы
02. Безумие
03. Свет дневной иссяк
04. Мёртвая зона
05. Castlevania
06. Реки времён
07. Закат
08. Следуй за мной
09. Тореро
10. Я свободен

admin

Post 28-Apr-2022 00:57

[Quote]

Название: Глава первая
Исполнитель: МорроЗ
Год: 2022
Жанр: Folk-Metal
Страна: Россия
Продолжительность: 00:58:08
Формат/Кодек: MP3
Битрейт аудио: 320 kbps

Трек-лист

01 - Седлай лошадей [00:05:32]
02 - Наёмники [00:07:16]
03 - Язычник [00:04:52]
04 - Русалки [00:08:34]
05 - Атаман [00:03:19]
06 - Баба-яга [00:07:35]
07 - Леший [00:06:20]
08 - Гнев - мой оберег [00:05:15]
09 - До встречи [00:04:09]
10 - Воин [00:05:12]

admin

Post 05-Apr-2022 05:45

[Quote]

Название: Неизданное. Том 2
Исполнитель: Ангел-хранитель
Год: 2022
Жанр: Heavy-Metal
Страна: Россия
Продолжительность: 00:38:29
Формат/Кодек: MP3
Битрейт аудио: 320 kbps

Трек-лист

01 - Уставший путник [00:03:30]
02 - Семейная традиция [00:03:40]
03 - Художник (feat. Alex Wish) [00:05:32]
04 - Странный шум (feat. Alex Wish) [00:05:30]
05 - Разговор с ангелом (feat. Сергей Хиро) [00:06:09]
06 - Знахарь (feat. Сергей Хиро) [00:04:53]
07 - Огненная вендетта [00:04:58]
08 - Таверна Пьяная семёрка [00:04:12]

admin

Post 01-Apr-2022 03:09

[Quote]

Название: From Hell with Love
Исполнитель: Eleanore Begin
Год: 2022
Жанр: Melodic, Metalcore
Страна: Россия
Продолжительность: 00:52:31
Формат/Кодек: MP3
Битрейт аудио: 320 kbps

Трек-лист

01 - Call of Darkness (Intro) [00:01:08]
02 - Lost [00:04:11]
03 - Downfall [00:05:07]
04 - Inferno [00:04:40]
05 - Deal with the Devil [00:05:25]
06 - Blood for the Beast [00:04:23]
07 - Kiss of the Damned [00:04:42]
08 - The Legend We Need to Know [00:04:03]
09 - From Hell with Love [00:04:07]
10 - Resurrection [00:02:48]
11 - The Witch [00:03:38]
12 - Falling Apart [00:05:05]
13 - Werewolf [00:03:10]

admin

Post 01-Apr-2022 03:05

[Quote]

Название: Лето V
Исполнитель: Hvstle Hype
Год: 2022
Жанр: Metalcore, Hardcore
Страна: Россия
Продолжительность: 00:18:51
Формат/Кодек: MP3
Битрейт аудио: 320 kbps

Трек-лист

01 - Интро [00:00:28]
02 - Дети рисуют мир [00:03:00]
03 - Вагон тишины [00:03:18]
04 - Тело хочет в землю [00:03:33]
05 - Лето V [00:02:32]
06 - Новичок [00:03:09]
07 - Местоимения [00:02:49]

admin

Post 01-Apr-2022 03:05

[Quote]

Название: Мёртвые в душе
Исполнитель: Loyal to Myself
Год: 2022
Жанр: Metalcore, Experimental
Страна: Россия
Продолжительность: 00:28:37
Формат/Кодек: MP3
Битрейт аудио: 320 kbps

Трек-лист

01 - Верность [00:01:44]
02 - Разочарование [00:03:41]
03 - Сердце на замок [00:02:36]
04 - Одиночество [00:03:03]
05 - Ревность [00:03:36]
06 - Реалии [00:03:34]
07 - Не бойся [00:02:37]
08 - Спаситель [00:02:47]
09 - Неизбежность [00:04:56]

admin

Post 27-Mar-2022 02:33

[Quote]

Название: Ветер Пустынь. Часть 3
Исполнитель: Age of Rage
Год: 2022
Жанр: Heavy-Metal
Страна: Россия
Продолжительность: 00:39:32
Формат/Кодек: MP3
Битрейт аудио: 320 kbps

Трек-лист

01. Кто Мы?
02. Война Слепых (Ver. 2022)
03. Последняя Война
04. Придёт Весна
05. Первобытный Ужас
06. Demonition
07. Лишь Воспоминания (Ver. 2022)
08. Roses In Our Garden
09. Всё Умрёт

admin

Post 26-Mar-2022 06:02

[Quote]

Название: Зеркало cудьбы [2CD]
Исполнитель: Catharsis
Год: 2019
Жанр: Sympho-Power-Metal
Страна: Russia
Издатель (лейбл): Irond
Номер по каталогу: IROND CD 19-1977 DL
Наличие сканов в содержимом раздачи: да
Продолжительность: 00:54:42 + 00:23:09
Формат/Кодек: FLAC
Битрейт аудио: Lossless (image+.cue)

Трек-лист

CD-1
01 - Я вернусь
02 - Время потерь
03 - Лечу за тобой
04 - Зеркало судьбы
05 - Сталкер
06 - Невесомость
07 - Муза морей
08 - Чёрные сфинксы
09 - Даль
10 - Невесомость (feat. Петр Елфимов)
11 - Зеркало cудьбы (feat. Петр Елфимов)
CD-2
01 - Время потерь
02 - Xanandra (Оленька)
03 - Рассветный зверь (ver.20.18)
04 - Черные cфинксы (ver. Single)

admin

Post 26-Mar-2022 05:59

[Quote]

Название: К вершине
Исполнитель: Mad Head
Год: 2019
Жанр: Heavy-Metal, Hard-Rock
Страна: Russian Federation, Воронеж
Продолжительность: 00:38:59
Формат/Кодек: FLAC
Битрейт аудио: Lossless [16-Bit / 44.1 kHz]

Трек-лист

01 - Большой Куш (00:04:20)
02 - К Вершине (00:03:33)
03 - Бешеный Пес (00:03:11)
04 - Шторм Эмоций (00:04:15)
05 - Нет Имен Для Нас (00:05:15)
06 - Ближе К Закату (00:06:28)
07 - Море Исчезающих Времен (00:04:11)
08 - Мир Болен (00:03:58)
09 - За Стеной (00:03:45)

admin

Post 26-Mar-2022 05:55

[Quote]

Название: Демон
Исполнитель: Август
Год: 1987/2022
Жанр: Hard & Heavy
Страна: Russia
Продолжительность: 00:40:53
Формат/Кодек: FLAC
Битрейт аудио: 44.1/16

Трек-лист

1. Демон
2. Как болит голова
3. Осень
4. Ночь
5. Судите сами
6. Опасность
7. Колокол
8. Рояль и море

admin

Post 24-Mar-2022 05:34

[Quote]

Название: Дух Зверя
Исполнитель: СмертоКрест
Год: 2022
Жанр: Black-Metal
Страна: Россия
Продолжительность: 00:32:41
Формат/Кодек: MP3
Битрейт аудио: 320 kbps

Трек-лист

01. Отшельник Людского Мира (Intro)
02. Против Всех!!!
03. Война
04. Беспощадный
05. Лиходей
06. Черное Зло
07. Через Кровь
08. Твой Образ

admin

Post 24-Mar-2022 04:58

[Quote]

Название: Хаос Желаний
Исполнитель: Шмели
Год: 2022
Жанр: Industrial-Metal, Folk-Rock
Страна: Россия / Украина
Лейбл: СОЮЗ МЬЮЗИК
Продолжительность: 00:42:45
Формат/Кодек: FLAC
Битрейт аудио: Lossless

Трек-лист

01 - Птицегадание (00:04:01)
02 - Одноокий синий заяц (00:03:37)
03 - Найкраща сила (00:03:40)
04 - Ева Франки (00:03:26)
05 - Тринадцать (00:03:25)
06 - Женщина-река (00:02:42)
07 - Холод моря (00:03:31)
08 - Частушка (00:03:04)
09 - Сон из меня вон (00:03:36)
10 - Хаос желаний (00:03:43)
11 - На Веселцi (00:03:26)
12 - С Днём Рождения, Вова Иванов (00:02:00)
13 - Alcohol Is Part of Me (00:02:28)

Log

DON'T MODIFY THIS FILE
-----------------------
PERFORMER: auCDtect Task Manager, ver. 1.6.0 RC1 build 1.6.0.1
Copyright (c) 2008-2010 y-soft. All rights reserved
http://y-soft.org
ANALYZER: auCDtect: CD records authenticity detector, version 0.8.2
Copyright (c) 2004 Oleg Berngardt. All rights reserved.
Copyright (c) 2004 Alexander Djourik. All rights reserved.
FILE: 13 - Alcohol Is Part of Me.flac
Size: 21123857 Hash: 4824B8978EB4FFB5AD09707CE6245856 Accuracy: -m40
Conclusion: CDDA 100%
Signature: A054F880DDF4AB78C03A32C017912AEB192DCAB3
FILE: 12 - С Днём Рождения, Вова Иванов.flac
Size: 16475518 Hash: 1B305E691010D86B4EA34F999A71F9A8 Accuracy: -m40
Conclusion: CDDA 100%
Signature: 82D553E0D6D8AEA6383B129064B53F26410CC82C
FILE: 11 - На Веселцi.flac
Size: 27495935 Hash: B6E3A6C7A066E6FE27FD65BD2BD6949A Accuracy: -m40
Conclusion: CDDA 100%
Signature: 3F5C7C25A50F8E0ACD872EE6DED7CBB708E4D317
FILE: 10 - Хаос желаний.flac
Size: 29780869 Hash: 89E97EF73E336D4D0C1EB2D7EE2213B4 Accuracy: -m40
Conclusion: CDDA 100%
Signature: EF62F34C9336DED2D8753C613153F16C1401E7EA
FILE: 09 - Сон из меня вон.flac
Size: 30591332 Hash: 75E098B4556EFD235E357B71F74F92CD Accuracy: -m40
Conclusion: CDDA 100%
Signature: 7B7A6A6C63B7867852D2E49D331E7D6F266F3F5C
FILE: 08 - Частушка.flac
Size: 22807119 Hash: 0A881EB921F24BB787A9D72F98B33FAF Accuracy: -m40
Conclusion: CDDA 100%
Signature: CE3EEE56E70F5FF2AE6639720FB729B325F28410
FILE: 07 - Холод моря.flac
Size: 26411627 Hash: E4E5BD5B6DCFE283B6FAEBD08CFF5D92 Accuracy: -m40
Conclusion: CDDA 100%
Signature: E5540E80E509349A6981016B01552BF9C23BE519
FILE: 06 - Женщина-река.flac
Size: 21620828 Hash: 08AB6FB7ADC08D39FB17A9302FDA522F Accuracy: -m40
Conclusion: CDDA 100%
Signature: 3FB8E4BFD42957CB2102A4DBDBF951535F7B9D02
FILE: 05 - Тринадцать.flac
Size: 26938298 Hash: EE1D968E2A1465BE3E634E3E695A93EE Accuracy: -m40
Conclusion: CDDA 100%
Signature: F8FA6E8027D5C9DBFEFC853F3FFBC5B63649BF1D
FILE: 04 - Ева Франки.flac
Size: 26740991 Hash: 2EF1E8B654BB0531634B739021D66658 Accuracy: -m40
Conclusion: CDDA 100%
Signature: A32C63BFC2D784F75BB7BDB4853E4FD4644DE906
FILE: 03 - Найкраща сила.flac
Size: 30561121 Hash: 768CFC82B7295BC37FAFA93E15303570 Accuracy: -m40
Conclusion: CDDA 100%
Signature: D55FD4AF730B5770E7FC495557E4CF4B31DEA0D8
FILE: 02 - Одноокий синий заяц.flac
Size: 28410733 Hash: 87982DF904A13FD35B592486745EE0D5 Accuracy: -m40
Conclusion: CDDA 100%
Signature: 927D50602FB87D2033FDEC4BA0515E2CCA6C4D8B
FILE: 01 - Птицегадание.flac
Size: 32486580 Hash: 7524B4C398A0D35D05521A179BF340DB Accuracy: -m40
Conclusion: CDDA 99%
Signature: 2F61F7A537A03AB5B7D0238A15F4A61CB0D7C4C6

admin

Post 23-Mar-2022 04:40

[Quote]

Название: Наследие
Исполнитель: Radio Tapok
Год: 2022
Жанр: Heavy-Power-Metal
Страна: Russia
Продолжительность: 00:37:02
Формат/Кодек: FLAC
Тип рипа: Tracks
Битрейт аудио: Lossless
Разрядность: 24 Bit/44.1kHz
Носитель: WEB

Трек-лист

01. Цусима (4:49)
02. Высота 776 (3:03)
03. Жизнь за царя (3:38)
04. Операция "Cоюзная сила" (3:35)
05. Битва За Москву (4:02)
06. Песнь пустыни (3:38)
07. Черный октябрь (3:47)
08. Халхин - Гол (4:35)
09. Мясной бор (5:55)

DRM
foobar2000 1.6.9 / Dynamic Range Meter 1.1.1
--------------------------------------------------------------------------------
Analyzed: Radio Tapok / Наследие
--------------------------------------------------------------------------------
DR Peak RMS Duration Track
--------------------------------------------------------------------------------
DR5 0.00 dB -6.93 dB 4:49 01-Цусима
DR4 0.00 dB -5.19 dB 3:03 02-Высота 776
DR3 0.00 dB -4.15 dB 3:38 03-Жизнь за царя
DR4 0.00 dB -5.54 dB 3:35 04-Операция "Cоюзная сила"
DR4 0.00 dB -5.48 dB 4:02 05-Битва За Москву
DR5 0.00 dB -6.23 dB 3:38 06-Песнь пустыни
DR4 0.00 dB -5.69 dB 3:47 07-Черный октябрь
DR4 0.00 dB -5.34 dB 4:35 08-Халхин - Гол
DR5 0.00 dB -6.59 dB 5:55 09-Мясной бор
--------------------------------------------------------------------------------
Number of tracks: 9
Official DR value: DR4
Samplerate: 44100 Hz
Channels: 2
Bits per sample: 24
Bitrate: 1764 kbps
Codec: FLAC
================================================================================
 

Current time is: 28-Jun 16:19

All times are UTC + 3