Search found 121 matches

Author Message

admin

Post 27-Apr-2022 01:42

[Quote]

Название: Discography
Исполнитель: Nirvana
Год: 1989-2019
Жанр: Pop, Rock, Alternatif, Indé
Продолжительность:
Формат/Кодек: FLAC (tracks)
Битрейт аудио: Lossless [24/16-Bits]

Альбомы

(1989) Nirvana - Bleach (Deluxe) [16Bit-44.1kHz]
(1989) Nirvana - Bleach [16Bit-44.1kHz]
(1991) Nirvana - Nevermind (30th Anniversary Super Deluxe) [16Bit-44.1kHz]
(1991) Nirvana - Nevermind (Deluxe Edition) [16Bit-44.1kHz]
(1991) Nirvana - Nevermind (Remastered 2021) [24Bit-192kHz]
(1991) Nirvana - Nevermind (Super Deluxe Edition) [16Bit-44.1kHz]
(1992) Nirvana - Incesticide [16Bit-44.1kHz]
(1992) Nirvana - Lithium [16Bit-44.1kHz]
(1993) Nirvana - In Utero - 20th Anniversary - Deluxe Edition [16Bit-44.1kHz]
(1993) Nirvana - In Utero - 20th Anniversary Remaster (96k) [24Bit-96kHz]
(1993) Nirvana - In Utero - 20th Anniversary Super Deluxe [16Bit-44.1kHz]
(1994) Nirvana - MTV Unplugged In New York (25th Anniversary) [16Bit-44.1kHz]
(1994) Nirvana - MTV Unplugged In New York [16Bit-44.1kHz]
(1996) Nirvana - From The Muddy Banks Of The Wishkah (Live) [16Bit-44.1kHz]
(2000) Nirvana - Forever Changing - An Introduction To Nirvana [16Bit-44.1kHz]
(2002) Nirvana - Nirvana [16Bit-44.1kHz]
(2004) Nirvana - With The Lights Out - Box Set [16Bit-44.1kHz]
(2005) Nirvana - Sliver - The Best Of The Box [16Bit-44.1kHz]
(2009) Nirvana - Live at Reading (1992Live at Reading) [16Bit-44.1kHz]
(2013) Nirvana - Bleach (Deluxe Edition) [24Bit-96kHz]
(2016) Nirvana - Legendary FM Radio Broadcasts - Pier 48 Seattle 1993 [16Bit-44.1kHz]
(2018) Nirvana - Rainbow Chaser The 60s Recordings (The Island Years) [16Bit-44.1kHz]
(2019) Nirvana - Live And Loud [16Bit-44.1kHz]
(2019) Nirvana - Live At The Paramount [24Bit-96kHz]

Трек-лист

(1989) Nirvana - Bleach (Deluxe)
01. Blew
02. Floyd The Barber
03. About A Girl
04. School
05. Love Buzz
06. Paper Cuts
07. Negative Creep (2009 Re-mastered Version)
08. Scoff
09. Swap Meet
10. Mr. Moustache
11. Sifting
12. Big Cheese
13. Downer (2009 Remastered Version)
14. Intro
15. School
16. Floyd The Barber
17. Dive
18. Love Buzz
19. Spank Thru
20. Molly's Lips
21. Sappy
22. Scoff
23. About A Girl
24. Been A Son
25. Blew
(1989) Nirvana - Bleach
01. Blew
02. Floyd The Barber
03. About A Girl
04. School
05. Love Buzz
06. Paper Cuts
07. Negative Creep
08. Scoff
09. Swap Meet
10. Mr. Moustache
11. Sifting
12. Big Cheese
13. Downer
(1991) Nirvana - Nevermind (30th Anniversary Super Deluxe) [5CD]
CD1:
01. Smells Like Teen Spirit
02. In Bloom
03. Come As You Are
04. Breed
05. Lithium
06. Polly
07. Territorial Pissings
08. Drain You
09. Lounge Act
10. Stay Away
11. On A Plain
12. Something In The Way
13. Endless, Nameless
CD2:
01. Drain You
02. Aneurysm
03. School
04. Floyd The Barber
05. Smells Like Teen Spirit
06. About A Girl
07. Polly
08. Lithium
09. Sliver
10. Breed
11. Come As You Are
12. Been A Son
13. Negative Creep
14. On A Plain
15. Blew
16. Love Buzz
17. Territorial Pissings
CD3:
01. Drain You
02. Aneurysm
03. School
04. Floyd The Barber
05. Smells Like Teen Spirit
06. About A Girl
07. Polly
08. Sliver
09. Breed
10. Come As You Are
11. Lithium
12. Territorial Pissings
CD4:
01. Aneurysm
02. Drain You
03. School
04. Sliver
05. About A Girl
06. Come As You Are
07. Lithium
08. Breed
09. Polly
10. Lounge Act
11. In Bloom
12. Love Buzz
13. Smells Like Teen Spirit
14. Feedback Jam
15. Negative Creep
16. On A Plain
17. Blew
CD5:
01. Negative Creep
02. Been A Son
03. On A Plain
04. Blew
05. Come As You Are
06. Lithium
07. Breed
08. Sliver
09. Drain You
10. About A Girl
11. School
12. Aneurysm
13. Love Buzz
14. Polly
15. Territorial Pissings
16. Smells Like Teen Spirit
(1991) Nirvana - Nevermind (Deluxe Edition) [2CD]
CD1:
01. Smells Like Teen Spirit
02. In Bloom
03. Come As You Are
04. Breed
05. Lithium
06. Polly
07. Territorial Pissings
08. Drain You
09. Lounge Act
10. Stay Away
11. On A Plain
12. Something In The Way
13. Endless, Nameless
14. Even In His Youth
15. Aneurysm
16. Curmudgeon
17. D-7
18. Been A Son
19. School
20. Drain You
21. Sliver
22. Polly
CD2:
01. In Bloom
02. Immodium (Breed)
03. Lithium
04. Polly
05. Pay To Play
06. Here She Comes Now
07. Dive
08. Sappy
09. Smells Like Teen Spirit
10. Verse Chorus Verse
11. Territorial Pissings
12. Lounge Act
13. Come As You Are
14. Old Age
15. Something In The Way
16. On A Plain
17. Drain You
18. Something In The Way
(1991) Nirvana - Nevermind (Remastered 2021)
01. Smells Like Teen Spirit
02. In Bloom
03. Come As You Are
04. Breed
05. Lithium
06. Polly
07. Territorial Pissings
08. Drain You
09. Lounge Act
10. Stay Away
11. On A Plain
12. Something In The Way
13. Endless, Nameless
(1991) Nirvana - Nevermind (Super Deluxe Edition) [4CD]
CD1:
01. Smells Like Teen Spirit
02. In Bloom
03. Come As You Are
04. Breed
05. Lithium
06. Polly
07. Territorial Pissings
08. Drain You
09. Lounge Act
10. Stay Away
11. On A Plain
12. Something In The Way
13. Endless, Nameless
14. Even In His Youth
15. Aneurysm
16. Curmudgeon
17. D-7
18. Been A Son
19. School
20. Drain You
21. Sliver
22. Polly
CD2:
01. In Bloom
02. Immodium (Breed)
03. Lithium
04. Polly
05. Pay To Play
06. Here She Comes Now
07. Dive
08. Sappy
09. Smells Like Teen Spirit
10. Verse Chorus Verse
11. Territorial Pissings
12. Lounge Act
13. Come As You Are
14. Old Age
15. Something In The Way
16. On A Plain
17. Drain You
18. Something In The Way
CD3:
01. Smells Like Teen Spirit
02. In Bloom
03. Come As You Are
04. Breed
05. Lithium
06. Territorial Pissings
07. Drain You
08. Lounge Act
09. Stay Away
10. On A Plain
11. Something In The Way
CD4:
01. Jesus Doesn't Want Me For A Sunbeam
02. Aneurysm
03. Drain You
04. School
05. Floyd The Barber
06. Smells Like Teen Spirit
07. About A Girl
08. Polly
09. Breed
10. Sliver
11. Love Buzz
12. Lithium
13. Been A Son
14. Negative Creep
15. On A Plain
16. Blew
17. Rape Me
18. Territorial Pissings
19. Endless, Nameless
(1992) Nirvana - Incesticide
01. Dive
02. Sliver
03. Stain
04. Been A Son
05. Turnaround
06. Molly's Lips
07. Son Of A Gun
08. (New Wave) Polly
09. Beeswax
10. Downer
11. Mexican Seafood
12. Hairspray Queen
13. Aero Zeppelin
14. Big Long Now
15. Aneurysm
(1992) Nirvana - Lithium
01. Lithium
02. Been A Son
03. Curmudgeon
(1993) Nirvana - In Utero - 20th Anniversary - Deluxe Edition [2CD]
CD1:
01. Serve The Servants
02. Scentless Apprentice
03. Heart-Shaped Box
04. Rape Me
05. Frances Farmer Will Have Her Revenge On Seattle
06. Dumb
07. Very Ape
08. Milk It
09. Pennyroyal Tea
10. Radio Friendly Unit Shifter
11. Tourette's
12. All Apologies
13. Gallons Of Rubbing Alcohol Flow Through The Strip
14. Marigold
15. Moist Vagina
16. Sappy
17. I Hate Myself And Want To Die
18. Pennyroyal Tea
19. Heart Shaped Box
20. All Apologies
CD2:
01. Serve The Servants
02. Scentless Apprentice
03. Heart Shaped Box
04. Rape Me
05. Frances Farmer Will Have Her Revenge On Seattle
06. Dumb
07. Very Ape
08. Milk It
09. Pennyroyal Tea
10. Radio Friendly Unit Shifter
11. Tourette's
12. All Apologies
13. Scentless Apprentice
14. Frances Farmer Will Have Her Revenge On Seattle
15. Dumb
16. Very Ape
17. Pennyroyal Tea
18. Radio Friendly Unit Shifter
19. Tourette's
20. Marigold
21. All Apologies
22. Forgotten Tune
23. Jam
(1993) Nirvana - In Utero - 20th Anniversary Remaster (96k)
01. Serve The Servants
02. Scentless Apprentice
03. Heart-Shaped Box
04. Rape Me
05. Frances Farmer Will Have Her Revenge On Seattle
06. Dumb
07. Very Ape
08. Milk It
09. Pennyroyal Tea
10. Radio Friendly Unit Shifter
11. Tourette's
12. All Apologies
(1993) Nirvana - In Utero - 20th Anniversary Super Deluxe [3CD]
CD1:
01. Serve The Servants
02. Scentless Apprentice
03. Heart-Shaped Box
04. Rape Me
05. Frances Farmer Will Have Her Revenge On Seattle
06. Dumb
07. Very Ape
08. Milk It
09. Pennyroyal Tea
10. Radio Friendly Unit Shifter
11. Tourette's
12. All Apologies
13. Gallons Of Rubbing Alcohol Flow Through The Strip
14. Marigold
15. Moist Vagina
16. Sappy
17. I Hate Myself And Want To Die
18. Pennyroyal Tea
19. Heart Shaped Box
20. All Apologies
CD2:
01. Serve The Servants
02. Scentless Apprentice
03. Heart Shaped Box
04. Rape Me
05. Frances Farmer Will Have Her Revenge On Seattle
06. Dumb
07. Very Ape
08. Milk It
09. Pennyroyal Tea
10. Radio Friendly Unit Shifter
11. Tourette's
12. All Apologies
13. Scentless Apprentice
14. Frances Farmer Will Have Her Revenge On Seattle
15. Dumb
16. Very Ape
17. Pennyroyal Tea
18. Radio Friendly Unit Shifter
19. Tourette's
20. Marigold
21. All Apologies
22. Forgotten Tune
23. Jam
CD3:
01. Radio Friendly Unit Shifter
02. Drain You
03. Breed
04. Serve The Servants
05. Rape Me
06. Sliver
07. Pennyroyal Tea
08. Scentless Apprentice
09. All Apologies
10. Heart Shaped Box
11. Blew
12. The Man Who Sold The World
13. School
14. Come As You Are
15. Lithium
16. About A Girl
17. Endless, Nameless
(1994) Nirvana - MTV Unplugged In New York (25th Anniversary)
01. About A Girl
02. Come As You Are
03. Jesus Doesn't Want Me For A Sunbeam
04. The Man Who Sold The World
05. Pennyroyal Tea
06. Dumb
07. Polly
08. On A Plain
09. Something In The Way
10. Plateau
11. Oh Me
12. Lake Of Fire
13. All Apologies
14. Where Did You Sleep Last Night
15. Come As You Are
16. Polly
17. Plateau
18. Pennyroyal Tea
19. The Man Who Sold The World
(1994) Nirvana - MTV Unplugged In New York
01. About A Girl
02. Come As You Are
03. Jesus Doesn't Want Me For A Sunbeam
04. The Man Who Sold The World
05. Pennyroyal Tea
06. Dumb
07. Polly
08. On A Plain
09. Something In The Way
10. Plateau
11. Oh Me
12. Lake Of Fire
13. All Apologies
14. Where Did You Sleep Last Night
(1996) Nirvana - From The Muddy Banks Of The Wishkah (Live)
01. Intro
02. School
03. Drain You
04. Aneurysm
05. Smells Like Teen Spirit
06. Been A Son
07. Lithium
08. Sliver
09. Spank Thru
10. Scentless Apprentice
11. Heart-Shaped Box
12. Milk It
13. Negative Creep
14. Polly
15. Breed
16. Tourette's
17. Blew
(2000) Nirvana - Forever Changing - An Introduction To Nirvana
01. Pentecost Hotel
02. The Touchables (All Of Us)
03. Wings Of Love
04. I Believe In Magic
05. Rainbow Chaser
06. Darling Darlane
07. Girl In The Park
08. Lonely Boy
09. In The Courtyard Of The Stars
10. You Can Try It
11. Take This Hand
12. Tiny Goddess
13. Melanie Blue
14. Love Suite
(2002) Nirvana - Nirvana
01. You Know You're Right
02. About A Girl
03. Been A Son
04. Sliver
05. Smells Like Teen Spirit
06. Come As You Are
07. Lithium
08. In Bloom
09. Heart-Shaped Box
10. Pennyroyal Tea
11. Rape Me
12. Dumb
13. All Apologies
14. The Man Who Sold The World
(2004) Nirvana - With The Lights Out - Box Set [3CD]
CD1:
01. Heartbreaker
02. Anorexorcist
03. White Lace And Strange
04. Help Me, I'm Hungry
05. Mrs. Butterworth
06. If You Must
07. Pen Cap Chew
08. Downer
09. Floyd The Barber
10. RauncholaMoby Dick
11. Beans
12. Don't Want It All
13. Clean Up Before She Comes
14. Polly
15. About A Girl
16. Blandest
17. Dive
18. They Hung Him On A Cross
19. Grey Goose
20. Ain't It A Shame
21. Token Eastern Song
22. Even In His Youth
23. Polly
CD2:
01. Opinion
02. Lithium
03. Been A Son
04. Sliver
05. Where Did You Sleep Last Night
06. Pay To Play
07. Here She Comes Now
08. Drain You
09. Aneurysm
10. Smells Like Teen Spirit
11. Breed
12. Verse Chorus Verse
13. Old Age
14. Endless, Nameless
15. Dumb
16. D-7
17. Oh The Guilt
18. Curmudgeon
19. Return Of The Rat
20. Smells Like Teen Spirit
CD3:
01. Rape Me
02. Rape Me
03. Scentless Apprentice
04. Heart Shaped Box
05. I Hate Myself And Want To Die
06. Milk It
07. Moist Vagina
08. Gallons Of Rubbing Alcohol Flow Through The Strip
09. The Other Improv
10. Serve The Servants
11. Very Ape
12. Pennyroyal Tea
13. Marigold
14. Sappy
15. Jesus Doesn't Want Me For A Sunbeam
16. Do Re Mi
17. You Know You're Right
18. All Apologies
(2005) Nirvana - Sliver - The Best Of The Box
01. Spank Thru
02. Heartbreaker
03. Mrs. Butterworth
04. Floyd The Barber
05. Clean Up Before She Comes
06. About A Girl
07. Blandest
08. Ain't It A Shame
09. Sappy
10. Opinion
11. Lithium
12. Sliver
13. Smells Like Teen Spirit
14. Come As You Are
15. Old Age
16. Oh The Guilt
17. Rape Me
18. Rape Me
19. Heart Shaped Box
20. Do Re Mi
21. You Know You're Right
22. All Apologies
(2009) Nirvana - Live at Reading (1992Live at Reading)
01. Breed
02. Drain You
03. Aneurysm
04. School
05. Sliver
06. In Bloom
07. Come As You Are
08. Lithium
09. About A Girl
10. Tourette's
11. Polly
12. Lounge Act
13. Smells Like Teen Spirit
14. On A Plain
15. Negative Creep
16. Been A Son
17. All Apologies
18. Blew
19. Dumb
20. Stay Away
21. Spank Thru
22. The Money Will Roll Right In
23. D-7
24. Territorial Pissings
(2013) Nirvana - Bleach (Deluxe Edition)
01. Blew
02. Floyd The Barber
03. About A Girl
04. School
05. Love Buzz
06. Paper Cuts
07. Negative Creep
08. Scoff
09. Swap Meet
10. Mr. Moustache
11. Sifting
12. Big Cheese
13. Downer
14. Intro (Live at Pine Street Theatre)
15. School (Live at Pine Street Theatre)
16. Floyd The Barber (Live at Pine Street Theatre)
17. Dive (Live at Pine Street Theatre)
18. Love Buzz (Live at Pine Street Theatre)
19. Spank Thru (Live at Pine Street Theatre)
20. Molly's Lips (Live at Pine Street Theatre)
21. Sappy (Live at Pine Street Theatre)
22. Scoff (Live at Pine Street Theatre)
23. About A Girl (Live at Pine Street Theatre)
24. Been A Son (Live at Pine Street Theatre)
25. Blew (Live at Pine Street Theatre)
(2016) Nirvana - Legendary FM Radio Broadcasts - Pier 48 Seattle 1993
01. Radio Friendly Unit Shifter (KISW-FM December 1993 Remastered)
02. Drain You (KISW-FM December 1993 Remastered)
03. Breed (KISW-FM December 1993 Remastered)
04. Serve The Servant (KISW-FM December 1993 Remastered)
05. Rape Me (KISW-FM December 1993 Remastered)
06. Pennyroyal Tea (KISW-FM December 1993 Remastered)
07. Scentless Apprentice (KISW-FM December 1993 Remastered)
08. Heart-Shaped Box (KISW-FM December 1993 Remastered)
09. Lithium (KISW-FM December 1993 Remastered)
10. Endless…..(KISW-FM December 1993 Remastered)
(2018) Nirvana - Rainbow Chaser The 60s Recordings (The Island Years) [2CD]
CD1:
01. Wings Of Love
02. Lonely Boy
03. We Can Help You
04. Satellite Jockey
05. In The Courtyard Of The Stars
06. You Are Just The One
07. Pentecost Hotel
08. I Never Had A Love Like This Before
09. Take This Hand
10. 1999
11. I Believe In Magic
12. Feelin' Shattered
13. Flashbulb
14. C Side In Ocho Rios
15. Requiem To John Coltrane
16. Lonely Boy
17. I Never Had A Love Like This Before
18. Tiny Goddess
19. Life Ain't Easy
20. Goodbye Baby Bunting
21. Omnibus
22. Oscar (Oh! What A Performance)
23. Oscar (Oh! What A Performance)
24. Goodbye Baby Bunting
25. City Of The South
26. Trapeze
27. Darling Darlane
CD2:
01. Rainbow Chaser
02. Tiny Goddess
03. The Touchables (All Of Us)
04. Melanie Blue
05. Trapeze
06. The Show Must Go On
07. Girl In The Park
08. Miami Masquerade
09. Frankie The Great
10. You Can Try It
11. Everybody Loves The Clown
12. St John's Wood Affair
13. Oh! What A Performance
14. Darling Darlane
15. Rainbow Chaser
16. The Touchables (All Of Us)
17. The Show Must Go On
18. Frankie The Great
19. You Can Try It
20. Everybody Loves The Clown
21. The Touchables (All Of Us)
22. Excerpt From The Blind & The Beautiful
23. Black Flower
24. Love Suite
25. Melanie Blue
(2019) Nirvana - Live And Loud
01. Radio Friendly Unit Shifter
02. Drain You
03. Breed
04. Serve The Servants
05. Rape Me
06. Sliver
07. Pennyroyal Tea
08. Scentless Apprentice
09. All Apologies
10. Heart Shaped Box
11. Blew
12. The Man Who Sold The World
13. School
14. Come As You Are
15. Lithium
16. About A Girl
17. Endless, Nameless
(2019) Nirvana - Live At The Paramount
01. Jesus Doesn't Want Me For A Sunbeam
02. Aneurysm
03. Drain You
04. School
05. Floyd The Barber
06. Smells Like Teen Spirit
07. About A Girl
08. Polly
09. Breed
10. Sliver
11. Love Buzz
12. Lithium
13. Been A Son
14. Negative Creep
15. On A Plain
16. Blew
17. Rape Me
18. Territorial Pissings
19. Endless, Nameless
Nirvana — американская рок - группа, продвигавшая стили гранж и панк и вошедшая благодаря хиту «Smells Like Teen Spirit» (1991) в музыкальный мейнстрим 1990-х. Nirvana стала наиболее известной группой, играющей гранж; другие группы из Сиэтла, играющие в этом стиле, такие как Alice in Chains, Pearl Jam и Soundgarden, тоже стали достаточно популярными, и, в результате, всю первую половину девяностых годов после выхода альбома «Nevermind» в США на радио и музыкальном телевидении гранжу выделялась довольно значительная часть эфирного времени. В начале 90-х Курт Кобейн оказался в глазах СМИ не просто музыкантом, а «голосом поколения», а Nirvana — флагманом «поколения Х». Недолгая, но яркая история группы прервалась в 1994 году, в связи со смертью Курта Кобейна. Но в последующие годы известность группы лишь росла. Через восемь лет незавершённая демо-запись песни «You Know You're Right», над которой группа работала за два месяца до смерти Кобейна (30 января), заняла первые строчки хит-парадов США и Европы. Считая со времени выхода их дебютного альбома записи Nirvana были проданы в количестве более 60 миллионов экземпляров (по состоянию на 26 сентября 2006).

admin

Post 09-Apr-2022 05:59

[Quote]

Название: Unlimited Love [Japan Edition]
Исполнитель: Red Hot Chili Peppers
Год: 2022
Жанр: Alternative-Rock
Страна: USA
Лейбл: Warner Records
Продолжительность: 01:16:47
Формат/Кодек: MP3
Битрейт аудио: 320 kbps

Трек-лист

01 Black Summer [00:03:52]
02 Here Ever After [00:03:50]
03 Aquatic Mouth Dance [00:04:20]
04 Not The One [00:04:26]
05 Poster Child [00:05:18]
06 The Great Apes [00:05:01]
07 It`s Only Natural [00:05:33]
08 Shes A Lover [00:03:41]
09 These Are The Ways [00:03:56]
10 Whatchu Thinkin [00:03:40]
11 Bastards of Light [00:03:39]
12 White Braids & Pillow Chair [00:03:40]
13 One Way Traffic [00:04:10]
14 Veronica [00:04:29]
15 Let Em Cry [00:04:23]
16 The Heavy Wing [00:05:31]
17 Tangelo [00:03:38]
18 Nerve Flip (BONUS TRACK) [00:03:06]

admin

Post 08-Apr-2022 03:58

[Quote]

Название: Ego Trip
Исполнитель: Papa Roach
Год: 2022
Жанр: Modern-Rock, Alternative & Nu-metal
Страна: usa
Продолжительность: 00:42:55
Формат/Кодек: MP3
Битрейт аудио: 320

Трек-лист

01 - Kill The Noise [00:03:08]
02 - Stand Up [00:03:48]
03 - Swerve (feat. FEVER 333 & Sueco) [00:02:48]
04 - Bloodline [00:02:26]
05 - Liar [00:02:57]
06 - Ego Trip [00:02:54]
07 - Unglued [00:03:00]
08 - Dying To Believe [00:03:01]
09 - Killing Time [00:03:23]
10 - Leave a Light On [00:03:07]
11 - Always Wandering [00:02:46]
12 - No Apologies [00:03:08]
13 - Cut The Line [00:03:29]
14 - I Surrender [00:02:54]

admin

Post 04-Apr-2022 02:52

[Quote]

Название: Nikita
Исполнитель: John Salvage & New Twenty Saints
Год: 2022
Жанр: Alternative, Garage-Rock
Страна: USA
Продолжительность: 00:41:11
Формат/Кодек: MP3
Битрейт аудио: 320 kbps

Трек-лист

01. Waking Up The Horse 04:09
02. Bound 05:14
03. Nikita 02:51
04. Fade Away 04:22
05. Stand In The Fire 03:56
06. Don't Try Molina 05:42
07. Howling 05:51
08. Trouble Boys 04:31
09. Gone Dark 04:30

admin

Post 03-Apr-2022 03:46

[Quote]

Название: Collection
Исполнитель: Red Hot Chili Peppers
Год: 1995 - 2022
Жанр: Alternative-Rock, Funk-Rock
Страна: USA
Продолжительность: 09:05:29
Формат/Кодек: FLAC
Тип рипа: Tracks
Битрейт аудио: Lossless
Носитель: CD

Collection:

1995 - One Hot Minute

01. Warped (5:05)
02. Aeroplane (4:45)
03. Deep Kick (6:34)
04. My Friends (4:03)
05. Coffee Shop (3:09)
06. Pea (1:47)
07. One Big Mob (6:02)
08. Walkabout (5:07)
09. Tearjerker (4:20)
10. One Hot Minute (6:24)
11. Falling Into Grace (3:48)
12. Shallow Be Thy Game (4:34)
13. Transcending (5:50)
14. Melancholy Mechanics (4:29)

DRM
foobar2000 1.5.5 / Замер динамического диапазона (DR) 1.1.1
Анализ: Red Hot Chili Peppers / One Hot Minute
--------------------------------------------------------------------------------
DR Пики RMS Продолжительность трека
--------------------------------------------------------------------------------
DR11 -0.60 дБ -14.48 дБ 5:05 01-Warped
DR12 -0.50 дБ -15.35 дБ 4:45 02-Aeroplane
DR11 -0.90 дБ -15.25 дБ 6:34 03-Deep Kick
DR11 -1.30 дБ -15.19 дБ 4:03 04-My Friends
DR11 -0.78 дБ -13.26 дБ 3:09 05-Coffee Shop
DR12 -5.39 дБ -19.96 дБ 1:47 06-Pea
DR11 -0.56 дБ -14.29 дБ 6:02 07-One Big Mob
DR13 -0.79 дБ -16.51 дБ 5:07 08-Walkabout
DR11 -0.93 дБ -15.55 дБ 4:20 09-Tearjerker
DR13 -0.70 дБ -14.58 дБ 6:24 10-One Hot Minute
DR13 -0.80 дБ -15.37 дБ 3:48 11-Falling Into Grace
DR11 -0.64 дБ -12.93 дБ 4:34 12-Shallow Be Thy Game
DR12 -1.09 дБ -14.15 дБ 5:50 13-Transcending
DR14 -1.32 дБ -19.53 дБ 4:29 14-Melancholy Mechanics [Japan bonus track]
--------------------------------------------------------------------------------
Количество треков: 14
Реальные значения DR: DR12
Частота: 44100 Гц
Каналов: 2
Разрядность: 16
Битрейт: 833 кбит/с
Кодек: FLAC

1999 - Californication

01. Around the World (3:59)
02. Parallel Universe (4:30)
03. Scar Tissue (3:37)
04. Otherside (4:15)
05. Get on Top (3:19)
06. Californication (5:22)
07. Easily (3:51)
08. Porcelain (2:44)
09. Emit Remmus (4:01)
10. I Like Dirt (2:38)
11. This Velvet Glove (3:45)
12. Savior (4:53)
13. Purple Stain (4:14)
14. Right on Time (1:53)
15. Road Trippin' (3:26)
16. Gong Li [non LP track] (3:44)
17. How Strong [non LP track] (4:44)
18. Instrumental #2 [non LP track] (2:35)

DRM
foobar2000 1.5.5 / Замер динамического диапазона (DR) 1.1.1
Анализ: Red Hot Chili Peppers / Californication
--------------------------------------------------------------------------------
DR Пики RMS Продолжительность трека
--------------------------------------------------------------------------------
DR11 -1.59 дБ -14.34 дБ 3:59 01-Around the World
DR11 -0.77 дБ -13.47 дБ 4:30 02-Parallel Universe
DR10 -1.91 дБ -13.53 дБ 3:37 03-Scar Tissue
DR11 -0.79 дБ -13.17 дБ 4:15 04-Otherside
DR10 -1.49 дБ -12.90 дБ 3:19 05-Get on Top
DR10 -0.49 дБ -13.30 дБ 5:22 06-Californication
DR10 -0.83 дБ -13.31 дБ 3:51 07-Easily
DR11 -2.98 дБ -15.29 дБ 2:44 08-Porcelain
DR10 -2.65 дБ -14.25 дБ 4:01 09-Emit Remmus
DR12 -0.62 дБ -13.89 дБ 2:38 10-I Like Dirt
DR11 -1.42 дБ -15.04 дБ 3:45 11-This Velvet Glove
DR10 -2.00 дБ -13.67 дБ 4:53 12-Savior
DR11 -2.06 дБ -14.32 дБ 4:14 13-Purple Stain
DR11 -1.23 дБ -13.74 дБ 1:53 14-Right on Time
DR9 -4.27 дБ -15.10 дБ 3:26 15-Road Trippin'
DR11 -0.59 дБ -14.48 дБ 3:44 16-Gong Li [non LP track]
DR11 -0.51 дБ -12.17 дБ 4:44 17-How Strong [non LP track]
DR11 -0.62 дБ -12.84 дБ 2:35 18-Instrumental #2 [non LP track]
--------------------------------------------------------------------------------
Количество треков: 18
Реальные значения DR: DR11
Частота: 44100 Гц
Каналов: 2
Разрядность: 16
Битрейт: 840 кбит/с
Кодек: FLAC

2002 - By the Way

01. By the Way (3:38)
02. Universally Speaking (4:19)
03. This is the Place (4:18)
04. Dosed (5:12)
05. Don't Forget Me (4:38)
06. The Zephyr Song (3:53)
07. Can't Stop (4:29)
08. I Could Die For You (3:14)
09. Midnight (4:56)
10. Throw Away Your Television (3:45)
11. Cabron (3:38)
12. Tear (5:17)
13. On Mercury (3:28)
14. Minor Thing (3:38)
15. Warm Tape (4:17)
16. Venice Queen (6:08)
17. Time (3:47)

DRM
foobar2000 1.5.5 / Замер динамического диапазона (DR) 1.1.1
Анализ: Red Hot Chili Peppers / By the Way
--------------------------------------------------------------------------------
DR Пики RMS Продолжительность трека
--------------------------------------------------------------------------------
DR10 -1.32 дБ -13.79 дБ 3:38 01-By the Way
DR10 -1.18 дБ -12.64 дБ 4:19 02-Universally Speaking
DR10 -0.81 дБ -12.64 дБ 4:18 03-This is the Place
DR10 -1.08 дБ -12.72 дБ 5:12 04-Dosed
DR9 -1.33 дБ -13.57 дБ 4:38 05-Don't Forget Me
DR11 -1.06 дБ -13.21 дБ 3:53 06-The Zephyr Song
DR11 -0.88 дБ -13.20 дБ 4:29 07-Can't Stop
DR11 -0.60 дБ -14.33 дБ 3:14 08-I Could Die For You
DR10 -1.36 дБ -14.25 дБ 4:56 09-Midnight
DR10 -1.03 дБ -12.54 дБ 3:45 10-Throw Away Your Television
DR10 -0.77 дБ -12.77 дБ 3:38 11-Cabron
DR10 -1.60 дБ -14.20 дБ 5:17 12-Tear
DR10 -1.43 дБ -13.26 дБ 3:28 13-On Mercury
DR10 -1.15 дБ -12.49 дБ 3:38 14-Minor Thing
DR10 -1.27 дБ -12.71 дБ 4:17 15-Warm Tape
DR10 -0.72 дБ -12.22 дБ 6:08 16-Venice Queen
DR10 -0.51 дБ -14.08 дБ 3:47 17-Time [Japan bonus track]
--------------------------------------------------------------------------------
Количество треков: 17
Реальные значения DR: DR10
Частота: 44100 Гц
Каналов: 2
Разрядность: 16
Битрейт: 913 кбит/с
Кодек: FLAC

2006 - Stadium Arcadium

01. Dani California (4:42)
02. Snow (Hey Oh) (5:35)
03. Charlie (4:38)
04. Stadium Arcadium (5:16)
05. Hump de Bump (3:33)
06. She's Only 18 (3:25)
07. Slow Cheetah (5:20)
08. Torture Me (3:45)
09. Strip My Mind (4:19)
10. Especially in Michigan (4:01)
11. Warlocks (3:26)
12. C'mon Girl (3:49)
13. Wet Sand (5:10)
14. Hey (5:40)
15. Desecration Smile (5:02)
16. Tell Me Baby (4:08)
17. Hard to Concentrate (4:02)
18. 21st Century (4:22)
19. She Looks to Me (4:06)
20. Readymade (4:31)
21. If (2:53)
22. Make You Feel Better (3:52)
23. Animal Bar (5:25)
24. So Much I (3:45)
25. Storm in a Teacup (3:45)
26. We Believe (3:36)
27. Turn it Again (6:06)
28. Death of a Martian (4:25)

DRM
foobar2000 1.5.5 / Замер динамического диапазона (DR) 1.1.1
Анализ: Red Hot Chili Peppers / Stadium Arcadium
--------------------------------------------------------------------------------
DR Пики RMS Продолжительность трека
--------------------------------------------------------------------------------
DR11 -0.51 дБ -13.42 дБ 4:42 01-Dani California
DR11 -0.58 дБ -12.53 дБ 5:35 02-Snow (Hey Oh)
DR11 -0.86 дБ -14.81 дБ 4:38 03-Charlie
DR11 -1.11 дБ -14.79 дБ 5:16 04-Stadium Arcadium
DR11 -0.69 дБ -14.29 дБ 3:33 05-Hump de Bump
DR11 -0.90 дБ -13.75 дБ 3:25 06-She's Only 18
DR12 -0.58 дБ -16.39 дБ 5:20 07-Slow Cheetah
DR11 -0.50 дБ -13.73 дБ 3:45 08-Torture Me
DR12 -0.71 дБ -15.66 дБ 4:19 09-Strip My Mind
DR12 -0.72 дБ -14.61 дБ 4:01 10-Especially in Michigan
DR12 -0.49 дБ -14.47 дБ 3:26 11-Warlocks
DR11 -0.89 дБ -14.73 дБ 3:49 12-C'mon Girl
DR11 -1.20 дБ -15.32 дБ 5:10 13-Wet Sand
DR13 -0.68 дБ -15.19 дБ 5:40 14-Hey
DR11 -1.00 дБ -14.48 дБ 5:02 15-Desecration Smile
DR12 -0.59 дБ -14.49 дБ 4:08 16-Tell Me Baby
DR12 -0.92 дБ -15.53 дБ 4:02 17-Hard to Concentrate
DR11 -0.59 дБ -14.74 дБ 4:22 18-21st Century
DR11 -0.86 дБ -14.13 дБ 4:06 19-She Looks to Me
DR11 -0.70 дБ -13.10 дБ 4:31 20-Readymade
DR11 -6.37 дБ -20.44 дБ 2:53 21-If
DR11 -0.79 дБ -14.31 дБ 3:52 22-Make You Feel Better
DR10 -0.73 дБ -13.74 дБ 5:25 23-Animal Bar
DR11 -0.58 дБ -13.25 дБ 3:45 24-So Much I
DR10 -0.69 дБ -14.07 дБ 3:45 25-Storm in a Teacup
DR11 -0.50 дБ -15.17 дБ 3:36 26-We Believe
DR12 -0.60 дБ -14.17 дБ 6:06 27-Turn it Again
DR12 -0.52 дБ -13.87 дБ 4:25 28-Death of a Martian
--------------------------------------------------------------------------------
Количество треков: 28
Реальные значения DR: DR11
Частота: 44100 Гц
Каналов: 2
Разрядность: 16
Битрейт: 872 кбит/с
Кодек: FLAC

2011 - I'm With You

01. Monarchy of Roses (4:12)
02. Factory of Faith (4:22)
03. Brendan's Death Song (5:40)
04. Ethiopia (3:51)
05. Annie Wants a Baby (3:41)
06. Look Around (3:28)
07. The Adventures of Rain Dance Maggie (4:43)
08. Did I Let You Know (4:22)
09. Goodbye Hooray (3:53)
10. Happiness Loves Company (3:33)
11. Police Station (5:36)
12. Even You Brutus? (4:01)
13. Meet Me at the Corner (4:22)
14. Dance, Dance, Dance (3:46)
15. Strange Man [bonus track] (3:39)
16. Long Progression [bonus track] (4:00)
17. Magpies on Fire [bonus track] (3:45)
18. Victorian Machinery [bonus track] (4:07)
19. Never is a Long Time [bonus track] (2:47)
20. Love of Your Life [bonus track] (4:05)
21. The Sunset Sleeps [bonus track] (4:00)
22. Hometown Gypsy [bonus track] (3:58)

DRM
foobar2000 1.5.5 / Замер динамического диапазона (DR) 1.1.1
Анализ: Red Hot Chili Peppers / I'm With You
--------------------------------------------------------------------------------
DR Пики RMS Продолжительность трека
--------------------------------------------------------------------------------
DR11 -0.66 дБ -13.26 дБ 4:12 01-Monarchy of Roses
DR11 -0.74 дБ -13.71 дБ 4:22 02-Factory of Faith
DR11 -0.50 дБ -14.17 дБ 5:40 03-Brendan's Death Song
DR11 -0.85 дБ -14.28 дБ 3:51 04-Ethiopia
DR11 -0.50 дБ -12.76 дБ 3:41 05-Annie Wants a Baby
DR10 -0.52 дБ -12.67 дБ 3:28 06-Look Around
DR10 -0.77 дБ -13.41 дБ 4:43 07-The Adventures of Rain Dance Maggie
DR13 -0.60 дБ -14.43 дБ 4:22 08-Did I Let You Know
DR11 -0.79 дБ -13.44 дБ 3:53 09-Goodbye Hooray
DR12 -0.76 дБ -13.42 дБ 3:33 10-Happiness Loves Company
DR11 -0.98 дБ -14.38 дБ 5:36 11-Police Station
DR11 -0.70 дБ -14.08 дБ 4:01 12-Even You Brutus?
DR10 -0.71 дБ -14.12 дБ 4:22 13-Meet Me at the Corner
DR9 -0.49 дБ -11.73 дБ 3:46 14-Dance, Dance, Dance
DR11 -1.30 дБ -13.46 дБ 3:39 15-Strange Man [bonus track]
DR11 -0.98 дБ -13.22 дБ 4:00 16-Long Progression [bonus track]
DR10 -0.70 дБ -12.59 дБ 3:45 17-Magpies on Fire [bonus track]
DR10 -0.96 дБ -12.59 дБ 4:07 18-Victorian Machinery [bonus track]
DR10 -0.96 дБ -13.06 дБ 2:47 19-Never is a Long Time [bonus track]
DR10 -0.67 дБ -13.13 дБ 4:05 20-Love of Your Life [bonus track]
DR11 -0.52 дБ -14.48 дБ 4:00 21-The Sunset Sleeps [bonus track]
DR11 -1.07 дБ -14.31 дБ 3:58 22-Hometown Gypsy [bonus track]
--------------------------------------------------------------------------------
Количество треков: 22
Реальные значения DR: DR11
Частота: 44100 Гц
Каналов: 2
Разрядность: 16
Битрейт: 855 кбит/с
Кодек: FLAC

2016 - The Getaway

01. The Getaway (4:10)
02. Dark Necessities (5:02)
03. We Turn Red (3:20)
04. The Longest Wave (3:32)
05. Goodbye Angels (4:29)
06. Sick Love (3:41)
07. Go Robot (4:24)
08. Feasting on the Flowers (3:23)
09. Detroit (3:47)
10. This Ticonderoga (3:35)
11. Encore (4:15)
12. The Hunter (4:00)
13. Dreams of a Samurai (6:09)

DRM
foobar2000 1.5.5 / Замер динамического диапазона (DR) 1.1.1
Анализ: Red Hot Chili Peppers / The Getaway
--------------------------------------------------------------------------------
DR Пики RMS Продолжительность трека
--------------------------------------------------------------------------------
DR11 0.00 дБ -12.27 дБ 4:10 01-The Getaway
DR11 -0.52 дБ -13.67 дБ 5:02 02-Dark Necessities
DR10 -0.80 дБ -11.82 дБ 3:20 03-We Turn Red
DR10 -0.61 дБ -13.61 дБ 3:32 04-The Longest Wave
DR10 -0.67 дБ -13.75 дБ 4:29 05-Goodbye Angels
DR10 -0.76 дБ -12.31 дБ 3:41 06-Sick Love
DR11 -0.96 дБ -13.44 дБ 4:24 07-Go Robot
DR10 -1.11 дБ -13.04 дБ 3:23 08-Feasting on the Flowers
DR11 -0.68 дБ -12.78 дБ 3:47 09-Detroit
DR10 -0.98 дБ -12.97 дБ 3:35 10-This Ticonderoga
DR9 -0.65 дБ -11.91 дБ 4:15 11-Encore
DR9 -1.68 дБ -13.61 дБ 4:00 12-The Hunter
DR10 -0.58 дБ -14.09 дБ 6:09 13-Dreams of a Samurai
--------------------------------------------------------------------------------
Количество треков: 13
Реальные значения DR: DR10
Частота: 44100 Гц
Каналов: 2
Разрядность: 16
Битрейт: 775 кбит/с
Кодек: FLAC

2022 - Unlimited Love

01. Black Summer (3:52)
02. Here Ever After (3:50)
03. Aquatic Mouth Dance (4:21)
04. Not the One (4:26)
05. Poster Child (5:18)
06. The Great Apes (5:02)
07. It's Only Natural (5:34)
08. She's a Lover (3:41)
09. These Are the Ways (3:56)
10. Whatchu Thinkin' (3:41)
11. Bastards of Light (3:39)
12. White Braids & Pillow Chair (3:41)
13. One Way Traffic (4:11)
14. Veronica (4:29)
15. Let 'Em Cry (4:23)
16. The Heavy Wing (5:31)
17. Tangelo (3:38)

DRM
foobar2000 1.5.5 / Замер динамического диапазона (DR) 1.1.1
Анализ: Red Hot Chili Peppers / Unlimited Love
--------------------------------------------------------------------------------
DR Пики RMS Продолжительность трека
--------------------------------------------------------------------------------
DR11 -0.50 дБ -13.94 дБ 3:52 01-Black Summer
DR11 -0.50 дБ -12.29 дБ 3:50 02-Here Ever After
DR12 -0.50 дБ -13.88 дБ 4:21 03-Aquatic Mouth Dance
DR12 -1.50 дБ -15.58 дБ 4:26 04-Not the One
DR13 -0.49 дБ -14.98 дБ 5:18 05-Poster Child
DR11 -0.50 дБ -12.96 дБ 5:02 06-The Great Apes
DR13 -0.49 дБ -14.87 дБ 5:34 07-It's Only Natural
DR12 -0.50 дБ -14.62 дБ 3:41 08-She's a Lover
DR10 -1.01 дБ -13.28 дБ 3:56 09-These Are the Ways
DR11 -0.50 дБ -13.37 дБ 3:41 10-Whatchu Thinkin'
DR11 -1.49 дБ -14.38 дБ 3:39 11-Bastards of Light
DR11 -1.50 дБ -14.30 дБ 3:41 12-White Braids & Pillow Chair
DR11 -1.50 дБ -13.88 дБ 4:11 13-One Way Traffic
DR11 -0.99 дБ -14.40 дБ 4:29 14-Veronica
DR12 -1.50 дБ -15.73 дБ 4:23 15-Let 'Em Cry
DR11 -1.00 дБ -13.63 дБ 5:31 16-The Heavy Wing
DR12 -4.88 дБ -20.53 дБ 3:38 17-Tangelo
--------------------------------------------------------------------------------
Количество треков: 17
Реальные значения DR: DR12
Частота: 44100 Гц
Каналов: 2
Разрядность: 16
Битрейт: 875 кбит/с
Кодек: FLAC

admin

Post 02-Apr-2022 04:15

[Quote]

Название: This is Nu Metal!
Исполнитель: The Violent Inzident
Год: 2022
Жанр: Nu-Metal
Страна: Germany
Лейбл: Suburban Music Group
Продолжительность: 00:38:10
Формат/Кодек: MP3
Битрейт аудио: 320 kbps

Трек-лист

01. Nu Metal! [00:02:44]
02. I Love Nu Metal [00:03:05]
03. Whores of Instagram [00:04:26]
04. Disastinder [00:03:06]
05. Triggered (The Snowflake Anthem) [00:03:22]
06. The Violent Inzident [00:03:15]
07. Brazil is Great [00:03:33]
08. Down with Your Mistress [00:03:34]
09. Tears Are Fallling (From My Arse) [00:03:49]
10. D.a.R.E to Keep Kids on Drugs [00:03:57]
11. Fou Fou [00:03:13]

admin

Post 02-Apr-2022 03:20

[Quote]

Название: Greatest Hits
Исполнитель: Red Hot Chili Peppers
Год: 2003/2014
Жанр: Alternative-Rock
Страна: USA
Продолжительность: 01:06:49
Формат/Кодек: FLAC
Тип рипа: Tracks
Битрейт аудио: Lossless
Разрядность: 24 Bit/96 kHz
Носитель: WEB

Трек-лист

01. Under the Bridge (4:33)
02. Give it Away (4:44)
03. Californication (5:29)
04. Scar Tissue (3:35)
05. Soul to Squeeze (4:50)
06. Otherside (4:15)
07. Suck My Kiss (3:35)
08. By the Way (3:35)
09. Parallel Universe (4:29)
10. Breaking the Girl (4:54)
11. My Friends (4:09)
12. Higher Ground (3:22)
13. Universally Speaking (4:16)
14. Road Trippin' (3:25)
15. Fortune Faded (3:21)
16. Save the Population (4:05)

DRM
foobar2000 1.3.13 / Замер динамического диапазона (DR) 1.1.1
--------------------------------------------------------------------------------
Анализ: Red Hot Chili Peppers / Greatest Hits
--------------------------------------------------------------------------------
DR Пики RMS Продолжительность трека
--------------------------------------------------------------------------------
DR6 0.00 дБ -8.87 дБ 4:34 01-Under The Bridge
DR5 0.00 дБ -5.72 дБ 4:45 02-Give It Away
DR4 0.00 дБ -5.83 дБ 5:30 03-Californication
DR5 0.00 дБ -6.24 дБ 3:36 04-Scar Tissue
DR6 0.00 дБ -7.43 дБ 4:50 05-Soul To Squeeze
DR4 0.00 дБ -5.30 дБ 4:16 06-Otherside
DR5 0.00 дБ -5.48 дБ 3:36 07-Suck My Kiss
DR5 0.00 дБ -6.65 дБ 3:36 08-By The Way
DR4 0.00 дБ -5.49 дБ 4:29 09-Parallel Universe
DR6 0.00 дБ -6.82 дБ 4:55 10-Breaking The Girl
DR5 0.00 дБ -7.30 дБ 4:09 11-My Friends
DR6 0.00 дБ -7.33 дБ 3:23 12-Higher Ground
DR6 0.00 дБ -6.84 дБ 4:17 13-Universally Speaking
DR6 0.00 дБ -7.16 дБ 3:26 14-Road Trippin'
DR5 0.00 дБ -6.59 дБ 3:21 15-Fortune Faded
DR6 0.00 дБ -7.25 дБ 4:06 16-Save The Population
--------------------------------------------------------------------------------
Количество треков: 16
Реальные значения DR: DR5
Частота: 96000 Гц
Каналов: 2
Разрядность: 24
Битрейт: 3438 кбит/с
Кодек: FLAC
================================================================================

admin

Post 01-Apr-2022 03:40

[Quote]

Название: Unlimited Love
Исполнитель: Red Hot Chili Peppers
Год: 2022
Жанр: Alternative-Rock
Страна: USA
Продолжительность: 01:13:10
Формат/Кодек: FLAC
Тип рипа: Tracks
Битрейт аудио: Lossless
Носитель: WEB

Трек-лист

01. Black Summer (3:52)
02. Here Ever After (3:50)
03. Aquatic Mouth Dance (4:21)
04. Not the One (4:26)
05. Poster Child (5:18)
06. The Great Apes (5:02)
07. It's Only Natural (5:34)
08. She's a Lover (3:41)
09. These Are the Ways (3:56)
10. Whatchu Thinkin' (3:41)
11. Bastards of Light (3:39)
12. White Braids & Pillow Chair (3:41)
13. One Way Traffic (4:11)
14. Veronica (4:29)
15. Let 'Em Cry (4:23)
16. The Heavy Wing (5:31)
17. Tangelo (3:38)

DRM + Лог проверки качества
foobar2000 1.5.5 / Замер динамического диапазона (DR) 1.1.1
--------------------------------------------------------------------------------
Анализ: Red Hot Chili Peppers / Unlimited Love
--------------------------------------------------------------------------------
DR Пики RMS Продолжительность трека
--------------------------------------------------------------------------------
DR6 0.00 дБ -8.13 дБ 3:52 01-Black Summer
DR5 0.00 дБ -6.36 дБ 3:50 02-Here Ever After
DR7 0.00 дБ -8.01 дБ 4:21 03-Aquatic Mouth Dance
DR8 0.00 дБ -9.69 дБ 4:26 04-Not the One
DR8 0.00 дБ -9.18 дБ 5:17 05-Poster Child
DR5 0.00 дБ -7.14 дБ 5:02 06-The Great Apes
DR7 0.00 дБ -9.05 дБ 5:34 07-It's Only Natural
DR7 0.00 дБ -8.73 дБ 3:41 08-She's a Lover
DR6 0.00 дБ -7.48 дБ 3:56 09-These Are the Ways
DR5 0.00 дБ -7.52 дБ 3:41 10-Whatchu Thinkin'
DR7 0.00 дБ -8.55 дБ 3:39 11-Bastards of Light
DR7 0.00 дБ -8.35 дБ 3:41 12-White Braids & Pillow Chair
DR7 0.00 дБ -7.90 дБ 4:11 13-One Way Traffic
DR7 0.00 дБ -8.53 дБ 4:29 14-Veronica
DR8 0.00 дБ -9.70 дБ 4:23 15-Let 'Em Cry
DR6 0.00 дБ -7.76 дБ 5:31 16-The Heavy Wing
DR11 -0.67 дБ -14.88 дБ 3:34 17-Tangelo
--------------------------------------------------------------------------------
Количество треков: 17
Реальные значения DR: DR7
Частота: 44100 Гц
Каналов: 2
Разрядность: 16
Битрейт: 749 кбит/с
Кодек: FLAC
================================================================================
-----------------------
DON'T MODIFY THIS FILE
-----------------------
PERFORMER: auCDtect Task Manager, ver. 1.6.0 RC1 build 1.6.0.1
Copyright (c) 2008-2010 y-soft. All rights reserved
http://y-soft.org
ANALYZER: auCDtect: CD records authenticity detector, version 0.8.2
Copyright (c) 2004 Oleg Berngardt. All rights reserved.
Copyright (c) 2004 Alexander Djourik. All rights reserved.
FILE: 01. Black Summer.flac
Size: 31519367 Hash: 2F958FFAF1587547A962299751A51254 Accuracy: -m8
Conclusion: CDDA 100%
Signature: 52B7BA4A8C92A07AE654D86B8CC7F508D3AF05E1
FILE: 02. Here Ever After.flac
Size: 31369495 Hash: 1C02C5502F1D0B758B636EBE37226FE0 Accuracy: -m8
Conclusion: CDDA 100%
Signature: D7718665C49D4169DFC719F19957401A81532A23
FILE: 03. Aquatic Mouth Dance.flac
Size: 36435810 Hash: EB597227736774D673B75F20920BB6E9 Accuracy: -m8
Conclusion: CDDA 100%
Signature: 5DDE5653FD72030E026DA3BB853F87117290CD4B
FILE: 04. Not the One.flac
Size: 31723319 Hash: A38B1834A9CE4DD195B30ADDA2A6710E Accuracy: -m8
Conclusion: CDDA 100%
Signature: 38342E1BE8796C32AD750AC385B2EC6548926EF4
FILE: 05. Poster Child.flac
Size: 43222147 Hash: 921F2C3FB76A1300E8BB307E5B28F7C7 Accuracy: -m8
Conclusion: CDDA 100%
Signature: F0479E3635DCAA6AB4311DCE9602DBF0D12B2338
FILE: 06. The Great Apes.flac
Size: 41053481 Hash: 33770613D2F7EA7BD581931A69331A9A Accuracy: -m8
Conclusion: CDDA 100%
Signature: 4658B1443682998115379C3FEBEDB4BB3C245345
FILE: 07. It's Only Natural.flac
Size: 42720485 Hash: 480DC57D6AD40D4F73062664E5631FBD Accuracy: -m8
Conclusion: CDDA 100%
Signature: 071F3A54859D9DFDC01F494C67CF7FF5424AE378
FILE: 08. She's a Lover.flac
Size: 31017387 Hash: 9955EDBB9A9B8EAEEEC25B90A29DBE83 Accuracy: -m8
Conclusion: CDDA 100%
Signature: 6709C6D4C35199269315DDC89B05B10CFEEB1B42
FILE: 09. These Are the Ways.flac
Size: 33959258 Hash: 94DB89AF2C8DF64F3B72F702DC1E772B Accuracy: -m8
Conclusion: CDDA 100%
Signature: 9E02787BB66D286EE337B74846F97E04262D3DF7
FILE: 10. Whatchu Thinkin'.flac
Size: 31890280 Hash: 83098E1B1FAC472851AE665F052824F5 Accuracy: -m8
Conclusion: CDDA 99%
Signature: 1134F1157339084C8F8399970A2586F70F3CB3C6
FILE: 11. Bastards of Light.flac
Size: 29530849 Hash: CC93248E8AF27C5D7709E940ADA3BDA3 Accuracy: -m8
Conclusion: CDDA 100%
Signature: 14F03A3C84776AD57C2914DA5C4AC939389476AC
FILE: 12. White Braids & Pillow Chair.flac
Size: 29598936 Hash: 3394D958A3F93FBC6CCDA757A8846AAD Accuracy: -m8
Conclusion: CDDA 100%
Signature: 7710FCEDCAD5C81AB4D5F24CBB2299B835BF65FD
FILE: 13. One Way Traffic.flac
Size: 35733107 Hash: EB0F28186361F41A4316E71322B1882C Accuracy: -m8
Conclusion: CDDA 100%
Signature: 59FB9B4BC153C5327FB4F7C68BC432349348B00D
FILE: 14. Veronica.flac
Size: 36123233 Hash: C88441EF2034C412F11F6A2D9DF30458 Accuracy: -m8
Conclusion: CDDA 100%
Signature: B0DC1A724D6301EA4879A9A8F9A539A83AE641B2
FILE: 15. Let 'Em Cry.flac
Size: 34266594 Hash: CE65EDE1FABE0AAFB7C4980D739A71AA Accuracy: -m8
Conclusion: CDDA 100%
Signature: ED2148339CBCB25F614B9AAEFD39EF5295ED4432
FILE: 16. The Heavy Wing.flac
Size: 44357753 Hash: 13E2AF5DDE3F016D13734B062A7725A0 Accuracy: -m8
Conclusion: CDDA 100%
Signature: 28A41C9122A5D6C4DE700FC3B69230E06E411986
FILE: 17. Tangelo.flac
Size: 24245534 Hash: 61C26BBE2920B1F01761DE02C58EE491 Accuracy: -m8
Conclusion: CDDA 100%
Signature: 478C53949F4136857F8E70F42E513B6C20BD4DCD

admin

Post 26-Mar-2022 06:19

[Quote]

Название: Resilience
Исполнитель: Lost Zone
Год: 2022
Жанр: Alternative, Modern-Rock
Страна: Italy
Лейбл: Exact Management & Publishing
Продолжительность: 00:35:46
Формат/Кодек: MP3
Битрейт аудио: 320 kbps

Трек-лист

01 - Leftovers (Explicit) [00:03:06]
02 - Burst Like Dynamite [00:03:58]
03 - Other Side [00:03:18]
04 - Fall For You [00:03:25]
05 - Boundaries [00:03:40]
06 - Arrive [00:01:04]
07 - Animal [00:03:31]
08 - Broken Pieces [00:03:37]
09 - Last December [00:03:16]
10 - Blacked Out [00:03:27]
11 - Shallow Waters [00:03:19]

admin

Post 26-Mar-2022 05:39

[Quote]

Название: Never Let Me Go
Исполнитель: Placebo
Год: 2022
Жанр: Alternative, Indie-Rock
Издатель-лейбл: Rise Records / So Recordings
Продолжительность: 00:57:44
Формат/Кодек: FLAC
Битрейт аудио: 24-Bit 48.0 kHz - Stereo

Трек-лист

01. Forever Chemicals (5:10)
02. Beautiful James (4:09)
03. Hugz (3:52)
04. Happy Birthday In The Sky (5:09)
05. The Prodigal (4:47)
06. Surrounded By Spies (5:15)
07. Try Better Next Time (3:08)
08. Sad White Reggae (3:25)
09. Twin Demons (3:59)
10. Chemtrails (4:31)
11. This Is What You Wanted (4:12)
12. Went Missing (5:06)
13. Fix Yourself (5:01)

Dynamic Range Meter

foobar2000 1.6.9 / Dynamic Range Meter 1.1.1
--------------------------------------------------------------------------------
Analyzed: Placebo / Never Let Me Go
--------------------------------------------------------------------------------
DR Peak RMS Duration Track
--------------------------------------------------------------------------------
DR5 -0.43 dB -7.60 dB 5:10 01-Forever Chemicals
DR6 -0.42 dB -7.61 dB 4:09 02-Beautiful James
DR5 -0.41 dB -6.88 dB 3:52 03-Hugz
DR5 -0.43 dB -8.11 dB 5:09 04-Happy Birthday In The Sky
DR7 -0.43 dB -8.87 dB 4:47 05-The Prodigal
DR5 -0.43 dB -8.07 dB 5:15 06-Surrounded By Spies
DR5 -0.43 dB -7.73 dB 3:08 07-Try Better Next Time
DR5 -0.41 dB -8.82 dB 3:25 08-Sad White Reggae
DR5 -0.43 dB -6.44 dB 3:59 09-Twin Demons
DR6 -0.41 dB -7.62 dB 4:31 10-Chemtrails
DR6 -0.43 dB -9.69 dB 4:12 11-This Is What You Wanted
DR5 -0.43 dB -8.22 dB 5:06 12-Went Missing
DR8 -0.43 dB -9.86 dB 5:01 13-Fix Yourself
--------------------------------------------------------------------------------
Number of tracks: 13
Official DR value: DR6
Samplerate: 48000 Hz
Channels: 2
Bits per sample: 24
Bitrate: 1675 kbps
Codec: FLAC
================================================================================

admin

Post 26-Mar-2022 05:26

[Quote]

Название: Collection
Исполнитель: Placebo
Год: 1996-2016
Жанр: Alternative-Rock
Страна: United Kingdom
Продолжительность: 16:15:16
Формат/Кодек: FLAC
Тип рипа: Image+.cue
Битрейт аудио: Lossless
Носитель: CD

Трек-лист

2004 - Once More With Feeling (Singles 1996-2004)
01. 36 Degrees [3:08]
02. Teenage Angst [2:40]
03. Nancy Boy [3:20]
04. Bruise Pristine [3:36]
05. Pure Morning [3:59]
06. You Don't Care About Us [4:01]
07. Every You Every Me [3:34]
08. Without You I'm Nothing (Feat. David Bowie) [4:14]
09. Taste In Men [4:00]
10. Slave To The Wage [3:46]
11. Special K [3:50]
12. Black-Eyed [3:44]
13. The Bitter End [3:12]
14. This Picture [3:36]
15. Special Needs [3:29]
16. English Summer Rain [3:10]
17. Protege Moi [3:15]
18. I Do [2:28]
19. Twenty Years [4:19]
2007 - Extended Play
01. Nancy Boy [3:19]
02. Every You Every Me [3:34]
03. Taste In Men [4:00]
04. The Bitter End [3:11]
05. Meds (feat. Alison Mosshart) [2:55]
06. Pure Morning (Live from Arras) [5:26]
07. Infra-Red (Live from Nimes) [4:18]
08. Running Up That Hill (Live from Santiago) [8:46]
2009 - Battle For The Sun
CD 1: Battle For The Sun
01. Kitty Litter [3:48]
02. Ashtray Heart [3:32]
03. Battle For The Sun [5:32]
04. For What It's Worth [2:47]
05. Devil In The Details [4:28]
06. Bright Lights (single version) [3:32]
07. Speak In Tongues [4:05]
08. The Never-Ending Why [3:23]
09. Julien [4:43]
10. Happy You're Gone [3:51]
11. Breathe Underwater [3:44]
12. Come Undone [4:36]
13. Kings Of Medicine [4:12]
14. Post Blue (Chinese Mix) [5:25]
CD 2: Redux
01. Trigger Happy Hands [4:16]
02. Monster Truck [2:52]
03. Breathe Underwater (Slow) [5:31]
04. Unisex [4:05]
05. Because I Want You (Redux) [4:20]
06. Blind (Redux) [4:06]
07. Drag (Redux) [3:34]
08. Twenty Years (Redux) [4:39]
09. Soulmates (Redux) [4:02]
10. Trigger Happy Hands (Buffalo Daughter Remix) [4:24]
2009 - The Hut Recordings
Placebo
01. Come Home [5:09]
02. Teenage Angst [2:42]
03. Bionic [5:00]
04. 36 Degrees [3:05]
05. Hang on to Your IQ [5:13]
06. Nancy Boy [3:31]
07. I Know [4:44]
08. Bruise Pristine [3:36]
09. Lady of the Flowers [4:48]
10. Swallow [22:24]
Without You I'm Nothing
01. Pure Morning [4:15]
02. Brick Shithouse [3:18]
03. You Don't Care About Us [3:58]
04. Ask for Answers [5:20]
05. Without You I'm Nothing [4:09]
06. Allergic (To Thoughts Of Mother Earth) [3:49]
07. The Crawl [2:59]
08. Every You Every Me [3:34]
09. My Sweet Prince [5:45]
10. Summer's Gone [3:06]
11. Scared Of Girls [3:01]
12. Burger Queen [22:39]
Black Market Music
01. Taste in Men [4:15]
02. Days Before You Came [2:33]
03. Special K [3:52]
04. Spite & Malice [3:37]
05. Passive Aggressive [5:24]
06. Black-Eyed [3:48]
07. Blue American [3:31]
08. Slave to the Wage [4:07]
09. Commercial for Levi [2:21]
10. Haemoglobin [3:46]
11. Narcoleptic [4:22]
12. Peeping Tom [14:11]
Sleeping With Ghosts
CD 1: Sleeping With Ghosts
01. Bulletproof Cupid [2:23]
02. English Summer Rain [4:01]
03. This Picture [3:35]
04. Sleeping with Ghosts [4:39]
05. The Bitter End [3:11]
06. Something Rotten [5:28]
07. Plasticine [3:27]
08. Special Needs [5:16]
09. I'll Be Yours [3:32]
10. Second Sight [2:50]
11. Protect me from what I Want [3:16]
12. Centrefolds [5:01]
CD 2: Covers
01. Running Up That Hill [4:57]
02. Where Is My Mind [3:45]
03. Bigmouth Strikes Again [3:55]
04. Johnny And Mary [3:26]
05. 20th Century Boy [3:41]
06. The Ballad Of Melody Nelson [3:58]
07. Holocaust [4:28]
08. I Feel You [6:26]
09. Daddy Cool [3:22]
10. Jackie [2:48]
Meds
01. Meds (feat. Alison Mosshart) [2:55]
02. Infra-Red [3:16]
03. Drag [3:21]
04. Space Monkey [3:51]
05. Follow The Cops Back Home [4:40]
06. Post Blue [3:12]
07. Because I Want You [3:22]
08. Blind [4:01]
09. Pierrot The Clown [4:22]
10. Broken Promise (feat. Michael Stipe) [4:13]
11. One Of A Kind [3:21]
12. In The Cold Light Of Morning [3:53]
13. Song To Say Goodbye [3:36]
2009 - B-sides & Live at La Cigale
CD 1: B-sides
01. Then The Clouds Will Open For Me [4:22]
02. Waiting For The Son Of Man [4:11]
03. Slackerbitch [3:25]
04. Eyesight To The Blind [3:00]
05. Miss Moneypenny [2:50]
06. Been Smoking Too Long [2:18]
07. Hug Bubble [3:03]
08. Dark Globe [2:14]
09. Hare Krishna [4:28]
10. Drowning By Numbers [2:58]
11. Ion [4:08]
12. Mars Landing Party [1:45]
13. Leeloo [5:20]
14. Needledick [1:13]
15. Innocence Of Sleep [3:46]
16. Dub Psychosis [3:37]
17. Little Mo [3:02]
18. Leni [4:39]
19. Bubblegum [5:12]
20. Theme From Funky Reverend [2:53]
CD 2: B-sides & Live at La Cigale
01. Evalia [4:20]
02. Drink You Pretty [3:55]
03. Detox Five [2:51]
04. I Do [2:27]
05. Twenty Years [4:19]
06. UNEEDMEMORETHANINEEDU [3:31]
07. Lazarus [3:25]
08. Meds (Live At La Cigale) [2:54]
09. Infra-Red (Live At La Cigale) [3:53]
10. Drag (Live At La Cigale) [3:12]
11. Follow The Cops Back Home (Live At La Cigale) [4:45]
12. Post Blue (Live At La Cigale) [3:29]
13. Song To Say Goodbye (Live At La Cigale) [3:44]
14. The Bitter End (Live At La Cigale) [3:03]
15. Special K (Live At La Cigale) [3:48]
2012 - B3 EP
01. B3 [4:10]
02. I Know You Want To Stop [3:04]
03. The Extra [4:20]
04. I.K.W.Y.L. [5:10]
05. Time Is Money [7:15]
2013 - Loud Like Love
01. Loud Like Love [4:52]
02. Scene Of The Crime [3:28]
03. Too Many Friends [3:35]
04. Hold On To Me [4:55]
05. Rob The Bank [3:39]
06. A Million Little Pieces [4:41]
07. Exit Wounds [5:48]
08. Purify [3:46]
09. Begin The End [6:01]
10. Bosco [6:39]
2015 - MTV Unplugged
01. Jackie [2:55]
02. For What It’s Worth [3:10]
03. 36 Degrees [4:19]
04. Because I Want You [4:34]
05. Every You Every Me (feat Majke Voss Romme aka Broken Twin) [4:51]
06. Song to Say Goodbye [3:30]
07. Meds [4:55]
08. Protect Me From What I Want (feat Joan as Police Woman) [4:18]
09. Loud Like Love [4:54]
10. Too Many Friends [5:45]
11. Post Blue [3:34]
12. Slave to the Wage [4:01]
13. Without You I’m Nothing [4:40]
14. Hold On to Me [3:53]
15. Bosco [7:04]
16. Where Is My Mind? [3:55]
17. The Bitter End [4:50]
2016 - A Place For Us To Dream
CD 1
01. Pure Morning (radio edit) [3:58]
02. Jesus’ Son (radio edit) [3:20]
03. Come Home [5:10]
04. Every You Every Me (single version) [3:35]
05. Too Many Friends [3:34]
06. Nancy Boy (radio edit) [3:20]
07. 36 Degrees (version 2016) [4:53]
08. Taste in Men (radio edit) [4:00]
09. The Bitter End [3:12]
10. Without You I'm Nothing (feat. David Bowie) [4:11]
11. English Summer Rain (single version) [3:11]
12. Breathe Underwater (Slow) [5:28]
13. Soulmates [3:07]
14. Meds (feat. Alison Mosshart) [2:55]
15. Bright Lights (single version) [3:32]
16. Song to Say Goodbye (radio edit) [3:53]
17. Infra-Red [3:15]
18. Running Up That Hill [5:11]
CD 2
01. B3 (radio edit) [3:53]
02. For What It’s Worth [2:51]
03. Teenage Angst [2:41]
04. You Don’t Care About Us (radio edit) [3:52]
05. Ashtray Heart [3:39]
06. Broken Promise (feat. Michael Stipe) [4:14]
07. Slave to the Wage (radio edit) [3:47]
08. Bruise Pristine (radio edit) [3:00]
09. This Picture [3:34]
10. Protege Moi [3:16]
11. Because I Want You (Redux) [4:19]
12. Black-Eyed [3:47]
13. Lazarus [3:24]
14. I Know (version 2008) [5:04]
15. A Million Little Pieces (radio edit) [3:45]
16. Special Needs (radio edit) [3:30]
17. Special K [3:49]
18. Loud Like Love [4:27]
CD 3 - Live At Akasaka Blitz Tokyo 2010
01. For What It’s Worth [3:01]
02. Battle for the Sun [5:45]
03. Devil in the Details [4:35]
04. Speak in Tongues [4:26]
05. Special Needs [4:30]
06. Every You Every Me [4:11]
07. Meds [3:40]
08. Song to Say Goodbye [3:42]
09. Follow the Cops Back Home [5:11]
10. Special K [3:35]
11. Infra-Red [4:28]
12. The Bitter End [3:28]

admin

Post 26-Mar-2022 05:22

[Quote]

Название: A Place For Us To Dream
Исполнитель: Placebo
Год: 2016
Жанр: Alternative-Rock
Страна: United Kingdom
Продолжительность: 02:16:36
Формат/Кодек: FLAC
Тип рипа: Tracks
Битрейт аудио: Lossless
Разрядность: 24 Bit/44,1 kHz

Трек-лист

01. Pure Morning (Radio Edit) (3:58)
02. Jesus' Son (Radio Edit) (3:20)
03. Come Home (5:10)
04. Every You, Every Me (Single Version) (3:35)
05. Too Many Friends (3:34)
06. Nancy Boy (Radio Edit) (3:20)
07. 36 Degrees (Version 2016) (4:53)
08. Taste In Men (Radio Edit) (4:00)
09. The Bitter End (3:12)
10. Without You I'm Nothing (feat. David Bowie) (Single Version) (4:11)
11. English Summer Rain (Single Version) (3:11)
12. Breathe Underwater (Slow) (Single Version) (5:28)
13. Soulmates (3:07)
14. Meds (feat. Alison Mosshart) (Single Version) (2:55)
15. Bright Lights (Single Version) (3:32)
16. Song To Say Goodbye (Radio Edit) (3:53)
17. Infra-Red (3:15)
18. Running Up That Hill (5:11)
19. B3 (Radio Edit) (3:53)
20. For What It’s Worth (2:51)
21. Teenage Angst (2:41)
22. You Don't Care About Us (Radio Edit) (3:52)
23. Ashtray Heart (3:39)
24. Broken Promise (feat. Michael Stipe) (4:14)
25. Slave To The Wage (Radio Edit) (3:47)
26. Bruise Pristine (Radio Edit) (3:00)
27. This Picture (3:34)
28. Protège Moi (3:16)
29. Because I Want You (Redux) (4:19)
30. Black-Eyed (3:47)
31. Lazarus (3:24)
32. I Know (Version 2008) (5:04)
33. A Million Little Pieces (Radio Edit) (3:45)
34. Special Needs (Edit) (3:30)
35. Special K (3:49)
36. Loud Like Love (4:27)

DRM
foobar2000 1.6.7 / Dynamic Range Meter 1.1.1
log date: 2021-11-05 17:46:23
--------------------------------------------------------------------------------
Analyzed: Placebo / A Place for Us to Dream
--------------------------------------------------------------------------------
DR Peak RMS Duration Track
--------------------------------------------------------------------------------
DR7 -0.51 dB -8.86 dB 3:58 01-Pure Morning (Radio Edit)
DR6 -0.51 dB -7.39 dB 3:20 02-Jesus' Son (Radio Edit)
DR6 -0.51 dB -7.35 dB 5:10 03-Come Home
DR7 -0.51 dB -8.42 dB 3:35 04-Every You Every Me (Single Version)
DR6 -0.51 dB -8.03 dB 3:34 05-Too Many Friends
DR6 -0.53 dB -7.54 dB 3:20 06-Nancy Boy (Radio Edit)
DR6 -0.51 dB -8.44 dB 4:53 07-36 Degrees (2016 Version)
DR7 -0.51 dB -8.33 dB 4:00 08-Taste in Men (Radio Edit)
DR6 -0.51 dB -8.12 dB 3:12 09-The Bitter End
DR7 -0.51 dB -9.10 dB 4:11 10-Without You I'm Nothing
DR5 -0.51 dB -7.85 dB 3:11 11-English Summer Rain (Single Version)
DR7 -0.51 dB -10.39 dB 5:28 12-Breathe Underwater (Slow Version)
DR7 -0.51 dB -8.53 dB 3:07 13-Soulmates
DR6 -0.51 dB -8.80 dB 2:55 14-Meds
DR7 -0.51 dB -8.25 dB 3:32 15-Bright Lights (Single Version)
DR6 -0.51 dB -8.29 dB 3:53 16-Song to Say Goodbye (Radio Edit)
DR7 -0.51 dB -9.14 dB 3:15 17-Infra-Red
DR9 -0.75 dB -11.49 dB 5:11 18-Running up That Hill
DR6 -0.51 dB -8.60 dB 3:53 19-B3 (Radio Edit)
DR6 -0.51 dB -8.41 dB 2:51 20-For What It’s Worth
DR7 -0.51 dB -9.00 dB 2:41 21-Teenage Angst
DR7 -0.37 dB -8.85 dB 3:52 22-You Don’t Care About Us (Radio Edit)
DR6 -0.51 dB -7.43 dB 3:39 23-Ashtray Heart
DR6 -0.51 dB -9.42 dB 4:14 24-Broken Promise
DR7 -0.51 dB -8.51 dB 3:47 25-Slave to the Wage (Radio Edit)
DR6 -0.51 dB -8.06 dB 3:00 26-Bruise Pristine (Radio Edit)
DR6 -0.51 dB -8.57 dB 3:34 27-This Picture
DR7 -0.51 dB -8.82 dB 3:16 28-Protégé Moi
DR6 -0.51 dB -9.04 dB 4:19 29-Because I Want You (Redux)
DR6 -0.51 dB -8.52 dB 3:47 30-Black-Eyed
DR6 -0.51 dB -9.07 dB 3:24 31-Lazarus
DR7 -0.51 dB -10.26 dB 5:04 32-I Know (2008 Version)
DR6 -0.51 dB -8.17 dB 3:45 33-A Million Little Pieces (Radio Edit)
DR7 -0.51 dB -9.64 dB 3:30 34-Special Needs (Radio Edit)
DR7 -0.51 dB -8.24 dB 3:49 35-Special K
DR6 -0.51 dB -8.02 dB 4:27 36-Loud Like Love
--------------------------------------------------------------------------------
Number of tracks: 36
Official DR value: DR6
Samplerate: 44100 Hz
Channels: 2
Bits per sample: 24
Bitrate: 1695 kbps
Codec: FLAC
================================================================================

admin

Post 24-Mar-2022 05:43

[Quote]

Название: Дискография
Исполнитель: Kid Rock
Год: 1990 - 2022
Жанр: Alternative, Hard-rock, Country-rock, Rap-rock
Страна: США
Формат/Кодек: MP3
Битрейт аудио: 320 kbps
Продолжительность 17:59:10

Трек-лист

Студийные альбомы
1990 - Grits Sandwiches for Breakfast
1993 - The Polyfuze Method
1996 - Early Mornin’ Stoned Pimp
1998 - Devil Without a Cause
2001 - Cocky
2003 - Kid Rock
2007 - Rock N' Roll Jesus
2010 - Born Free
2012 - Rebel Soul
2015 - First Kiss (Deluxe Edition)
2017 - Sweet Southern Sugar
2022 - Bad Reputation
EP
2010 - Jim Beam Exclusive Live
2010 - Racing Father Time
Синглы
1999 - Bawitdaba
2008 - All Summer Long
2008 - Roll On
2010 - Born Free
Концертные альбомы
2006 - Live Trucker
Сборники
2000 - The History Of Rock
2018 - Greatest Hits- You Never Saw Coming
Дополнительная информация: Роберт Джеймс Ритчи (род. 17 января 1971 года в городе Ромео, штат Мичиган) — американский певец, рок-музыкант, рэпер, композитор и актёр, известный под псевдонимом Kid Rock, который добился широкой популярности в конце 90-х, начале 2000-х годов. После четырёх неудачных релизов, в 1998 году Кид Рок «взорвал» хит-парады Америки c альбомом «Devil Without a Cause», который был распродан 11-миллионным тиражом. Был пять раз номинирован на премию Грэмми. Всего в США было распродано около 22 миллионов копий его альбомов

admin

Post 22-Mar-2022 05:11

[Quote]

Название: Bad Reputation
Исполнитель: Kid Rock
Год: 2022
Жанр: Alternative, Southern-Rock
Страна: USA
Лейбл: Top Dog Records
Продолжительность: 01:11:38
Формат/Кодек: MP3
Битрейт аудио: 320 kbps

Трек-лист

01. Don't Tell Me How To Live 04:04
02. We The People 04:09
03. My Kind Of Country 03:56
04. Bad Reputation 04:09
05. Never Quit 03:20
06. Shakedown 02:41
07. Rockin' 03:41
08. The Last Dance 04:01
09. See You Again 05:50
10. Still Somethin' 04:08
11. She's Your Baby (Now Rock Her) 04:15
12. Never Enough 03:43
13. Everything To Me 04:27
14. Cold Beer 04:10
15. Ala-Fuckin'-Bama 03:56
16. Am What I Am 02:58
17. The Nashville I Know 03:39
18. Fifty 04:23

admin

Post 21-Mar-2022 04:52

[Quote]

Название: Sick Beyond
Исполнитель: Sick Beyond
Год: 2022
Жанр: Modern-Metal
Страна: USA
Продолжительность: 00:26:04
Формат/Кодек: MP3
Битрейт аудио: 320 kbps

Трек-лист

01 - Dance of the Sinner [00:03:48]
02 - See You [00:03:19]
03 - Reborn [00:04:05]
04 - Family Lies [00:03:11]
05 - Delusion [00:00:51]
06 - Right Out the Door [00:03:40]
07 - Stolen [00:02:53]
08 - The Only One [00:04:14]
 

Current time is: 25-May 17:05

All times are UTC + 3