Search found 40 matches

Author Message

admin

Post 08-Jun-2022 07:42

[Quote]

Название: C'est la vie
Исполнитель: Rockwasser
Год: 2022
Жанр: Punk-Rock
Страна: Germany
Лейбл: Rookies + Kings
Продолжительность: 00:47:54
Формат/Кодек: FLAC
Битрейт аудио: Lossless

Трек-лист

01. Heute Nacht (03:25)
02. Nicht einer von Millionen (03:25)
03. Alte Lieder (03:56)
04. Gott (03:00)
05. Das Feuer in mir (03:09)
06. Welt bewegen (03:48)
07. C'est la vie (03:44)
08. Ein letzter Gruß (04:10)
09. Lass uns fliegen (03:00)
10. All das (03:32)
11. Ein Tag für uns (02:45)
12. Bis ans Ende dieser Welt (03:11)
13. Vom Wissen und Glauben (03:12)
14. Vergiss mich nicht (03:29)

log

DON'T MODIFY THIS FILE
-----------------------
PERFORMER: auCDtect Task Manager, ver. 1.6.0 RC1 build 1.6.0.1
Copyright (c) 2008-2010 y-soft. All rights reserved
http://y-soft.org
ANALYZER: auCDtect: CD records authenticity detector, version 0.8.2
Copyright (c) 2004 Oleg Berngardt. All rights reserved.
Copyright (c) 2004 Alexander Djourik. All rights reserved.
FILE: 14 - Vergiss mich nicht.flac
Size: 24425079 Hash: A0DB955D2D53869C4A1C5EEC8A076A17 Accuracy: -m40
Conclusion: CDDA 99%
Signature: 10D06E1D2C17798C0C3136F9136037CDC451092A
FILE: 13 - Vom Wissen und Glauben.flac
Size: 25606190 Hash: 53A3F5A74DC5FBE320D040F02DA9E898 Accuracy: -m40
Conclusion: CDDA 100%
Signature: FB8C40D5C8E558488662360DECD5EF4190196852
FILE: 12 - Bis ans Ende dieser Welt.flac
Size: 25440511 Hash: E2FBFD7A3FF41E50AFDFD73FC45BB435 Accuracy: -m40
Conclusion: CDDA 100%
Signature: 3D269A101C770C028A3D9BE2504E80DACA7D4DAE
FILE: 11 - Ein Tag fur uns.flac
Size: 21831268 Hash: CCB7CD0909AFEA50DBD1EAE4F92EA972 Accuracy: -m40
Conclusion: CDDA 99%
Signature: 50D3CB043DFC899A3E351B3DE287A18A5903D700
FILE: 10 - All das.flac
Size: 27282020 Hash: C50C3AA161AC3C1FFCB01849B3B02320 Accuracy: -m40
Conclusion: CDDA 100%
Signature: 743E0FC3ABDA4C8C261D7FA8327FF1609E1E5D58
FILE: 09 - Lass uns fliegen.flac
Size: 23501020 Hash: 8C2A0BD675D38EA47C1A72D8132B0910 Accuracy: -m40
Conclusion: CDDA 100%
Signature: E042DDA7FBB146D5F9130FC197F3BA6F2AE1D307
FILE: 08 - Ein letzter Gruss.flac
Size: 31271521 Hash: 3B26A0466ECEBD500315AD5577DC8BCB Accuracy: -m40
Conclusion: CDDA 100%
Signature: 40460F3624FB56287522FF892799A1CA1FEBD0F2
FILE: 07 - C'est la vie.flac
Size: 28426736 Hash: 2199D2F2D579867277D36C75544E6640 Accuracy: -m40
Conclusion: CDDA 100%
Signature: 5D2518E7E98083448B8184372678BDEAA4732319
FILE: 06 - Welt bewegen.flac
Size: 30136188 Hash: 844185B09CBDCBB3BC5B63DCBA2349B6 Accuracy: -m40
Conclusion: CDDA 100%
Signature: A2B07A9D58F46DBA10AD77EABF690EFBF1A427F2
FILE: 05 - Das Feuer in mir.flac
Size: 24493080 Hash: 8473384A6528ED00ADCCBF73F06E7E81 Accuracy: -m40
Conclusion: CDDA 100%
Signature: D2BBC6FEF86D7558DD1D4CC3C07787901B438BC8
FILE: 04 - Gott.flac
Size: 24115636 Hash: A470A7E542157D4A1F315C4B5F20A6F7 Accuracy: -m40
Conclusion: CDDA 100%
Signature: FD1969503609E340D35A81A219C90AD297D63E7D
FILE: 03 - Alte Lieder.flac
Size: 31024337 Hash: 8AC132DA26DD0D0490E4292970982D93 Accuracy: -m40
Conclusion: CDDA 99%
Signature: 333A2E45A7DDC0FD88A5BBC3140CB1B1ABC4B29D
FILE: 02 - Nicht einer von Millionen.flac
Size: 26687520 Hash: 5CC190A63BCAADC1F5EBEEA7A12247F2 Accuracy: -m40
Conclusion: CDDA 100%
Signature: 248BC621150BE04F5F619D9F5003FC498F882D45
FILE: 01 - Heute Nacht.flac
Size: 26228414 Hash: DB7F35396B109A57FDE67A9E44DAB94D Accuracy: -m40
Conclusion: CDDA 100%
Signature: 425FC51DA8952420B8179125FC9D7273971B8825

admin

Post 03-Jun-2022 03:47

[Quote]

Название: Beauty Fades
Исполнитель: Smoke Or Fire
Год: 2022
Жанр: Punk-Rock
Страна: USA
Лейбл: Iodine Recordings
Продолжительность: 00:37:10
Формат/Кодек: FLAC
Битрейт аудио: Lossless

Трек-лист

01. Smoke Or Fire - Sunday Pints [02:19]
02. Smoke Or Fire - Beauty Fades [03:34]
03. Smoke Or Fire - 50 Cent Hearts [03:52]
04. Smoke Or Fire - Second Wind [01:31]
05. Smoke Or Fire - Running in Circles [02:49]
06. Smoke Or Fire - They All Go to California [03:02]
07. Smoke Or Fire - Modesty [02:25]
08. Smoke Or Fire - Nowhere to Go but Up [02:52]
09. Smoke Or Fire - Hand Me Downs [02:29]
10. Smoke Or Fire - Written to Be Read [02:28]
11. Smoke Or Fire - Live On [02:44]
12. Smoke Or Fire - Someone Said We Flew [03:04]
13. Smoke Or Fire - Oxygen [03:55]

log

DON'T MODIFY THIS FILE
-----------------------
PERFORMER: auCDtect Task Manager, ver. 1.6.0 RC1 build 1.6.0.1
Copyright (c) 2008-2010 y-soft. All rights reserved
http://y-soft.org
ANALYZER: auCDtect: CD records authenticity detector, version 0.8.2
Copyright (c) 2004 Oleg Berngardt. All rights reserved.
Copyright (c) 2004 Alexander Djourik. All rights reserved.
FILE: 13 - Oxygen.flac
Size: 29491498 Hash: 4A223F145223CF3A09D08BB4E955B9A1 Accuracy: -m40
Conclusion: CDDA 99%
Signature: 78EFDFA37154A319E32F51AB2B619B5B68E348B1
FILE: 12 - Someone Said We Flew.flac
Size: 21049306 Hash: 11F56950A18B1D9560082899A97E6A96 Accuracy: -m40
Conclusion: MPEG 91%
Signature: 7782698CB0E8F0A5199B94191520FFAA0CF85E92
FILE: 11 - Live On.flac
Size: 19769547 Hash: 2B4AB6BCB4BCA8E25AD6AD32A9BC63FE Accuracy: -m40
Conclusion: CDDA 100%
Signature: EB6C511D05EBB2617E460D451CF02AF72579E5D0
FILE: 10 - Written to Be Read.flac
Size: 17296203 Hash: 4ADEF80D83994153280C5F1B8504EC50 Accuracy: -m40
Conclusion: MPEG 93%
Signature: 2FB79D23BE25AEBA67A3359C7A257A5A81BCC9A3
FILE: 09 - Hand Me Downs.flac
Size: 19750605 Hash: 9501943AE646261FC5BCDF8B30D7B2DF Accuracy: -m40
Conclusion: CDDA 100%
Signature: 739275ED17218E73DEACEB7E1AF81190795CA783
FILE: 08 - Nowhere to Go but Up.flac
Size: 22238070 Hash: A1E17084FFE74C6855A5D7AFEB7E1326 Accuracy: -m40
Conclusion: MPEG 100%
Signature: 6959CFEF6E664D8DAB96506FAA2CD039B7782C72
FILE: 07 - Modesty.flac
Size: 17384845 Hash: C8754E3C0FADA120A92771DEE4F417C2 Accuracy: -m40
Conclusion: CDDA 100%
Signature: 0C47B23EFFC8F272FEA921CC6A62F0418DAD86CC
FILE: 06 - They All Go to California.flac
Size: 24586671 Hash: 9C47374F2046D42E9969A52ECB9B2578 Accuracy: -m40
Conclusion: CDDA 100%
Signature: F2EB68C124635939D6F983E9D12E55ABA3E21207
FILE: 05 - Running in Circles.flac
Size: 21025171 Hash: 30CEC382913DF0C754296054694F32B5 Accuracy: -m40
Conclusion: CDDA 100%
Signature: 0A6D127A1B7FADDAADEF0C23560A2289177523D6
FILE: 04 - Second Wind.flac
Size: 11541819 Hash: D52BA08B09413877FBFF266000BA8B76 Accuracy: -m40
Conclusion: CDDA 100%
Signature: B85709954A8B21D27D6106CDC3B79662EBD9E5B5
FILE: 03 - 50 Cent Hearts.flac
Size: 27331395 Hash: 7173B8A819FF6B2FDA0CCC085EC86668 Accuracy: -m40
Conclusion: CDDA 100%
Signature: 3386119AB719CC1839DBD9233B080C3DF5897093
FILE: 02 - Beauty Fades.flac
Size: 27630132 Hash: 4535B68871721B37017FBAAF28744E7E Accuracy: -m40
Conclusion: CDDA 100%
Signature: E3298FC10DA8DF5A06682F596FA54D098D85CA2D
FILE: 01 - Sunday Pints.flac
Size: 18718134 Hash: 8A4ACF1664BE42FFA82E937D0FDFB907 Accuracy: -m40
Conclusion: CDDA 100%
Signature: 306EAE0EA4678201EBE0E5D39DF31A9B485555CF

admin

Post 28-May-2022 03:56

[Quote]

Название: Ramones
Исполнитель: Ramones
Год: 1976/2016
Жанр: Punk-Rock
Страна: USA
Продолжительность: 00:29:06
Формат/Кодек: FLAC
Тип рипа: Tracks
Битрейт аудио: Lossless
Разрядность: 24 Bit/192 kHz
Носитель: WEB

Трек-лист

01. Blitzkrieg Bop (02:13)
02. Beat On the Brat (02:32)
03. Judy Is a Punk (01:32)
04. I Wanna Be Your Boyfriend (02:24)
05. Chain Saw (01:56)
06. Now I Wanna Sniff Some Glue (01:36)
07. I Don't Wanna Go Down to the Basement (02:39)
08. Loudmouth (02:14)
09. Havana Affair (01:56)
10. Listen to My Heart (01:58)
11. 53rd & 3rd (02:21)
12. Let's Dance (01:51)
13. I Don't Wanna Walk Around With You (01:43)
14. Today Your Love, Tomorrow the World (02:10)

DRM
foobar2000 1.6.11 / Dynamic Range Meter 1.1.1
--------------------------------------------------------------------------------
Analyzed: Ramones / Ramones
--------------------------------------------------------------------------------
DR Peak RMS Duration Track
--------------------------------------------------------------------------------
DR10 0.00 dB -11.08 dB 2:13 01-Blitzkrieg Bop
DR9 0.00 dB -10.03 dB 2:32 02-Beat On the Brat
DR10 0.00 dB -10.17 dB 1:32 03-Judy Is a Punk
DR10 0.00 dB -11.45 dB 2:24 04-I Wanna Be Your Boyfriend
DR9 0.00 dB -10.15 dB 1:56 05-Chain Saw
DR10 0.00 dB -10.64 dB 1:36 06-Now I Wanna Sniff Some Glue
DR10 0.00 dB -10.78 dB 2:39 07-I Don't Wanna Go Down to the Basement
DR10 0.00 dB -10.98 dB 2:14 08-Loudmouth
DR11 0.00 dB -11.07 dB 1:56 09-Havana Affair
DR11 0.00 dB -11.15 dB 1:58 10-Listen to My Heart
DR10 0.00 dB -11.31 dB 2:21 11-53rd & 3rd
DR10 0.00 dB -11.26 dB 1:51 12-Let's Dance
DR10 0.00 dB -10.45 dB 1:43 13-I Don't Wanna Walk Around With You
DR9 0.00 dB -10.48 dB 2:10 14-Today Your Love, Tomorrow the World
--------------------------------------------------------------------------------
Number of tracks: 14
Official DR value: DR10
Samplerate: 192000 Hz
Channels: 2
Bits per sample: 24
Bitrate: 6024 kbps
Codec: FLAC
================================================================================

admin

Post 02-Apr-2022 03:33

[Quote]

Название: Коллекция (6 альбомов, 6 CD)
Исполнитель: Не ждали
Год: 1990-1998
Жанр: Free Jazz, Rock, Punk, Avantgarde, Experimental
Страна: СССР, Эстония
Продолжительность: 04:25:24
Формат/Кодек: FLAC (image+.cue)
Битрейт аудио: lossless
Коллекция:

1990 - Носороги и другая жизнь / Rhinoceroses and other forms of life


Страна-производитель диска (релиза): Germany
Год издания: 1999
Издатель (лейбл): No Man's Land
Номер по каталогу: NML 9927
Продолжительность: 00:42:56
Треклист:
1. Rhino I
2. Bossa II (Dedicated To Marina O.)
3. Rhino III (Russians)
4. Bossa I
5. Rhino V
6. Bossa V (Didjeridoo-Boogie)
7. Rhino II (Dedicated To Conny Plank)
8. Bossa IV
9. Rhino IV (Returning Of The Rooks)
10. Bossa III (The Melody)

1991 - Ще-е-е / She-ye-ye


Страна-производитель диска (релиза): Russia
Год издания: 2003
Издатель (лейбл): Solnze Records
Номер по каталогу: SCD 022
Продолжительность: 00:46:31
Треклист:
1. Интерлюдия 1 / Interlude 1
2. Носороги 2 / Rhino 2
3. Нож / Knife
4. Носороги 1 / Rhino 1
5. Марш как Марш / March
6. Интерлюдия 2 / Interlude 2
7. Интерлюдия 3 / Interlude 3
8. Босса 2 (посвящается Марине Д.) / Bossa 2 (Dedicated To Marina D.)
9. Песня о любви / Song About Love
10. Конкистадоры / Conquestadores
11. Ще-е-е / She-ye-ye
12. Босса 3 (мелодия) / Bossa 3 (Melodia)

1994 - ...Не гони лошадей! / Hey, Driver, Cool Down The Horses!


Страна-производитель диска (релиза): Switzerland
Год издания: 1994
Издатель (лейбл): RecRec Music
Номер по каталогу: ReCDec 65
Продолжительность: 00:39:17
Треклист:
1. Хризантемы / Chrrysanthemums
2. Grincements De Roues
3. Лодки, полные любви / Lovin'boatful
4. Китайская печаль / They Are Also Sad In China
5. Венгерские молодые годы / Hungarian Young Years
6. Греческая зрелость / Greek Maturity
7. Ямщик / Hey Driver Cool Down The Horses!
8. Потье / Poitiers
9. Смерть Т. / Death Of T.
10. Кукарача / Kukaratcha
11. Кафе Фанкони / Cafe Fanconi

1995 - Воздух-Земля / Whatever Happens, Twist!


Страна-производитель диска (релиза): Germany
Год издания: 2005
Издатель (лейбл): No Man's Land
Номер по каталогу: NML 0530
Продолжительность: 00:43:02
Треклист:
1. Twist
2. Air-Ground
3. Rhino 6
4. Lifeloop
5. No Justice
6. Bossa 2000 Turbo
7. Ma Vie
8. Spill A Noch A Moll
9. Wake Up, Mumu
10. Flying Dutch

1997 - Live Rarities Vol.1


Страна-производитель диска (релиза): Germany
Год издания: 1997
Издатель (лейбл): No Man's Land
Номер по каталогу: nml 9722
Продолжительность: 00:50:12
Треклист:
1. Rhino I
2. Suslo
3. Pesamunalaul Medley
4. Rhino IV
5. ARE
6. Hey Driver!
7. Mirror
8. March As March
9. She-Ye-Ye

1998 - Pollo d’Oro (with The Billy Tipton Memorial Saxophone Quartet)


Страна-производитель диска (релиза): Germany
Год издания: 1998
Издатель (лейбл): No Man's Land
Номер по каталогу: nml 9824
Продолжительность: 00:43:26
Треклист:
1. The 8th Day
2. Uke
3. Argonauts (Pollo D'Oro)
4. Petunja
5. Wheel Of Fortune
6. Bulb
7. Stitch
8. Unexpected Arrival
9. No Moon, No Sun
10. Kansas
11. Nothing Was Happen!
Дополнительная информация: Не ждали - таллинская музыкальная группа, созданная в 1987 году. Одна из самых ярких групп в жанре инди-рок на советской и постсоветской музыкальной сцене. В раздаче представлены все официальные альбомы группы, издававшиеся на компакт-дисках. До полной CD-дискографии коллектива недостает лишь концертного альбома "Tokyo Nov. 25, 1998".

Об исполнителе (группе)

НЕ ЖДАЛИ, эстонская рок-группа (Таллин). Первая русскоязычная группа Эстонии, добившаяся во второй половине 1980-х годов известности в масштабах Советского Союза. Она оказалась одной из немногих, кто сумел пережить как развал общесоюзного музыкального рынка, так и девальвацию прежних художественных ценностей (поначалу - избегая назойливой социальности, а позднее - игнорируя любые стилевые ограничения).
Официальный отсчет своей биографии группа «Не ждали» ведет с февраля 1987 (когда и было придумано ее нынешнее название), хотя корнями она уходит далеко в глубь истории таллинской инди-сцены. Впервые основатели «НЕ ЖДАЛИ» - Леонид Сойбельман и Илья Комаров - начали играть вместе в 1977 в родной школе, где составляли две трети хард-рок-трио, пытавшегося своими силами интерпретировать классику тяжелого жанра - от LED ZEPPELIN до RUSH. Их нынешний коллега Андрей «Битнер» Кулагин играл в той же школе, но в другой группе. Потом обе группы распались, и произошла перегруппировка: Сойбельман ушел в армию, а Битнер и Комаров объединились в новую группу «ЧАСТНАЯ ПРАКТИКА».
Вернувшись в Таллин, Сойбельман устроился в труппу Русского драматического театра, куда в течение следующих двух лет перетащил всех участников «ЧАСТНОЙ ПРАКТИКИ» - театр намеревался ставить рок-оперу, и режиссеру были срочно нужны знающие в этом толк музыканты. Опера, кстати, так и не была поставлена. Через несколько лет, лишив аудитории пару-тройку местных групп, безымянный ансамбль из оркестровой ямы окончательно оформил состав, приобрел осмысленный взгляд на мир и собственный, весьма нетрадиционный для рок-сцены того времени репертуар. Это побудило его участников в начале 1987 взять «говорящее» название «НЕ ЖДАЛИ» (поначалу оно звучало еще более прозрачно: «С ТАЛЛИНА - НЕ ЖДАЛИ»!).
Группа дебютировала в Таллине 30 августа 1987 - на концерте, посвященном 25-летию BEATLES, с репертуаром, отвечавшим предмету празднования. Два месяца спустя, окончательно зафиксировав состав, она представила на суд слушателей программу собственного сочинения, отличавшуюся как широтой музыкального мышления, так и чисто прибалтийской высокой исполнительской культурой. В музыке «НЕ ЖДАЛИ» присутствовали отголоски атонального фанка «no wave», по-фрипповски математически выверенные партии гитары и жесткая медь, а прямолинейные размеры панк-рока соседствовали с полиритмией африканской перкуссии (чем-то подобным некогда отличались британцы BOW WOW WOW). Изобретательные, построенные на обыгрывании смысла слов или их частей тексты и эффектная сценическая подача (на сцене «НЕ ЖДАЛИ» использовали эклектичное, но привлекательное смешение различных эстетик - пантомиму, академические балетные па, какие-то шаманские пляски) сделали команду запоминающейся. Приглашая «НЕ ЖДАЛИ» на майский (1988) «Rock Furum» в Вильнюс, его устроители не ждали ничего особенного, а получили сенсацию.
Тем же составом - Леонид Сойбельман (гитара, альт, вокал), Битнер (вокал, шоу), Илья Комаров (бас), Олег Давидович (гитара, тромбон), Вадим Веэремаа (духовые, вокал) и Василий Редчидс (барабаны), группа «НЕ ЖДАЛИ» выступила в Москве на фестивале альтернативной музыки «СыРок» осенью 1988, записала свой дебютный альбом и дала два концерта в Ленинграде (декабрь 1988). Популярность группы начала расти. Весь 1989 она выступала на различных региональных фестивалях, а в ноябре 1989 представляла советский рок на музыкальной конференции в Глазго (Великобритания). В декабре 1990 группа временно распалась, в связи с отъездом Сойбельмана за границу. В 90-е годы группа гастролировала по Европе, выступая в концертных залах, а также записывая новые альбомы.
На сегодня 4 участника проживают в Таллине, Леонид Сойбельман - в Берлине, Илья Комаров - в швейцарском городе Цюрих.

admin

Post 02-Apr-2022 03:16

[Quote]

Название: Burn the Streets Again
Исполнитель: Mr. Woland
Год: 2022
Жанр: Punk-Rock
Страна: Italy
Лейбл: 2022 JETGLOW RECORDINGS
Продолжительность: 00:34:48
Формат/Кодек: FLAC
Битрейт аудио: Lossless

Трек-лист

01. No Hope
02. Put on a Show
03. Tick Her Off
04. At Your Service
05. Overthrow
06. Doom of Love
07. Gone
08. I Am Fool
09. Burn the Streets Again
10. New Order
11. Everything Turns Red
12. Hell Song
13. Ride On

Log

AUDIOCHECKER v2.0 beta (build 457) - by Dester - opdester@freemail.hu
~~~~~~~~~~~~~~~~~~~~~~~~~~~~~~~~~~
Started at: четверг, 24. 03. 2022. - 14:53.14
13 files found
01 -===- D:Music#Mr. Woland - 2022 - Burn the Streets Again [Flac]�1 - No Hope.flac
Extracted successfully
Conclusion: this track is CDDA with probability 100%
Tempfile successfully deleted.
02 -===- D:Music#Mr. Woland - 2022 - Burn the Streets Again [Flac]�2 - Put on a Show.flac
Extracted successfully
Conclusion: this track is CDDA with probability 100%
Tempfile successfully deleted.
03 -===- D:Music#Mr. Woland - 2022 - Burn the Streets Again [Flac]�3 - Tick Her Off.flac
Extracted successfully
Conclusion: this track is CDDA with probability 100%
Tempfile successfully deleted.
04 -===- D:Music#Mr. Woland - 2022 - Burn the Streets Again [Flac]�4 - At Your Service.flac
Extracted successfully
Conclusion: this track is CDDA with probability 100%
Tempfile successfully deleted.
05 -===- D:Music#Mr. Woland - 2022 - Burn the Streets Again [Flac]�5 - Overthrow.flac
Extracted successfully
Conclusion: this track is CDDA with probability 100%
Tempfile successfully deleted.
06 -===- D:Music#Mr. Woland - 2022 - Burn the Streets Again [Flac]�6 - Doom of Love.flac
Extracted successfully
Conclusion: this track is CDDA with probability 100%
Tempfile successfully deleted.
07 -===- D:Music#Mr. Woland - 2022 - Burn the Streets Again [Flac]�7 - Gone.flac
Extracted successfully
Conclusion: this track is CDDA with probability 100%
Tempfile successfully deleted.
08 -===- D:Music#Mr. Woland - 2022 - Burn the Streets Again [Flac]�8 - I Am Fool.flac
Extracted successfully
Conclusion: this track is CDDA with probability 100%
Tempfile successfully deleted.
09 -===- D:Music#Mr. Woland - 2022 - Burn the Streets Again [Flac]�9 - Burn the Streets Again.flac
Extracted successfully
Conclusion: this track is CDDA with probability 100%
Tempfile successfully deleted.
10 -===- D:Music#Mr. Woland - 2022 - Burn the Streets Again [Flac]10 - New Order.flac
Extracted successfully
Conclusion: this track is CDDA with probability 100%
Tempfile successfully deleted.
11 -===- D:Music#Mr. Woland - 2022 - Burn the Streets Again [Flac]11 - Everything Turns Red.flac
Extracted successfully
Conclusion: this track is CDDA with probability 100%
Tempfile successfully deleted.
12 -===- D:Music#Mr. Woland - 2022 - Burn the Streets Again [Flac]12 - Hell Song.flac
Extracted successfully
Conclusion: this track is CDDA with probability 100%
Tempfile successfully deleted.
13 -===- D:Music#Mr. Woland - 2022 - Burn the Streets Again [Flac]13 - Ride On.flac
Extracted successfully
Conclusion: this track is CDDA with probability 100%
Tempfile successfully deleted.
Finished at: четверг, 24. 03. 2022. - 14:55.31 (operation time: 0:02.17)

admin

Post 25-Mar-2022 05:11

[Quote]

Название: Mainstream Sellout
Исполнитель: Machine Gun Kelly
Год: 2022
Жанр: Pop-Punk
Страна: USA
Продолжительность: 00:40:22
Формат/Кодек: FLAC
Тип рипа: Tracks
Битрейт аудио: Lossless
Разрядность: 24 Bit/48 kHz
Носитель: WEB

Трек-лист

01. born with horns (2:28)
02. god save me (3:00)
03. maybe (2:50)
04. drug dealer (2:52)
05. wall of fame (interlude) (0:33)
06. mainstream sellout (1:48)
07. make up sex (2:03)
08. emo girl (2:39)
09. 5150 (2:55)
10. papercuts (album edit) (3:01)
11. WW4 (1:13)
12. ay! (2:04)
13. fake love don’t last (2:23)
14. die in california (3:27)
15. sid & nancy (3:10)
16. twin flame (3:59)

DRM
foobar2000 1.6.9 / Dynamic Range Meter 1.1.1
--------------------------------------------------------------------------------
Analyzed: Machine Gun Kelly / mainstream sellout
--------------------------------------------------------------------------------
DR Peak RMS Duration Track
--------------------------------------------------------------------------------
DR4 -0.20 dB -6.49 dB 2:28 01-born with horns
DR5 -0.20 dB -7.22 dB 3:00 02-god save me
DR4 -0.20 dB -5.89 dB 2:50 03-maybe
DR4 -0.20 dB -5.80 dB 2:52 04-drug dealer
DR9 -2.06 dB -13.13 dB 0:33 05-wall of fame (interlude)
DR4 -0.20 dB -4.89 dB 1:48 06-mainstream sellout
DR5 -0.20 dB -6.35 dB 2:03 07-make up sex
DR3 -0.20 dB -4.70 dB 2:39 08-emo girl
DR5 -0.20 dB -6.09 dB 2:55 09-5150
DR4 -0.20 dB -6.30 dB 3:01 10-papercuts (album edit)
DR4 -0.20 dB -5.38 dB 1:13 11-WW4
DR4 -0.20 dB -6.66 dB 2:04 12-ay!
DR5 -0.20 dB -6.82 dB 2:23 13-fake love don’t last
DR5 -0.20 dB -6.97 dB 3:27 14-die in california
DR4 -0.20 dB -5.97 dB 3:10 15-sid & nancy
DR3 -0.20 dB -8.51 dB 3:59 16-twin flame
--------------------------------------------------------------------------------
Number of tracks: 16
Official DR value: DR4
Samplerate: 48000 Hz
Channels: 2
Bits per sample: 24
Bitrate: 1544 kbps
Codec: FLAC
================================================================================

admin

Post 05-Dec-2021 05:00

[Quote]

Название: Parole Models
Исполнитель: Campfire Shitkickers
Год: 2021
Жанр: Folk-Rock, Pirate-Punk
Страна: Canada
Продолжительность: 00:52:51
Формат/Кодек: FLAC
Битрейт аудио: Lossless|WEB-DL

Трек-лист

01 - For All the Dickheads (00:02:59)
02 - Save Us, Dr. Neville (Radio Edit) (00:03:43)
03 - Space Rocks! (00:04:48)
04 - Shit the Bed (00:03:31)
05 - The Queen of Cumberland (00:03:56)
06 - Stands T'Reason (00:04:33)
07 - War of the Worlds (00:03:08)
08 - A Nice, Normal Girl (00:03:44)
09 - Pet Kitties (00:02:33)
10 - There's No Time (00:03:08)
11 - Sweetest Fruit (00:03:57)
12 - Carmalita (Van21) (00:02:39)
13 - One Helluva Loop (00:04:28)
14 - Shitbox to Nowhere (00:02:15)
15 - Cockatoo Quill (00:03:21)

admin

Post 04-Dec-2021 04:27

[Quote]

Название: Control My Sanity
Исполнитель: Like Pacific
Год: 2021
Жанр: Pop-Punk
Страна: USA
Лейбл: Pure Noise Records
Продолжительность: 00:29:24
Формат/Кодек: MP3
Битрейт аудио: 320 kbps

Трек-лист

01. Ketamine Jesus [00:02:42]
02. Love Them and Leave Them [00:03:15]
03. Control My Sanity [00:02:59]
04. Hollow Tears [00:02:50]
05. Waste of Breath [00:03:04]
06. Catch Your Eye [00:03:03]
07. Adored [00:02:39]
08. Fail to Speak [00:02:56]
09. Rest in the Dirt [00:02:53]
10. Time Won't Heal [00:03:01]

admin

Post 20-Jul-2021 03:47

[Quote]

Название: Teatime Terrors
Исполнитель: Monsieur Pompier's Travelling Freakshow
Год: 2021
Жанр: Alternative Rock, Punk
Страна: Ireland
Лейбл: Cleopatra Records
Продолжительность: 00:39:49
Формат/Кодек: FLAC
Битрейт аудио: Lossless

Трек-лист

01 - Banana Boy (00:03:19)
02 - The Crabbit (00:04:00)
03 - The Ear Fairy (00:03:29)
04 - Guts The Cat (00:02:51)
05 - The Hedgehog Swallower (00:04:31)
06 - Micky Mould (00:05:45)
07 - Doctor Moogle (00:03:31)
08 - Pillowman (00:03:41)
09 - Willy Wet Pockets (00:03:28)
10 - Sally Shortcake (00:05:10)

Log

DON'T MODIFY THIS FILE
-----------------------
PERFORMER: auCDtect Task Manager, ver. 1.5.1RC3 build 1.5.1.4
Copyright (c) 2008-2010 y-soft. All rights reserved
http://y-soft.org
ANALYZER: auCDtect: CD records authenticity detector, version 0.8.2
Copyright (c) 2004 Oleg Berngardt. All rights reserved.
Copyright (c) 2004 Alexander Djourik. All rights reserved.
FILE: 10 - Sally Shortcake.flac
Size: 42225005 Hash: 5B56F613800F76DCAA0DA5C033B0E94C Accuracy: -m40
Conclusion: CDDA 100%
Signature: F96AC86E625D2800F888BE61E9979BB4E6386505
FILE: 09 - Willy Wet Pockets.flac
Size: 30225772 Hash: E16E715DDDEDAE406FDC56E87387791C Accuracy: -m40
Conclusion: CDDA 100%
Signature: 09667A768EE2BD7A16FCEF4031B6EBDBB15CF41B
FILE: 08 - Pillowman.flac
Size: 29715258 Hash: 723486B49D2BCE7E033F4F74BD3E18BA Accuracy: -m40
Conclusion: CDDA 100%
Signature: 54D8E44B2D5783279C5FDF26F168937CEFBA2582
FILE: 07 - Doctor Moogle.flac
Size: 27857356 Hash: 7E92BF4FBFC390259D2ED492B37AA913 Accuracy: -m40
Conclusion: CDDA 100%
Signature: 23636C2E7C55EDA88C4F03EAE004118ED02A2E89
FILE: 06 - Micky Mould.flac
Size: 50012906 Hash: 47FDC2301A1FE4CAED323326F7AE2C81 Accuracy: -m40
Conclusion: CDDA 100%
Signature: 515C68C0A61D71D0413F0A0C1F144CF9A3798DAD
FILE: 05 - The Hedgehog Swallower.flac
Size: 36587677 Hash: FAE03929334F52AD34D72EB50FF986B4 Accuracy: -m40
Conclusion: CDDA 100%
Signature: 397FAA67FECDCC2193B654F8EDC699DE5BA0F7B2
FILE: 04 - Guts The Cat.flac
Size: 22653668 Hash: 9B79A5FBF649B51F0189A34B5722E58D Accuracy: -m40
Conclusion: CDDA 100%
Signature: 1E7D2D09C001850A7B70CC4ED720992866B443F9
FILE: 03 - The Ear Fairy.flac
Size: 27468239 Hash: 7C8A6B9B66A0B513EBD3E0521B464FD5 Accuracy: -m40
Conclusion: CDDA 100%
Signature: 46BAD67E06EF05A0FD633372797ED3A2BCBE41EA
FILE: 02 - The Crabbit.flac
Size: 30945169 Hash: BFC8729B39DECE1BF6FAFF93F4691ABE Accuracy: -m40
Conclusion: CDDA 100%
Signature: 87BFE805575F3F2F1B61965FAC7CE6D88D2F792A
FILE: 01 - Banana Boy.flac
Size: 27484488 Hash: 6B9462B816874AF9D45160BE995299DC Accuracy: -m40
Conclusion: CDDA 100%
Signature: CDAD3DB19004BE583748F88EF43D3713F89358C9

admin

Post 04-Jun-2021 21:53

[Quote]

Название: Nowhere Generation
Исполнитель: Rise Against
Год: 2021
Жанр: Punk Rock
Страна: USA
Лейбл: Loma Vista Recordings
Продолжительность: 00:41:42
Формат/Кодек: MP3
Битрейт аудио: 320 kbps

Трек-лист

01 The Numbers [00:04:59]
02 Sudden Urge [00:03:47]
03 Nowhere Generation [00:03:52]
04 Talking To Ourselves [00:03:24]
05 Broken Dreams Inc [00:03:53]
06 Forfeit [00:03:45]
07 Monarch [00:03:32]
08 Sounds Like [00:03:25]
09 Sooner Or later [00:03:34]
10 Middle Of A Dream [00:03:44]
11 Rules Of Play [00:03:43]

admin

Post 25-Apr-2021 10:35

[Quote]

Название: К мечте
Исполнитель: А4 (Влад Бумага)
Год: 2021
Жанр: Punk Rock
Страна: Belarus
Продолжительность: 00:38:25
Формат/Кодек: MP3
Битрейт аудио: 320 Kbps

Трек-лист

01 - Не спится [00:02:57]
02 - Мир сошёл с ума [00:02:52]
03 - Не всерьёз [00:02:41]
04 - Удача с тобой [00:02:24]
05 - Вперёд [00:03:44]
06 - Луна [00:02:45]
07 - К мечте [00:03:37]
08 - Навсегда [00:03:14]
09 - Пустота [00:03:40]
10 - Уаппа [00:01:47]
11 - Ракеты [00:03:29]
12 - Жизнь настоящего панк-рокера [00:02:41]
13 - Мисс мира [00:02:28]

admin

Post 20-Apr-2021 22:35

[Quote]

Название: Levitation Session Vol. II
Исполнитель: Osees
Год: 2021
Жанр: Psych-Punk, Psychic- Warrior
Страна: Los Angeles, California, United States
Продолжительность: 01:14:54
Формат/Кодек: MP3
Битрейт аудио: 320 Kbps

Трек-лист

01 - Tidal Wave [00:03:46]
02 - Grown In A Graveyard [00:02:44]
03 - The Dream [00:07:26]
04 - Stinking Cloud [00:03:14]
05 - Enemy Destruct [00:03:05]
06 - Poisoned Stones [00:04:03]
07 - Spider Cider [00:01:07]
08 - It Killed Mom [00:02:53]
09 - Meat Step Lively [00:03:02]
10 - Snickersnee [00:03:50]
11 - Destroyed Fortress Reappears [00:05:49]
12 - Web [00:04:58]
13 - Encrypted Bounce [00:08:48]
14 - Beat Quest [00:05:23]
15 - Chromosome Damage T.V. As Eyes [Chrome Cover] [00:04:53]
16 - ST37 [Chrome Cover] [00:01:34]
17 - Looking For Your Door [Chrome Cover] [00:03:12]
18 - SS CYGNI [Chrome Cover] [00:04:59]

admin

Post 19-Apr-2021 21:15

[Quote]

Название: Ultrapop
Исполнитель: The Armed
Год: 2021
Жанр: Chaotic Hardcore, punk rock
Страна: Detroit, Michigan, United States
Продолжительность: 00:38:51
Формат/Кодек: MP3
Битрейт аудио: 320 Kbps

Трек-лист

01 - ULTRAPOP [00:02:43]
02 - ALL FUTURES [00:03:04]
03 - MASUNAGA VAPORS [00:02:30]
04 - A LIFE SO WONDERFUL [00:03:07]
05 - AN ITERATION [00:02:53]
06 - BIG SHELL [00:03:17]
07 - AVERAGE DEATH [00:04:31]
08 - FAITH IN MEDICATION [00:03:46]
09 - WHERE MAN KNOWS WANT [00:02:56]
10 - REAL FOLK BLUES [00:03:38]
11 - BAD SELECTION [00:03:44]
12 - THE MUSIC BECOMES A SKULL [00:02:38]

admin

Post 18-Apr-2021 00:45

[Quote]

Название: Огонь в темноте
Исполнитель: Мiзантропъ
Год: 2020
Жанр: Pop Punk
Страна: Ukraine
Продолжительность: 00:40:54
Формат/Кодек: MP3
Битрейт аудио: 320 Kbps

Трек-лист

01. Настоящая ненависть (Intro) [00:03:20]
02. Молодёжь Европы [00:02:17]
03. Грязь [00:03:34]
04. На руинах [00:02:53]
05. Край ночи [00:02:20]
06. Мёртвый завод [00:01:53]
07. Голод [00:03:00]
08. Мир без новостей [00:02:47]
09. Московские старые стены [00:03:04]
10. Мы и они [00:02:20]
11. 100 лет [00:02:01]
12. Новый мировой порядок [00:01:53]
13. Не сдаваться [00:03:00]
14. Утро [00:02:54]
15. Жизнь катит мимо витрины (Outro) [00:03:37]

admin

Post 13-Apr-2021 00:38

[Quote]

Название: Let The Bad Times Roll
Исполнитель: The Offspring
Год: 2021 / дата выпуска которого назначена на 16 апреля 2021
Жанр: Alternative, Pop-Punk
Страна: United States
Продолжительность: 00:33:26
Формат/Кодек: FLAC
Битрейт аудио: Lossless

Трек-лист

01. This Is Not Utopia [00:02:38]
02. Let The Bad Times Roll [00:03:18]
03. Behind Your Walls [00:03:21]
04. Army Of One [00:03:11]
05. Breaking These Bones [00:02:46]
06. Coming For You [00:03:48]
07. We Never Have Sex Anymore [00:03:30]
08. In The Hall Of The Mountain King [00:01:00]
09. The Opioid Diaries [00:03:01]
10. Hassan Chop [00:02:20]
11. Gone Away [00:03:16]
12. Lullaby [00:01:12]
 

Current time is: 25-Jun 10:50

All times are UTC + 3