Search found 162 matches

Author Message

admin

Post 13-May-2022 12:13

[Quote]

Название: In Our Souls
Исполнитель: Ms Amy Birks
Год: 2022
Жанр: Indie-Folk
Страна: UK
Продолжительность: 00:48:59
Формат/Кодек: MP3
Битрейт аудио: 320 kbps

Трек-лист

01 - In Our Souls [00:03:50]
02 - Hold On [00:03:57]
03 - Elsa [00:04:27]
04 - Brothers [00:03:18]
05 - The One That Got Away [00:04:02]
06 - A Death Scene [00:03:36]
07 - The Woman in White [00:04:44]
08 - The Dream [00:03:37]
09 - Goodnight for Now [00:03:22]
10 - Living in Sin [00:04:07]
11 - Cannot Contain [00:03:06]
12 - In Our Souls (Instrumental) [00:06:48]

admin

Post 23-Apr-2022 01:50

[Quote]

Название: Half Drunk Under a Full Moon [Deluxe]
Исполнитель: The Fratellis
Год: 2022
Жанр: Indie-Rock
Страна: UK
Продолжительность: 01:17:24
Формат/Кодек: MP3
Битрейт аудио: 320 kbps

Трек-лист

01. Half Drunk Under A Full Moon [00:05:33]
02. Need A Little Love [00:03:49]
03. Lay Your Body Down [00:03:47]
04. The Last Songbird [00:04:00]
05. Strangers In The Street [00:03:27]
06. Living In The Dark [00:03:08]
07. Action Replay [00:04:09]
08. Six Days In June [00:03:41]
09. Oh Roxy [00:04:16]
10. Hello Stanger [00:06:15]
11. Runaround Sue [00:03:10]
12. Alive [00:04:05]
13. Closing Time Again [00:03:12]
14. Need a Little Love (The Skeletonic Sessions) [00:03:58]
15. Laughing Gas (For Leonard) [00:05:11]
16. Lay Your Body Down (Sloe Gin Version) [00:04:31]
17. Hello Stranger (Old Fashioned Version) [00:06:28]
18. Yes Sir, I Can Boogie [00:04:34]

admin

Post 12-Apr-2022 17:22

[Quote]

Название: Adjust to Wellness
Исполнитель: Bigger Better Sun
Год: 2022
Жанр: Indie-Rock
Страна: USA
Продолжительность: 00:34:19
Формат/Кодек: MP3
Битрейт аудио: 320 kbps

Трек-лист

01 - Biggerer, Betterer, Sunnier (00:03:27)
02 - When I Need It Most (00:03:56)
03 - Fillers (00:04:21)
04 - Something Usually Happens (00:04:01)
05 - Great Attention (00:04:10)
06 - No Important Things (00:03:09)
07 - Poured Out (00:03:44)
08 - Mark & Everyone Else (00:03:45)
09 - Some Important Things (00:03:42)

admin

Post 10-Apr-2022 04:12

[Quote]

Название: Chloe And The Next 20th Century
Исполнитель: Father John Misty
Год: 2022
Жанр: Indie-Folk, Singer-Songwriter
Страна: USA
Продолжительность: 00:50:38
Формат/Кодек: FLAC
Тип рипа: Tracks
Битрейт аудио: Lossless
Разрядность: 24 Bit/96 kHz
Носитель: WEB

Трек-лист

01. Chloë (3:28)
02. Goodbye Mr. Blue (5:00)
03. Kiss Me (I Loved You) (3:57)
04. (Everything But) Her Love (4:16)
05. Buddy's Rendezvous (5:00)
06. Q4 (4:58)
07. Olvidado (Otro Momento) (4:48)
08. Funny Girl (3:39)
09. Only A Fool (4:03)
10. We Could Be Strangers (4:32)
11. The Next 20th Century (6:57)

DRM
foobar2000 1.6.9 / Dynamic Range Meter 1.1.1
--------------------------------------------------------------------------------
Analyzed: Father John Misty / Chloë and the Next 20th Century
--------------------------------------------------------------------------------
DR Peak RMS Duration Track
--------------------------------------------------------------------------------
DR6 -0.10 dB -8.87 dB 3:28 01-Chloë
DR6 -0.10 dB -8.46 dB 5:00 02-Goodbye Mr. Blue
DR7 -0.10 dB -8.98 dB 3:57 03-Kiss Me (I Loved You)
DR6 -0.10 dB -7.50 dB 4:16 04-(Everything But) Her Love
DR7 -0.09 dB -8.92 dB 5:00 05-Buddy's Rendezvous
DR6 -0.09 dB -7.93 dB 4:58 06-Q4
DR5 -0.10 dB -7.42 dB 4:48 07-Olvidado (Otro Momento)
DR6 -0.10 dB -8.62 dB 3:39 08-Funny Girl
DR7 -0.10 dB -8.55 dB 4:03 09-Only A Fool
DR6 -0.10 dB -7.96 dB 4:32 10-We Could Be Strangers
DR8 -0.01 dB -9.74 dB 6:57 11-The Next 20th Century
--------------------------------------------------------------------------------
Number of tracks: 11
Official DR value: DR6
Samplerate: 96000 Hz
Channels: 2
Bits per sample: 24
Bitrate: 3051 kbps
Codec: FLAC
================================================================================

admin

Post 07-Apr-2022 05:37

[Quote]

Название: This Shame Should Not Be Mine
Исполнитель: Gggolddd
Год: 2022
Жанр: Post-Punk, Gothic-Rock
Страна: Netherlands
Лейбл: Artoffact Records
Продолжительность: 00:42:52
Формат/Кодек: FLAC
Битрейт аудио: Lossless

Трек-лист

01 - I Wish I Was a Wild Thing with a Simple Heart (00:02:43)
02 - Strawberry Supper (00:03:06)
03 - Like Magic (00:03:41)
04 - Spring (00:03:39)
05 - Invisible (00:05:39)
06 - I Won't Let You Down (00:07:24)
07 - Notes on How to Trust (00:03:51)
08 - This Shame Should Not Be Mine (00:03:57)
09 - On You (00:04:10)
10 - Beat by Beat (00:04:37)

Log

DON'T MODIFY THIS FILE
-----------------------
PERFORMER: auCDtect Task Manager, ver. 1.6.0 RC1 build 1.6.0.1
Copyright (c) 2008-2010 y-soft. All rights reserved
http://y-soft.org
ANALYZER: auCDtect: CD records authenticity detector, version 0.8.2
Copyright (c) 2004 Oleg Berngardt. All rights reserved.
Copyright (c) 2004 Alexander Djourik. All rights reserved.
FILE: 10 - Beat by Beat.flac
Size: 29515218 Hash: 1CD82ADED7E9FB329537F8402692F452 Accuracy: -m40
Conclusion: CDDA 99%
Signature: 790B493F70D3BF6616011B80463A45D594871A88
FILE: 09 - On You.flac
Size: 19143967 Hash: F2360212E1AEA0C48EBF0C8B9EEBFA63 Accuracy: -m40
Conclusion: CDDA 100%
Signature: 40018B9620BA27F881558D84ABC60A6AF8923BD8
FILE: 08 - This Shame Should Not Be Mine.flac
Size: 23507137 Hash: 78802AF70F1660959DB25F3A391DA120 Accuracy: -m40
Conclusion: CDDA 100%
Signature: 60F8C79B94F1DA5E3CFD14F8919586C0BC4005FB
FILE: 07 - Notes on How to Trust.flac
Size: 23257427 Hash: 7930AAA5F46D8CC7AFA19374B30FD164 Accuracy: -m40
Conclusion: CDDA 100%
Signature: 0FD69AA6E35154E2D849A9239EA760CBB707A125
FILE: 06 - I Won't Let You Down.flac
Size: 40082941 Hash: 4F6CB9E425E8203DAE711640AA31AFE0 Accuracy: -m40
Conclusion: CDDA 99%
Signature: CD07E0B1C8EDEA42246F363EB0E6C7EA496E41CD
FILE: 05 - Invisible.flac
Size: 33222511 Hash: 3AD049B86ABD6A2306AFC7F183A955FA Accuracy: -m40
Conclusion: CDDA 100%
Signature: D72553A5EFCA20C8CAB9B9A0C0801BD896DE1CBF
FILE: 04 - Spring.flac
Size: 20062198 Hash: BA33AF2FC5B0BBFC12545BB6A660C005 Accuracy: -m40
Conclusion: CDDA 100%
Signature: 506A8A3063206099A5DDECECD92637D349276C3E
FILE: 03 - Like Magic.flac
Size: 24436296 Hash: 97223A2F6632566D76F24038CF136529 Accuracy: -m40
Conclusion: CDDA 100%
Signature: 5164F95DD10EACB4BF7BF58A9375FF444B8B3F49
FILE: 02 - Strawberry Supper.flac
Size: 18373970 Hash: FDEFEF6A492037E0BB9CD9E811356503 Accuracy: -m40
Conclusion: CDDA 100%
Signature: 2556B266F9D3EE1C55EB584F3C94654E8C744B3A
FILE: 01 - I Wish I Was a Wild Thing with a Simple Heart.flac
Size: 14566489 Hash: 821D6D1A59922C3ED0A440B10A27FBC6 Accuracy: -m40
Conclusion: CDDA 100%
Signature: D6E314D31CFB5CAF4FC7831CAC6D8E22A22A8E85

admin

Post 04-Apr-2022 02:46

[Quote]

Название: Colours
Исполнитель: Superlove
Год: 2022
Жанр: Indie-Rock
Страна: USA
Продолжительность: 00:42:46
Формат/Кодек: MP3
Битрейт аудио: 320 kbps

Трек-лист

01 - 1 (Intro) [00:00:49]
02 - Save Yourselves [00:03:27]
03 - World Of Wonder [00:03:50]
04 - Maybe I Could Tell You [00:02:54]
05 - wanna luv u [00:03:29]
06 - Baby Bird [00:04:20]
07 - #639063d [00:01:31]
08 - Colours [00:03:46]
09 - Bestfriend [00:04:03]
10 - The People You'll Love Forever [00:03:45]
11 - Yours [00:02:58]
12 - The Most Important Place In The World [00:01:46]
13 - If You Could, Would You_ [00:06:04]

admin

Post 04-Apr-2022 02:42

[Quote]

Название: Unlearning
Исполнитель: Walt Disco
Год: 2022
Жанр: Indie-Rock
Страна: USA
Продолжительность: 00:44:23
Формат/Кодек: MP3
Битрейт аудио: 320 kbps

Трек-лист

01 - Weightless [00:04:08]
02 - Selfish Lover [00:03:29]
03 - How Cool Are You_ [00:02:59]
04 - Cut Your Hair [00:02:17]
05 - Timeline [00:04:12]
06 - Be An Actor [00:03:28]
07 - The Costume Change [00:02:38]
08 - Those Kept Close [00:05:15]
09 - Hold Yourself As High As Her [00:03:22]
10 - My Dear [00:04:07]
11 - Macilent [00:03:23]
12 - If I Had a Perfect Life [00:04:59]

admin

Post 04-Apr-2022 02:41

[Quote]

Название: Cure The Jones
Исполнитель: Mamas Gun
Год: 2022
Жанр: Indie-Pop
Страна: UK
Продолжительность: 00:43:38
Формат/Кодек: MP3
Битрейт аудио: 320 kbps

Трек-лист

01 - When You Stole the Sun From the Sky [00:03:38]
02 - Looking For Moses [00:05:13]
03 - Go Through It [00:03:05]
04 - Good Love [00:03:20]
05 - Reconsider [00:03:48]
06 - Party For One [00:04:54]
07 - Friends to Lovers [00:03:09]
08 - Cure the Jones [00:04:14]
09 - You're Too Hip (For Me Baby) [00:03:14]
10 - Winner's Eyes [00:03:39]
11 - Daffodils [00:05:19]

admin

Post 30-Mar-2022 03:31

[Quote]

Название: More Truth In Fiction
Исполнитель: Yony
Год: 2022
Жанр: Indie-Rock
Страна: USA
Лейбл: A Fingerpants Production
Продолжительность: 00:36:53
Формат/Кодек: MP3
Битрейт аудио: 320 kbps

Трек-лист

01. Leave Our Heads Behind 04:18
02. Waves Of Exhaustion 02:26
03. Drift Away 02:45
04. More Truth In Fiction 02:51
05. Know Me Both 03:07
06. Morning Light 03:03
07. If It Happened 2 U 02:14
08. 1995 03:55
09. The Only Naked Guy At The Party 03:44
10. Be My Cocoon 03:10
11. Brianna 05:14

admin

Post 30-Mar-2022 03:03

[Quote]

Название: Fever Dream
Исполнитель: Cannons
Год: 2022
Жанр: Indie-Pop, Electronic
Страна: USA
Продолжительность: 00:38:23
Формат/Кодек: FLAC
Тип рипа: Tracks
Битрейт аудио: Lossless
Разрядность: 24 Bit/44,1 kHz
Носитель: WEB

Трек-лист

01. Come Alive
02. Hurricane
03. Strangers
04. Tunnel of You
05. Bad Dream
06. Ruthless
07. Only You
08. Goodbye
09. Purple Sun
10. Afterglow
11. Lightning

DRM
foobar2000 1.6.6 / Dynamic Range Meter 1.1.1
--------------------------------------------------------------------------------
Analyzed: Cannons / Fever Dream
--------------------------------------------------------------------------------
DR Peak RMS Duration Track
--------------------------------------------------------------------------------
DR5 -0.23 dB -6.69 dB 3:22 01-Come Alive
DR7 -0.28 dB -8.44 dB 3:01 02-Hurricane
DR7 -0.59 dB -9.02 dB 3:13 03-Strangers
DR7 -0.24 dB -8.11 dB 4:23 04-Tunnel of You
DR6 -0.13 dB -6.66 dB 3:23 05-Bad Dream
DR6 -0.41 dB -6.98 dB 3:25 06-Ruthless
DR5 -3.81 dB -9.60 dB 3:22 07-Only You
DR7 -0.22 dB -7.89 dB 4:23 08-Goodbye
DR5 -0.60 dB -6.71 dB 4:02 09-Purple Sun
DR7 0.00 dB -7.98 dB 3:20 10-Afterglow
DR6 -0.53 dB -8.45 dB 2:35 11-Lightning
--------------------------------------------------------------------------------
Number of tracks: 11
Official DR value: DR6
Samplerate: 44100 Hz
Channels: 2
Bits per sample: 24
Bitrate: 1583 kbps
Codec: FLAC
================================================================================

admin

Post 30-Mar-2022 02:52

[Quote]

Название: Glitterpaard
Исполнитель: Glitterpaard
Год: 2022
Жанр: Indie-Rock
Страна: Belgium
Лейбл: Starman Records
Продолжительность: 00:38:12
Формат/Кодек: MP3
Битрейт аудио: 320 kbps

Трек-лист

01. Keep Your Nose To The Grindstone 01:29
02. All Rights Reserved 03:30
03. Ask Around 03:12
04. Drawing Hands 04:13
05. The Consequence 05:00
06. Turnstile Youth 05:27
07. Distant Light 03:16
08. Into The Night 03:49
09. Birds Don't Sing 03:54
10. Zuzu's Petals 04:18

admin

Post 30-Mar-2022 02:51

[Quote]

Название: A Second
Исполнитель: Gong Wah
Год: 2022
Жанр: Indie-Rock
Страна: Germany
Лейбл: Tonzonen Records
Продолжительность: 00:38:13
Формат/Кодек: MP3
Битрейт аудио: 320 kbps

Трек-лист

01. Heartache Jean 03:24
02. The Well 02:55
03. Consolation 05:05
04. Baby, Won't You Come Along 03:23
05. Paint My Soul 03:31
06. One Fine Day 08:32
07. The Violet Room 02:39
08. This Life 04:28
09. A Head Is Not A Home 04:11

admin

Post 30-Mar-2022 02:49

[Quote]

Название: Elusive Truth
Исполнитель: Oli Rees
Год: 2022
Жанр: Indie-Rock
Страна: UK
Продолжительность: 00:48:07
Формат/Кодек: MP3
Битрейт аудио: 320 kbps

Трек-лист

01. A Better Place 04:20
02. Eclipse 03:43
03. On The Road 04:40
04. Give A Little 03:55
05. All Of The Sorrow 03:37
06. Elusive Truth 04:03
07. Then And Now 03:53
08. Halo 03:32
09. Both Sides Of The Hill 04:44
10. Your Heart Is Not Mine 03:31
11. We Never Go Far 03:42
12. It Has To Be A Dream 04:23

admin

Post 30-Mar-2022 02:47

[Quote]

Название: Fathom
Исполнитель: Soonago
Год: 2022
Жанр: Progressive, Post-Rock
Страна: Germany
Лейбл: Kapitän Platte Records
Продолжительность: 00:42:33
Формат/Кодек: MP3
Битрейт аудио: 320 kbps

Трек-лист

01. Evac 08:25
02. Besa 13:06
03. Apophenia 10:22
04. Fathom 10:39

admin

Post 29-Mar-2022 04:26

[Quote]

Название: Episodes
Исполнитель: Bart Davenport
Год: 2022
Жанр: Indie-Pop
Страна: USA
Лейбл: Tapete Records
Продолжительность: 00:44:58
Формат/Кодек: FLAC
Битрейт аудио: Lossless

Трек-лист

01 - It's You (00:03:10)
02 - Holograms (00:02:55)
03 - Alice Arrives (00:03:48)
04 - Easy Listeners (00:03:35)
05 - Billionaires (00:03:49)
06 - All Dressed in Rain (00:04:08)
07 - Naked Man (00:03:24)
08 - Strange Animal (00:05:16)
09 - Wireless Moon (00:03:59)
10 - 99 Forever (00:02:50)
11 - Creatures in Love (00:03:59)
12 - Still Life (00:04:00)

Log

DON'T MODIFY THIS FILE
-----------------------
PERFORMER: auCDtect Task Manager, ver. 1.6.0 RC1 build 1.6.0.1
Copyright (c) 2008-2010 y-soft. All rights reserved
http://y-soft.org
ANALYZER: auCDtect: CD records authenticity detector, version 0.8.2
Copyright (c) 2004 Oleg Berngardt. All rights reserved.
Copyright (c) 2004 Alexander Djourik. All rights reserved.
FILE: 12 - Still Life.flac
Size: 23927207 Hash: 3FAC44BE792A510D40E17229AB297587 Accuracy: -m40
Conclusion: CDDA 100%
Signature: AA6598A9772B6A9E486399405A6E2977B1190697
FILE: 11 - Creatures in Love.flac
Size: 25134259 Hash: 783C61DBD78031F61A2D0EE66C3F09F5 Accuracy: -m40
Conclusion: CDDA 100%
Signature: 884C6B8DF89BD0CE02DA60E3E122CF09983D28F1
FILE: 10 - 99 Forever.flac
Size: 16023514 Hash: 2838E68D2994D981E964933A80F070E5 Accuracy: -m40
Conclusion: CDDA 99%
Signature: D60CAA47E70FE93B79B7E8D2B568ECDD233CAB01
FILE: 09 - Wireless Moon.flac
Size: 24731702 Hash: 67A53B81B30D1D8BC08F55E040ACD7D5 Accuracy: -m40
Conclusion: CDDA 100%
Signature: 395B4F5F39719FCB5F800DCC1954D62A14A49355
FILE: 08 - Strange Animal.flac
Size: 35180541 Hash: 3D5C1C249C864DC0E068E12C2799FE48 Accuracy: -m40
Conclusion: CDDA 100%
Signature: D6673F410EE5574217BFBD247E570DD79E026B9D
FILE: 07 - Naked Man.flac
Size: 21731339 Hash: 9924E0FB4C60D6127438490E3CF0D3D4 Accuracy: -m40
Conclusion: CDDA 100%
Signature: C8A96A4CAB452CDA26663B83E35234C635854CF3
FILE: 06 - All Dressed in Rain.flac
Size: 26601965 Hash: D5EF8485C067E9A4A2C1879A38914FE1 Accuracy: -m40
Conclusion: CDDA 100%
Signature: F8825582DE897918E42B308F8BCA0B35C460A23B
FILE: 05 - Billionaires.flac
Size: 21448787 Hash: 06B03DEA6E07D02CF91224B6D49D7CA7 Accuracy: -m40
Conclusion: CDDA 100%
Signature: 6BD64B87295EE3CB491424097CF6CB81BE68C103
FILE: 04 - Easy Listeners.flac
Size: 23573746 Hash: 6F680B3D8EFFAAAC96936FD186EC2A8E Accuracy: -m40
Conclusion: CDDA 100%
Signature: B78FAFEE87062A4D3896B2C47BFCFEFA24FB1243
FILE: 03 - Alice Arrives.flac
Size: 19348142 Hash: 0DFB360B177867629CBF9D86EE8C8BD3 Accuracy: -m40
Conclusion: CDDA 100%
Signature: 8AC1629DA2443E8037E23720A4B368D8BFE4216E
FILE: 02 - Holograms.flac
Size: 16970300 Hash: 319DDE34A02B104C7023A571D40BDC32 Accuracy: -m40
Conclusion: CDDA 100%
Signature: A72E789979307B916550C3D43B9D82BB68589409
FILE: 01 - It's You.flac
Size: 19777962 Hash: 7F33FC5D24CD252D887C3525921C0327 Accuracy: -m40
Conclusion: CDDA 100%
Signature: 606DF56213F4D942539C2E7B5196812B778FB60C
 

Current time is: 20-May 14:12

All times are UTC + 3