Search found 23 matches

Author Message

admin

Post 23-Jun-2022 12:26

[Quote]

Название: Дискография
Исполнитель: Wardruna
Год: 2009-2022
Жанр: Neofolk, NordicRitualFolk, Ambient
Страна: Norway
Продолжительность: 06:05:25
Формат/Кодек: MP3
Битрейт аудио: 320 kbps

Трек-лист:

2009: Runaljod - gap var Ginnunga
01. Ár var alda 02:19
02. Hagal 07:40
03. Bjarkan 05:53
04. Løyndomsriss 03:15
05. Heimta Thurs 04:18
06. Thurs 01:16
07. Jara 05:02
08. Laukr 04:05
09. Kauna 02:34
10. Algir - Stien klarnar 04:17
11. Algir - Tognatale 05:39
12. Dagr 05:38
2013: Runaljod – Yggdrasil
01. Rotlaust tre fell 04:11
02. Fehu 06:43
03. NaudiR 06:31
04. EhwaR 04:10
05. AnsuR 06:31
06. IwaR 05:42
07. IngwaR 05:28
08. Gibu 05:30
09. Solringen 06:30
10. Sowelu 07:40
11. Helvegen 07:11
2016: Runaljod - Ragnarok
01. Tyr 06:30
02. UruR 10:11
03. Isa 07:13
04. MannaR - Drivande 04:09
05. MannaR - Liv 05:13
06. Raido 04:46
07. Pertho 02:18
08. Odal 05:29
09. Wunjo 05:20
10. Runaljod 07:36
2018 - Skald
01. Vardlokk (2:08)
02. Skald (2:02)
03. Ein sat hon uti (4:07)
04. Voluspá (Skaldic Version) (6:21)
05. Fehu (Skaldic Version) (3:28)
06. Vindavla (5:35)
07. Ormagardskvedi (3:11)
08. Gravbakkjen (2:41)
09. Sonatorrek (15:52)
10. Helvegen (Skaldic Version) (4:36)
2020 - Lyfjaberg (single) {00:08:27}
01. Lyfjaberg (8:27)
2022 - Kvitravn - First Flight of the White Raven {01:05:44 + 01:08:14}
Disc 1:
01. Synkverv (4:51)
02. Kvitravn (6:18)
03. Skugge (6:38)
04. Grá (3:32)
05. Fylgjutal (7:05)
06. Munin (5:26)
07. Kvit hjort (5:41)
08. Viseveiding (4:48)
09. Ni (4:29)
10. Vindavlarljod (6:40)
11. Andvevarljod (10:16)
Disc 2:
01. Kvitravn (Live) (6:16)
02. Skugge (Live) (6:10)
03. Solringen (Live) (4:46)
04. Bjarkan (Live) (5:48)
05. Raido (Live) (4:41)
06. Voluspá (Live) (3:40)
07. Isa (Live) (5:31)
08. UruR (Live) (5:22)
09. Grá (Live) (3:31)
10. Vindavlarljod (Live) (5:53)
11. Rotlaust Tre Fell (Live) (4:12)
12. Fehu (Live) (5:28)
13. Helvegen (Live) (6:57)
Автор сборки: Andromaxvic

Доп. информация:

Wardruna — музыкальный проект, основанный на северном спиритуализме и рунах Старшего футарка. Основан Эйнаром «Квитрафном» Селвиком в 2003 году, совместно с Гаалом и Линди Фэй Хелла.
С момента начала проекта было выпущено два альбома, основанных на наборах рун. Wardruna уже получила известность благодаря тому, что именно эта музыка звучала в фильме Петера Бесте "True Norvegian Black Metal". Также оценят музыку фанаты сериала Викинги - многие композиции Wardruna является частью саундтрека известной исторической драмы.

admin

Post 10-May-2022 01:07

[Quote]

Название: Too Late
Исполнитель: Echoes of Silence
Год: 2022
Жанр: Gothic-Rock, Post-Punk
Страна: Italy / France
Лейбл: Icy Cold Records
Продолжительность: 00:36:31
Формат/Кодек: MP3
Битрейт аудио: 320 kbps

Трек-лист

01 - Around [00:03:26]
02 - Lover [00:01:59]
03 - Lace [00:03:34]
04 - Too Late [00:03:24]
05 - Beside [00:06:17]
06 - How [00:02:14]
07 - Decide [00:03:49]
08 - Alive [00:01:59]
09 - Endless Fall [00:09:44]

admin

Post 15-Mar-2022 05:51

[Quote]

Название: Fascination
Исполнитель: The Birthday Massacre
Год: 2022
Жанр: Synth-Rock, Gothic-Rock
Страна: Canada
Продолжительность: 00:42:16
Формат/Кодек: FLAC
Тип рипа: Tracks
Битрейт аудио: Lossless
Разрядность: 24 Bit/44.1 kHz
Носитель: WEB

Трек-лист

01. Fascination (05:02)
02. Dreams of You (03:21)
03. Cold Lights (04:16)
04. Stars and Satellites (04:13)
05. One More Time (04:33)
06. Like Fear, Like Love (04:24)
07. Once Again (03:56)
08. Precious Hearts (04:24)
09. The End of All Stories (04:23)
10. Dreams of You [Radio] (03:39)

DRM
foobar2000 1.6.10 / Замер динамического диапазона (DR) 1.1.1
--------------------------------------------------------------------------------
Анализ: The Birthday Massacre / Fascination
--------------------------------------------------------------------------------
DR Пики RMS Продолжительность трека
--------------------------------------------------------------------------------
DR6 -0.14 дБ -8.39 дБ 5:03 01-Fascination
DR6 -0.03 дБ -7.85 дБ 3:22 02-Dreams of You
DR6 0.00 дБ -7.77 дБ 4:16 03-Cold Lights
DR6 0.00 дБ -8.01 дБ 4:14 04-Stars and Satellites
DR7 0.00 дБ -8.18 дБ 4:34 05-One More Time
DR7 -0.01 дБ -8.01 дБ 4:24 06-Like Fear, Like Love
DR7 0.00 дБ -8.12 дБ 3:57 07-Once Again
DR6 -0.04 дБ -7.88 дБ 4:25 08-Precious Hearts
DR6 0.00 дБ -7.67 дБ 4:23 09-The End of All Stories
DR6 0.00 дБ -7.25 дБ 3:39 10-Dreams of You [Radio]
--------------------------------------------------------------------------------
Количество треков: 10
Реальные значения DR: DR6
Частота: 44100 Гц
Каналов: 2
Разрядность: 24
Битрейт: 1780 кбит/с
Кодек: FLAC
================================================================================

admin

Post 23-Dec-2021 01:46

[Quote]

Название: Red Sun Phenomenon
Исполнитель: Red Sun Phenomenon
Год: 2021
Жанр: Hard-Rock,Gothic Rock
Страна: Canada
Лейбл: donny smith music
Продолжительность: 00:37:53
Формат/Кодек: MP3
Битрейт аудио: 320 kbps

Трек-лист

01. Straight Shootin' Woman 04:44
02. Aggravated 03:42
03. Keep On Dreaming 05:24
04. Kill The Love 05:13
05. They Go Up 04:37
06. Ship Is Sinking 04:24
07. House Is On Fire 03:39
08. Mr. Mental 06:07

admin

Post 10-Dec-2021 04:24

[Quote]

Название: Third Time Down
Исполнитель: Johnny Forlorn
Год: 2021
Жанр: Gothic-Rock, Darkwave
Страна: United States, Seattle, Washington
Продолжительность: 00:50:45
Формат/Кодек: FLAC
Битрейт аудио: Lossless [16-Bit / 44.1 kHz]

Трек-лист

01 - Third Time Down (00:05:27)
02 - The Storm Inside (00:04:09)
03 - Sanctuary (00:03:49)
04 - I See You (00:04:05)
05 - Shadow Magick (00:05:29)
06 - The Drowning Man (00:04:52)
07 - Eating Strawberries & Cream (00:04:20)
08 - My Friends, the Crows (00:05:01)
09 - Putting on Chains (00:05:14)
10 - Voices at Night (00:03:41)
11 - Sinking (00:04:33)

admin

Post 09-Dec-2021 04:43

[Quote]

Название: Discography [2CD]
Исполнитель: Lindy-Fay Hella
Год: 2019-2021
Жанр: Dark-Folk, Neofolk, Fairy-Magick
Страна: г. Берген, Норвегия
Продолжительность: 00:74:34
Формат/Кодек: MP3
Битрейт аудио: 320 Kbps

Трек-лист

2019 - Seafarerм (320 kbps) (00:35:03)

01. Seafarer (04:34)
02. Two Suns (03:23)
03. Skaddo (04:04)
04. Bottle of Sorrow (03:17)
05. Nake Du Finn I Skogen (04:09)
06. Mars (02:35)
07. Three Standing Stones (04:05)
08. Tilarids (04:11)
09. Horizon (04:45)
2021 - Hildring (320 kbps) (00:39:31)

01. Hildring (03:29)
02. Los (05:26)
03. Insect (05:00)
04. The Lake (03:31)
05. Brising (05:16)
06. Kjetto (02:57)
07. Taag (04:23)
08. Otherworld (04:32)
09. Gjelet (04:58)

admin

Post 07-Dec-2021 04:36

[Quote]

Название: Third Time Down
Исполнитель: Johnny Forlorn
Год: 2021
Жанр: Gothic-Rock, Darkwave
Страна: USA
Продолжительность: 00:50:45
Формат/Кодек: MP3
Битрейт аудио: 320 kbps

Трек-лист

01. Third Time Down 05:27
02. The Storm Inside 04:09
03. Sanctuary 03:49
04. I See You 04:05
05. Shadow Magick 05:29
06. The Drowning Man 04:52
07. Eating Strawberries & Cream 04:20
08. My Friends, The Crows 05:01
09. Putting On Chains 05:14
10. Voices At Night 03:41
11. Sinking 04:33

admin

Post 20-Apr-2021 22:52

[Quote]

Название: Raised on Rock and Roll
Исполнитель: Cricketbows
Год: 2021
Жанр: sychedelic Rock, Heavy Rock, Alt-Country
Страна: Dayton, Ohio, USA
Продолжительность: 00:33:13
Формат/Кодек: MP3
Битрейт аудио: 320 Kbps

Трек-лист

01 - Raised On Rock And Roll [00:05:04]
02 - Gracious Peasant [00:03:49]
03 - Ride Or Die [00:04:05]
04 - Necronomicon [00:03:59]
05 - Ohio Valley Springtime [00:04:12]
06 - Kentucky Mountain Lady [00:05:05]
07 - Saccharine Sweet [00:04:01]
08 - Raggedy Hillside [00:02:55]

admin

Post 30-Mar-2021 17:47

[Quote]

Название: Black Candy
Исполнитель: Snake Bite Whisky
Год: 2021
Жанр: Glam Hard Rock
Страна: Australia
Продолжительность: 00:36:10
Формат/Кодек: MP3
Битрейт аудио: 320 Kbps

Трек-лист

01 - Thunderbird [00:02:27]
02 - Raised in Hell [00:03:47]
03 - Creep Show [00:03:43]
04 - Choke [00:03:41]
05 - Bones in the Fire [00:05:04]
06 - Reload, Aim, Kill [00:03:53]
07 - Sweet Cocaine [00:03:18]
08 - Hammered [00:03:43]
09 - Dead by Dawn [00:02:49]
10 - End of the Line [00:03:40]

admin

Post 27-Nov-2018 03:46

[Quote]

Название: Skald
Исполнитель: Wardruna
Год: 2018
Жанр: Folk
Страна: Норвегия
Продолжительность: 00:50:03
Формат/Кодек: MP3
Битрейт аудио: 320Kbps

Трек-лист

01 - Vardlokk
02 - Skald
03 - Ein sat hon uti
04 - Voluspá (Skaldic Version)
05 - Fehu (Skaldic Version)
06 - Vindavla
07 - Ormagardskvedi
08 - Gravbakkjen
09 - Sonatorrek
10 - Helvegen (Skaldic Version)

admin

Post 15-Aug-2018 07:36

[Quote]

King Dude / Sex
Жанр: Death Country, Alt-Country, Neofolk
Страна: US
Год издания: 2016
Аудиокодек: MP3
Битрейт аудио: 320 kbps
Продолжительность: 00:40:17
01 - Holy Christos
02 - Who Taught You How To Love
03 - I Wanna Die At 69
04 - Our Love Will Carry On
05 - Sex Dungeon (USA)
06 - Conflict & Climax
07 - The Leather One
08 - Swedish Boys
09 - Prisoners
10 - The Girls
11 - Shine Your Light

Состав

King Dude
T.J. Cowgill
August Johnson
Lee Newman
Tosten Larson
Foie Gras

admin

Post 15-Aug-2018 07:31

[Quote]

-Дата выпуска: 2010 - 2013 // Страна: USA
Формат: MP3 (tracks) //Битрейт: 128-320 kbps
Продолжительность: 01:44:49
-

2010 - Solanaceae & King Dude - Split (320) (00:05:44)

Битрейт: 320 kbps
Продолжительность: 00:05:44
Треклист:
01. Sorrow And Its Companions [00:02:51]
02. Werewolves [00:02:53]
Доп. информация: 'Sorrow And Its Companions' was recorded at Soundscape Studio, Copenhagen, Denmark, spring 2010.
'Werewolves' was recorded at the King Dude studio in Seattle, Washington, USA, January 2010.
Mastered at Soundscape Studio
The 7" comes in a strong cardboard cover incl. insert.
Limited edition of 500 copies.

2010 - Tonight's Special Death (128-149 VBR) (00:18:51)

Битрейт: 128-149 kbps
Продолжительность: 00:18:51
Треклист:
01. My Everlasting Life [00:03:04]
02. Witch's Hammer [00:02:06]
03. River Of Gold [00:03:05]
04. Born In Blood [00:02:18]
05. Slaves [00:02:24]
06. Design [00:01:38]
07. Love All Around You [00:02:09]
08. No One Is Here [00:02:05]
Доп. информация: CDr
Edition of 100 hand-numbered copies.
Comes in thin plastic envelope with black and white xerox 2 separate pages booklet.

2011 - Love (320) (00:27:34)

Битрейт: 320 kbps
Продолжительность: 00:27:34
Треклист:
01. Intro [00:01:41]
02. Don't Want Me Still [00:01:51]
03. In the Eyes Of the Lord [00:02:59]
04. Spiders In Her Hair [00:02:24]
05. Please Stay (In The Shadow Of My Grave) [00:04:14]
06. Eternal Night [00:02:49]
07. Lucifer's The Light Of The World [00:02:36]
08. Big Blue Eyes [00:02:24]
09. Hello Mary [00:03:20]
10. Endless Rose [00:03:13]

2012 - Burning Daylight (320) (00:33:40)

Битрейт: 320 kbps
Продолжительность: 00:33:40
Треклист:
01. Introduction [00:01:24]
02. Holy Land [00:03:26]
03. Barbara Anne [00:03:58]
04. I'm Cold [00:02:31]
05. Vision in Black [00:04:12]
06. Jesus in the Courtyard [00:03:26]
07. I Know You're Mine [00:00:59]
08. My Mother Was the Moon [00:03:28]
09. Lorraine [00:02:00]
10. You Can Break My Heart [00:03:22]
11. Lord, I'm Coming Home [00:04:50]

2013 - Holy Trinity (7'') (128) (00:09:24)

Битрейт: 128 kbps
Продолжительность: 00:09:24
Треклист:
01. Please Stay (In The Shadow Of My Grave) [00:02:32]
02. Witch's Hammer [00:01:53]
03. Don't Want Me Still [00:02:09]
04. Eternal Night [00:02:50]
Доп. информация: Available in three limited versions:
1. standard (this version)
2. with extra black leather-structured sleeve
3. with extra white cotton-structured sleeve
A1, B1, B2: The original arrangement was featured on the album "Love"
A2: The original arrangement was featured on the album "Tonight's Special Death"
This 7" was available for purchase at live shows during the early 2013 European tour.

2013 - Urfaust - King Dude 7'' (Spiritus Nihilus / Pagan Eyes Over German Skies) (251-267 VBR) (00:09:34)

Битрейт: 251-267 kbps
Продолжительность: 00:09:34
Треклист:
01 Urfaust - Spiritus Nihilismus [00:05:03]
02 King Dude - Pagan Eyes Over German Skies [00:04:30]
Доп. информация: - 7" black virgin vinyl
- silver & brass print on black solid-coloured rough cartonstock

admin

Post 15-Aug-2018 07:28

[Quote]

Wardruna - Дискография (2009 - 2016- -Жанр: Folk Ambient/ Dark Ambient | Страна исполнителя (группы): Норвегия | Год издания: 2009-2016
Аудиокодек: MP3 | Тип рипа: tracks | Битрейт аудио: 320 kbps

Википедия


Wardruna — музыкальный проект, основанный на северном спиритуализме и рунах Старшего футарка. Основан Эйнаром «Квитрафном» Селвиком в 2003 году, совместно с Гаалом и Линди Фэй Хелла.
Official Website

2009 - Runaljod - Gap Var Ginnunga {51:59}

Треклист:
01. Ár Var Alda (2:19)
02. Hagal (7:40)
03. Bjarkan (5:53)
04. Løyndomsriss (3:15)
05. Heimta Thurs (4:18)
06. Thurs (1:16)
07. Jara (5:02)
08. Laukr (4:05)
09. Kauna (2:34)
10. Algir - Stien Klarnar (4:17)
11. Algir - Tognatale (5:39)
12. Dagr (5:38)

2013 - Runaljod - Yggdrasil {01:06:16}

Треклист:
01. Rotlaust Tre Fell (4:12)
02. Fehu (6:45)
03. NaudiR (6:32)
04. EhwaR (4:11)
05. AnsuR (6:32)
06. IwaR (5:43)
07. IngwaR (5:29)
08. Gibu (5:30)
09. Solringen (6:30)
10. Sowelu (7:40)
11. Helvegen (7:12)

2016 - Runaljod - Ragnarok {58:48}

Треклист:
01. Tyr (6:30)
02. UruR (10:11)
03. Isa (7:13)
04. MannaR - Drivande (4:09)
05. MannaR - Liv (5:13)
06. Raido (4:46)
07. Pertho (2:18)
08. Odal (5:31)
09. Wunjo (5:20)
10. Runaljod (7:36)

admin

Post 15-Aug-2018 07:01

[Quote]

The Sisters Of Mercy / Some Girls Wander By Mistake
Жанр: Gothic Rock
Носитель: WEB
Год издания: 1992 (Remastered 2017)
Издатель (лейбл): WM UK
Страна исполнителя (группы): UK
Аудиокодек: FLAC (*.flac)
Тип рипа: tracks
Битрейт аудио: lossless
Продолжительность: 1:51:47
Источник (релизер): 7digital
Наличие сканов в содержимом раздачи: нет
Треклист:
1. Alice (3:35)
2. Floorshow (3:41)
3. Phantom (7:11)
4. 1969 (2:45)
5. Kiss The Carpet (5:55)
6. Lights (5:51)
7. Valentine (4:44)
8. Fix (3:42)
9. Burn (4:50)
10. Kiss The Carpet (Reprise) (0:36)
11. Temple of Love (Extended Version 1983) (8:08)
12. Heartland (4:47)
13. Gimme Shelter (5:57)
14. The Damage Done (3:03)
15. Watch (3:12)
16. Home Of The Hit-Men (0:35)
17. Body Electric (4:19)
18. Adrenochrome (2:57)
19. Anaconda (4:07)
20. Temple of Love (1992) (8:08)
21. Vision Thing (Canadian Club Remix) (7:34)
22. Under the Gun (Metropolis Mix) (6:18)
23. Alice (1993) (4:00)
24. Under the Gun (Jutland Mix) (6:19)

О релизе

Это ремастированный сборник синглов «Some Girls Wander by Mistake», выпущенный первоначально в 1992 году. Запись включает кавер-версии песен The Stooges «1969» и The Rolling Stones «Gimme Shelter» и также расширенную версию «Temple of Love». Название альбома происходит из песни Леонарда Коэна «Teachers» из альбома 1967 года «Songs of Leonard Cohen», которая является одной из постоянных номеров живых выступлений группы. Бокс-сет так же включает два 12-дюймовых сингла. Первый — это перезаписанная версия «Temple of Love» 1992 года, с вокалом израильской певицы Офры Хазы, который остается самым большим международным хитом группы, достигшим 3-го места в британских чартах. Второй — «Under the Gun» 1993 года, последний релиз коллектива, который включает обновленную версию трека «Alice».

Лог Audiochecker

AUDIOCHECKER v2.0 beta (build 457) - by Dester - opdester@freemail.hu
~~~~~~~~~~~~~~~~~~~~~~~~~~~~~~~~~~
-=== DO NOT EDIT THIS FILE! ===-
Path: ...\The Sisters of Mercy - Some Girls Wander By Mistake (1992, Remastered 2017)
01 -=- 01 - Alice.flac -=- CDDA (99%)
02 -=- 02 - Floorshow.flac -=- CDDA (100%)
03 -=- 03 - Phantom.flac -=- CDDA (100%)
04 -=- 04 - 1969.flac -=- CDDA (100%)
05 -=- 05 - Kiss the Carpet.flac -=- CDDA (100%)
06 -=- 06 - Lights.flac -=- MPEG (95%)
07 -=- 07 - Valentine.flac -=- CDDA (100%)
08 -=- 08 - Fix.flac -=- CDDA (100%)
09 -=- 09 - Burn.flac -=- CDDA (100%)
10 -=- 10 - Kiss the Carpet (Reprise).flac -=- CDDA (100%)
11 -=- 11 - Temple of Love (Extended Version 1983).flac -=- CDDA (100%)
12 -=- 12 - Heartland.flac -=- CDDA (100%)
13 -=- 13 - Gimme Shelter.flac -=- CDDA (100%)
14 -=- 14 - The Damage Done.flac -=- CDDA (100%)
15 -=- 15 - Watch.flac -=- CDDA (99%)
16 -=- 16 - Home of the Hit-Men.flac -=- CDDA (100%)
17 -=- 17 - Body Electric.flac -=- CDDA (100%)
18 -=- 18 - Adrenochrome.flac -=- CDDA (100%)
19 -=- 19 - Anaconda.flac -=- MPEG (95%)
20 -=- 20 - Temple of Love (1992).flac -=- CDDA (100%)
21 -=- 21 - Vision Thing (Canadian Club Remix).flac -=- CDDA (100%)
22 -=- 22 - Under the Gun (Metropolis Mix).flac -=- MPEG (95%)
23 -=- 23 - Alice (1993).flac -=- MPEG (95%)
24 -=- 24 - Under the Gun (Jutland Mix).flac -=- CDDA (100%)
Summary 84,08% CDDA
183427716

Спектрограмма

admin

Post 15-Aug-2018 06:57

[Quote]

Rome / Hall Of Thatch
Жанр: Neofolk, Industrial
Носитель: CD
Страна-производитель диска (релиза): Germany
Год издания: 2018
Издатель (лейбл): Trisol
Номер по каталогу: TRI 606 CD
Страна исполнителя (группы): Luxembourg
Аудиокодек: FLAC (*.flac)
Тип рипа: image+.cue
Битрейт аудио: lossless
Источник (релизер): Оригинальный диск
Наличие сканов в содержимом раздачи: нет
Треклист:
1 Blighter 4:21
2 Nurser 4:38
3 Hunter 6:11
4 Slaver 5:28
5 Martyr 3:39
6 Hawker 3:49
7 Prayer 5:05
8 Keeper 4:17
9 Clemency 4:38

Лог создания рипа

Exact Audio Copy V1.3 from 2. September 2016
Отчёт EAC об извлечении, выполненном 6. марта 2018, 22:03
Rome / Hall Of Thatch
Дисковод: ASUS DRW-1814BLT Adapter: 3 ID: 0
Режим чтения : Достоверность
Использование точного потока : Да
Отключение кэша аудио : Да
Использование указателей C2 : Нет
Коррекция смещения при чтении : 6
Способность читать области Lead-in и Lead-out : Нет
Заполнение пропущенных сэмплов тишиной : Да
Удаление блоков с тишиной в начале и конце : Нет
При вычислениях CRC использовались нулевые сэмплы : Да
Интерфейс : Установленный внешний ASPI-интерфейс
Выходной формат : Пользовательский кодировщик
Выбранный битрейт : 128 kBit/s
Качество : Высокий
Добавление ID3-тега : Нет
Утилита сжатия : C:\Program Files (x86)\Exact Audio Copy\Flac\flac.exe
Дополнительные параметры : -V -8 -T "Date=%year%" -T "Genre=%genre%" %source%
TOC извлечённого CD
Трек | Старт | Длительность | Начальный сектор | Конечный сектор
---------------------------------------------------------------------
1 | 0:00.00 | 4:21.38 | 0 | 19612
2 | 4:21.38 | 4:43.54 | 19613 | 40891
3 | 9:05.17 | 6:11.14 | 40892 | 68730
4 | 15:16.31 | 5:28.57 | 68731 | 93387
5 | 20:45.13 | 3:39.53 | 93388 | 109865
6 | 24:24.66 | 3:49.50 | 109866 | 127090
7 | 28:14.41 | 5:05.29 | 127091 | 149994
8 | 33:19.70 | 4:17.38 | 149995 | 169307
9 | 37:37.33 | 4:38.57 | 169308 | 190214
Характеристики диапазона извлечения и сообщения об ошибках
Выбранный диапазон
Имя файла E:\MUSIC\Rome Hall of Thatch 2018\Rome - Hall Of Thatch.wav
Пиковый уровень 98.2 %
Скорость извлечения 4.0 X
Качество диапазона 100.0 %
CRC копии 29DEF668
Копирование... OK
Ошибок не произошло
Конец отчёта

Содержание индексной карты (.CUE)

REM GENRE Folk/Rock
REM DATE 2018
REM DISCID 7909E809
REM COMMENT "ExactAudioCopy v1.3"
PERFORMER "Rome"
TITLE "Hall Of Thatch"
REM COMPOSER ""
FILE "Rome - Hall Of Thatch.flac" WAVE
TRACK 01 AUDIO
TITLE "Blighter"
PERFORMER "Rome"
REM COMPOSER ""
INDEX 01 00:00:00
TRACK 02 AUDIO
TITLE "Nurser"
PERFORMER "Rome"
REM COMPOSER ""
INDEX 01 04:21:38
TRACK 03 AUDIO
TITLE "Hunter"
PERFORMER "Rome"
REM COMPOSER ""
INDEX 01 09:05:17
TRACK 04 AUDIO
TITLE "Slaver"
PERFORMER "Rome"
REM COMPOSER ""
INDEX 01 15:16:31
TRACK 05 AUDIO
TITLE "Martyr"
PERFORMER "Rome"
REM COMPOSER ""
INDEX 01 20:45:13
TRACK 06 AUDIO
TITLE "Hawker"
PERFORMER "Rome"
REM COMPOSER ""
INDEX 01 24:24:66
TRACK 07 AUDIO
TITLE "Prayer"
PERFORMER "Rome"
REM COMPOSER ""
INDEX 01 28:14:41
TRACK 08 AUDIO
TITLE "Keeper"
PERFORMER "Rome"
REM COMPOSER ""
INDEX 01 33:19:70
TRACK 09 AUDIO
TITLE "Clemency"
PERFORMER "Rome"
REM COMPOSER ""
INDEX 01 37:37:33

Лог проверки качества

---- CUETools DB Plugin V2.1.6
[CTDB TOCID: rct8ztw9lw1erKIXXFTb056nEPQ-] found
Submit result: already submitted
Track | CTDB Status
1 | (14/14) Accurately ripped
2 | (14/14) Accurately ripped
3 | (14/14) Accurately ripped
4 | (14/14) Accurately ripped
5 | (14/14) Accurately ripped
6 | (14/14) Accurately ripped
7 | (14/14) Accurately ripped
8 | (14/14) Accurately ripped
9 | (14/14) Accurately ripped
==== Контрольная сумма отчёта C748E148B3021A240426C732942A134EB1FC31905D74E9DFC3258408BC7D82F1 ====

Об исполнителе (группе)

Rome was founded in November 2005 in Luxembourg as a main output for the songs of Jérôme Reuter and was signed to Cold Meat Industry in early 2006.
In 2009 Rome consists of three members and is signed to [Trisol] Music Group GmbH.

Состав

Producer, Words By, Music By, Performer – Jerome Reuter
 

Current time is: 28-Jun 10:32

All times are UTC + 3