Search found 7 matches

Author Message

admin

Post 16-Aug-2018 08:31

[Quote]

The EndSvarmod Och Vemod Ar Vardesinnen • Жанр: RIO | Avant-Prog
• Страна исполнителя: Norway
• Год издания: 2018
• Аудиокодек: MP3
• Тип рипа: tracks
• Битрейт аудио: 320 kbps
• Продолжительность: 00:43:46
• Наличие сканов: front
• Спасибо: vp_sunset ®

01 - Svarmod (00:03:50)
02 - Vemod (00:03:57)
03 - Translated Slaughter (00:14:14)
04 - Don't Wait (00:14:57)
05 - Rich and Poor (00:00:54)
06 - Both Sides Out (00:05:50)


admin

Post 16-Aug-2018 07:51

[Quote]

I.E.M. - The Complete I.E.M.
Жанр: Psychedelic Rock/Krautrock
Год выпуска диска: 2010
Страна: UK
Производитель диска: Tonefloat / tf73, tf74, tf75, tf76
Аудио кодек: FLAC
Тип рипа: tracks+.cue
Битрейт аудио: lossless
Наличие сканов в содержимом раздачи: да
Доп. информация:
http://www.progarchives.com/artist.asp?id=1030
http://www.progarchives.com/album.asp?id=29883
Состав:
Steven Wilson - Guitar, Keyboards
Colin Edwin - Bass
Mark Simnett - Drums
Jeff Lee - Flute

1996 - I.E.M.

Трэклист:
01. The Gospel According To The I.E.M. (12.58)
02. The Last Will And Testament Of Emma Peel (8.10)
03. Fie Kesh (8.23)
04. Deafman (9.06)
Продолжительность: 38:38

Отчёт EAC

Exact Audio Copy V1.0 beta 2 from 29. April 2011
EAC extraction logfile from 20. August 2011, 17:11
I.E.M. / I.E.M.
Used drive : PLDS DVD+-RW DS-8A5SH Adapter: 0 ID: 0
Read mode : Secure
Utilize accurate stream : Yes
Defeat audio cache : Yes
Make use of C2 pointers : No
Read offset correction : 6
Overread into Lead-In and Lead-Out : No
Fill up missing offset samples with silence : Yes
Delete leading and trailing silent blocks : No
Null samples used in CRC calculations : Yes
Used interface : Native Win32 interface for Win NT & 2000
Gap handling : Appended to previous track
Used output format : User Defined Encoder
Selected bitrate : 256 kBit/s
Quality : High
Add ID3 tag : No
Command line compressor : C:\Program Files (x86)\FLAC\flac.exe
Additional command line options : -8 -V -T "ARTIST=%artist%" -T "TITLE=%title%" -T "ALBUM=%albumtitle%" -T "DATE=%year%" -T "TRACKNUMBER=%tracknr%" -T "TOTALTRACKS=%numtracks%" -T "GENRE=%genre%" -T "ALBUMARTIST=%albumartist%" -T "ALBUM ARTIST=%albumartist%
TOC of the extracted CD
Track | Start | Length | Start sector | End sector
---------------------------------------------------------
1 | 0:00.00 | 12:58.44 | 0 | 58393
2 | 12:58.44 | 8:10.28 | 58394 | 95171
3 | 21:08.72 | 8:23.10 | 95172 | 132906
4 | 29:32.07 | 9:06.03 | 132907 | 173859
Track 1
Filename C:\Users\porcupine\Desktop\EAC\01 - The Gospel Acording to the I.E.M..wav
Pre-gap length 0:00:02.00
Peak level 98.8 %
Extraction speed 3.1 X
Track quality 100.0 %
Test CRC E0C1D878
Copy CRC E0C1D878
Accurately ripped (confidence 2) [2B7F5743] (AR v2)
Copy OK
Track 2
Filename C:\Users\porcupine\Desktop\EAC\02 - The Last Will and Testament of Emma Peel.wav
Peak level 70.7 %
Extraction speed 3.4 X
Track quality 99.9 %
Test CRC 81F8B1C7
Copy CRC 81F8B1C7
Accurately ripped (confidence 2) [55D950D4] (AR v2)
Copy OK
Track 3
Filename C:\Users\porcupine\Desktop\EAC\03 - Fie Kesh.wav
Peak level 100.0 %
Extraction speed 4.2 X
Track quality 100.0 %
Test CRC 80975439
Copy CRC 80975439
Accurately ripped (confidence 2) [8D124EB4] (AR v2)
Copy OK
Track 4
Filename C:\Users\porcupine\Desktop\EAC\04 - Deafman.wav
Peak level 98.8 %
Extraction speed 4.7 X
Track quality 100.0 %
Test CRC 9050C0AB
Copy CRC 9050C0AB
Accurately ripped (confidence 2) [AA9865DF] (AR v2)
Copy OK
All tracks accurately ripped
No errors occurred
End of status report
==== Log checksum BBF07FB160805EA5F28E3CE04A35124140AD95DE2B6BEF30B528D2BBCCDCC039 ====

.cue

REM GENRE "Psychedelic Rock"
REM DATE 1996
REM DISCID 2E090E04
REM COMMENT "ExactAudioCopy v1.0b2"
PERFORMER "I.E.M."
TITLE "I.E.M."
FILE "01 - The Gospel Acording to the I.E.M..wav" WAVE
TRACK 01 AUDIO
TITLE "The Gospel Acording to the I.E.M."
PERFORMER "I.E.M."
INDEX 01 00:00:00
FILE "02 - The Last Will and Testament of Emma Peel.wav" WAVE
TRACK 02 AUDIO
TITLE "The Last Will and Testament of Emma Peel"
PERFORMER "I.E.M."
INDEX 01 00:00:00
FILE "03 - Fie Kesh.wav" WAVE
TRACK 03 AUDIO
TITLE "Fie Kesh"
PERFORMER "I.E.M."
INDEX 01 00:00:00
FILE "04 - Deafman.wav" WAVE
TRACK 04 AUDIO
TITLE "Deafman"
PERFORMER "I.E.M."
INDEX 01 00:00:00

1999 - An Escalator To Christmas

Трэклист:
01. An Escalator To Christmas (10.33)
02. Headphone Dust (6.11)
03. Interview (0:27)
04. An Escalator To Christmas (Extended) (13.04)
05. I.E.M. Have Come For Your Children (Vinyl Bonus Version) (8.11)
06. Untitled (1:12)
Продолжительность: 40:10

Отчёт EAC

Exact Audio Copy V1.0 beta 2 from 29. April 2011
EAC extraction logfile from 20. August 2011, 18:24
I.E.M. / An Escalator To Christmas
Used drive : PLDS DVD+-RW DS-8A5SH Adapter: 0 ID: 0
Read mode : Secure
Utilize accurate stream : Yes
Defeat audio cache : Yes
Make use of C2 pointers : No
Read offset correction : 6
Overread into Lead-In and Lead-Out : No
Fill up missing offset samples with silence : Yes
Delete leading and trailing silent blocks : No
Null samples used in CRC calculations : Yes
Used interface : Native Win32 interface for Win NT & 2000
Gap handling : Appended to previous track
Used output format : User Defined Encoder
Selected bitrate : 256 kBit/s
Quality : High
Add ID3 tag : No
Command line compressor : C:\Program Files (x86)\FLAC\flac.exe
Additional command line options : -8 -V -T "ARTIST=%artist%" -T "TITLE=%title%" -T "ALBUM=%albumtitle%" -T "DATE=%year%" -T "TRACKNUMBER=%tracknr%" -T "TOTALTRACKS=%numtracks%" -T "GENRE=%genre%" -T "ALBUMARTIST=%albumartist%" -T "ALBUM ARTIST=%albumartist%
TOC of the extracted CD
Track | Start | Length | Start sector | End sector
---------------------------------------------------------
1 | 0:00.00 | 10:33.35 | 0 | 47509
2 | 10:33.35 | 6:11.62 | 47510 | 75396
3 | 16:45.22 | 0:27.08 | 75397 | 77429
4 | 17:12.30 | 13:04.21 | 77430 | 136250
5 | 30:16.51 | 8:41.22 | 136251 | 175347
6 | 38:57.73 | 1:12.38 | 175348 | 180785
Track 1
Filename C:\Users\porcupine\Desktop\EAC\01 - An Escalator To Christmas.wav
Pre-gap length 0:00:02.00
Peak level 98.8 %
Extraction speed 1.2 X
Track quality 99.9 %
Test CRC D1D1F071
Copy CRC D1D1F071
Accurately ripped (confidence 2) [CACA9D74] (AR v2)
Copy OK
Track 2
Filename C:\Users\porcupine\Desktop\EAC\02 - Headphone Dust.wav
Peak level 98.8 %
Extraction speed 1.3 X
Track quality 99.9 %
Test CRC AE27DF71
Copy CRC AE27DF71
Accurately ripped (confidence 2) [3D481D5C] (AR v2)
Copy OK
Track 3
Filename C:\Users\porcupine\Desktop\EAC\03 - Interview.wav
Peak level 57.0 %
Extraction speed 0.7 X
Track quality 100.0 %
Test CRC F498C2C8
Copy CRC F498C2C8
Accurately ripped (confidence 2) [E4A9CC8F] (AR v2)
Copy OK
Track 4
Filename C:\Users\porcupine\Desktop\EAC\04 - An Escalator To Christmas Extended.wav
Peak level 67.6 %
Extraction speed 1.8 X
Track quality 100.0 %
Test CRC 90CCA611
Copy CRC 90CCA611
Accurately ripped (confidence 2) [389D7946] (AR v2)
Copy OK
Track 5
Filename C:\Users\porcupine\Desktop\EAC\05 - I.E.M. Have Come For Your Children.wav
Peak level 98.8 %
Extraction speed 2.0 X
Track quality 100.0 %
Test CRC E80ED55F
Copy CRC E80ED55F
Accurately ripped (confidence 2) [313BAC1E] (AR v2)
Copy OK
Track 6
Filename C:\Users\porcupine\Desktop\EAC\06 - Untitled.wav
Pre-gap length 0:00:30.00
Peak level 94.6 %
Extraction speed 1.4 X
Track quality 100.0 %
Test CRC B1E981CF
Copy CRC B1E981CF
Accurately ripped (confidence 2) [6833083B] (AR v2)
Copy OK
All tracks accurately ripped
No errors occurred
End of status report
==== Log checksum FA1B213E77F7021AC023ACF8611163CF86A6008F588F86109DC53D9B750FF67C ====

.cue

REM GENRE "Psychedelic Rock"
REM DATE 2010
REM DISCID 43096A06
REM COMMENT "ExactAudioCopy v1.0b2"
PERFORMER "I.E.M."
TITLE "An Escalator To Christmas"
FILE "01 - An Escalator To Christmas.wav" WAVE
TRACK 01 AUDIO
TITLE "An Escalator To Christmas"
PERFORMER "I.E.M."
INDEX 01 00:00:00
FILE "02 - Headphone Dust.wav" WAVE
TRACK 02 AUDIO
TITLE "Headphone Dust"
PERFORMER "I.E.M."
INDEX 01 00:00:00
FILE "03 - Interview.wav" WAVE
TRACK 03 AUDIO
TITLE "Interview"
PERFORMER "I.E.M."
INDEX 01 00:00:00
FILE "04 - An Escalator To Christmas Extended.wav" WAVE
TRACK 04 AUDIO
TITLE "An Escalator To Christmas Extended"
PERFORMER "I.E.M."
INDEX 01 00:00:00
FILE "05 - I.E.M. Have Come For Your Children.wav" WAVE
TRACK 05 AUDIO
TITLE "I.E.M. Have Come For Your Children"
PERFORMER "I.E.M."
INDEX 01 00:00:00
TRACK 06 AUDIO
TITLE "Untitled"
PERFORMER "I.E.M."
INDEX 00 08:11:22
FILE "06 - Untitled.wav" WAVE
INDEX 01 00:00:00

2001 - Arcadia Son

Трэклист:
01. Wreck (1.25)
02. Beth Krasky (0.26)
03. We Are Not Alone (8.02)
04. Cicadian Haze (6.24)
05. Politician (1.08)
06. Arcadia Son (7.56)
07. Shadow Of A Twisted Hand Across My House (20.23)
08. Goldilocks Age 4 (1.12)
Продолжительность: 46:58

Отчёт EAC

Exact Audio Copy V1.0 beta 2 from 29. April 2011
EAC extraction logfile from 20. August 2011, 19:20
I.E.M. / Arcadia Son
Used drive : PLDS DVD+-RW DS-8A5SH Adapter: 0 ID: 0
Read mode : Secure
Utilize accurate stream : Yes
Defeat audio cache : Yes
Make use of C2 pointers : No
Read offset correction : 6
Overread into Lead-In and Lead-Out : No
Fill up missing offset samples with silence : Yes
Delete leading and trailing silent blocks : No
Null samples used in CRC calculations : Yes
Used interface : Native Win32 interface for Win NT & 2000
Gap handling : Appended to previous track
Used output format : User Defined Encoder
Selected bitrate : 256 kBit/s
Quality : High
Add ID3 tag : No
Command line compressor : C:\Program Files (x86)\FLAC\flac.exe
Additional command line options : -8 -V -T "ARTIST=%artist%" -T "TITLE=%title%" -T "ALBUM=%albumtitle%" -T "DATE=%year%" -T "TRACKNUMBER=%tracknr%" -T "TOTALTRACKS=%numtracks%" -T "GENRE=%genre%" -T "ALBUMARTIST=%albumartist%" -T "ALBUM ARTIST=%albumartist%
TOC of the extracted CD
Track | Start | Length | Start sector | End sector
---------------------------------------------------------
1 | 0:00.00 | 1:24.60 | 0 | 6359
2 | 1:24.60 | 0:26.04 | 6360 | 8313
3 | 1:50.64 | 8:02.25 | 8314 | 44488
4 | 9:53.14 | 6:24.28 | 44489 | 73316
5 | 16:17.42 | 1:08.13 | 73317 | 78429
6 | 17:25.55 | 7:56.39 | 78430 | 114168
7 | 25:22.19 | 20:23.58 | 114169 | 205951
8 | 45:46.02 | 1:12.53 | 205952 | 211404
Track 1
Filename C:\Users\porcupine\Desktop\EAC\01 - Wreck.wav
Pre-gap length 0:00:02.00
Peak level 98.8 %
Extraction speed 1.9 X
Track quality 100.0 %
Test CRC BEA5F49B
Copy CRC BEA5F49B
Accurately ripped (confidence 2) [894098E1] (AR v2)
Copy OK
Track 2
Filename C:\Users\porcupine\Desktop\EAC\02 - Beth Krasky.wav
Peak level 48.1 %
Extraction speed 1.1 X
Track quality 100.0 %
Test CRC 041190FE
Copy CRC 041190FE
Accurately ripped (confidence 2) [0FB6E72E] (AR v2)
Copy OK
Track 3
Filename C:\Users\porcupine\Desktop\EAC\03 - We Are Not Alone.wav
Peak level 98.8 %
Extraction speed 3.0 X
Track quality 100.0 %
Test CRC 144628EC
Copy CRC 144628EC
Accurately ripped (confidence 2) [A67AC819] (AR v2)
Copy OK
Track 4
Filename C:\Users\porcupine\Desktop\EAC\04 - Cicadian Haze.wav
Peak level 98.8 %
Extraction speed 3.5 X
Track quality 100.0 %
Test CRC 5F36A3AD
Copy CRC 5F36A3AD
Accurately ripped (confidence 2) [2C2876C0] (AR v2)
Copy OK
Track 5
Filename C:\Users\porcupine\Desktop\EAC\05 - Politician.wav
Peak level 41.3 %
Extraction speed 2.6 X
Track quality 100.0 %
Test CRC DA003149
Copy CRC DA003149
Accurately ripped (confidence 2) [C361749C] (AR v2)
Copy OK
Track 6
Filename C:\Users\porcupine\Desktop\EAC\06 - Arcadia Son.wav
Peak level 98.8 %
Extraction speed 4.0 X
Track quality 100.0 %
Test CRC 4E803C69
Copy CRC 4E803C69
Accurately ripped (confidence 2) [C3DD61AB] (AR v2)
Copy OK
Track 7
Filename C:\Users\porcupine\Desktop\EAC\07 - Shadow of a Twisted Hand Across My House.wav
Peak level 98.8 %
Extraction speed 4.9 X
Track quality 100.0 %
Test CRC A71244E1
Copy CRC A71244E1
Accurately ripped (confidence 2) [BFA111A4] (AR v2)
Copy OK
Track 8
Filename C:\Users\porcupine\Desktop\EAC\08 - Goldilocks Age 4.wav
Peak level 33.9 %
Extraction speed 2.4 X
Track quality 99.8 %
Test CRC BB7A3FE9
Copy CRC BB7A3FE9
Accurately ripped (confidence 2) [BB07BB38] (AR v2)
Copy OK
All tracks accurately ripped
No errors occurred
End of status report
==== Log checksum A1AFAF31250CF275EF647F4CA25EDAF13A8D768632F905BA05AAA6447F73F333 ====

.cue

REM GENRE Krautrock
REM DATE 2010
REM DISCID 6D0B0208
REM COMMENT "ExactAudioCopy v1.0b2"
PERFORMER "I.E.M."
TITLE "Arcadia Son"
FILE "01 - Wreck.wav" WAVE
TRACK 01 AUDIO
TITLE "Wreck"
PERFORMER "I.E.M."
INDEX 01 00:00:00
FILE "02 - Beth Krasky.wav" WAVE
TRACK 02 AUDIO
TITLE "Beth Krasky"
PERFORMER "I.E.M."
INDEX 01 00:00:00
FILE "03 - We Are Not Alone.wav" WAVE
TRACK 03 AUDIO
TITLE "We Are Not Alone"
PERFORMER "I.E.M."
INDEX 01 00:00:00
FILE "04 - Cicadian Haze.wav" WAVE
TRACK 04 AUDIO
TITLE "Cicadian Haze"
PERFORMER "I.E.M."
INDEX 01 00:00:00
FILE "05 - Politician.wav" WAVE
TRACK 05 AUDIO
TITLE "Politician"
PERFORMER "I.E.M."
INDEX 01 00:00:00
FILE "06 - Arcadia Son.wav" WAVE
TRACK 06 AUDIO
TITLE "Arcadia Son"
PERFORMER "I.E.M."
INDEX 01 00:00:00
FILE "07 - Shadow of a Twisted Hand Across My House.wav" WAVE
TRACK 07 AUDIO
TITLE "Shadow of a Twisted Hand Across My House"
PERFORMER "I.E.M."
INDEX 01 00:00:00
FILE "08 - Goldilocks Age 4.wav" WAVE
TRACK 08 AUDIO
TITLE "Goldilocks Age 4"
PERFORMER "I.E.M."
INDEX 01 00:00:00

2001 - Have Come For Your Children

Трэклист:
01. Untitled (35.37)
02. Untitled (8.02)
03. Untitled (7.10)
04. Untitled (12.02)
05. Untitled (5.29)
06. Untitled (4.31)
Продолжительность: 72:53

Отчёт EAC

Exact Audio Copy V1.0 beta 2 from 29. April 2011
EAC extraction logfile from 20. August 2011, 20:27
IEM / Have Come For Your Children
Used drive : PLDS DVD+-RW DS-8A5SH Adapter: 0 ID: 0
Read mode : Secure
Utilize accurate stream : Yes
Defeat audio cache : Yes
Make use of C2 pointers : No
Read offset correction : 6
Overread into Lead-In and Lead-Out : No
Fill up missing offset samples with silence : Yes
Delete leading and trailing silent blocks : No
Null samples used in CRC calculations : Yes
Used interface : Native Win32 interface for Win NT & 2000
Gap handling : Appended to previous track
Used output format : User Defined Encoder
Selected bitrate : 256 kBit/s
Quality : High
Add ID3 tag : No
Command line compressor : C:\Program Files (x86)\FLAC\flac.exe
Additional command line options : -8 -V -T "ARTIST=%artist%" -T "TITLE=%title%" -T "ALBUM=%albumtitle%" -T "DATE=%year%" -T "TRACKNUMBER=%tracknr%" -T "TOTALTRACKS=%numtracks%" -T "GENRE=%genre%" -T "ALBUMARTIST=%albumartist%" -T "ALBUM ARTIST=%albumartist%
TOC of the extracted CD
Track | Start | Length | Start sector | End sector
---------------------------------------------------------
1 | 0:00.00 | 35:37.51 | 0 | 160325
2 | 35:37.51 | 8:02.59 | 160326 | 196534
3 | 43:40.35 | 7:10.04 | 196535 | 228788
4 | 50:50.39 | 12:02.41 | 228789 | 282979
5 | 62:53.05 | 5:29.10 | 282980 | 307664
6 | 68:22.15 | 4:31.19 | 307665 | 328008
Track 1
Filename C:\Users\porcupine\Desktop\EAC\01 - Arcadia Son.wav
Pre-gap length 0:00:02.00
Peak level 98.8 %
Extraction speed 1.7 X
Track quality 100.0 %
Test CRC A69E80A5
Copy CRC A69E80A5
Accurately ripped (confidence 2) [1015012A] (AR v2)
Copy OK
Track 2
Filename C:\Users\porcupine\Desktop\EAC\02 - Untitled 02.wav
Peak level 98.8 %
Extraction speed 2.1 X
Track quality 100.0 %
Test CRC 5BC46BC7
Copy CRC 5BC46BC7
Accurately ripped (confidence 2) [68CDE772] (AR v2)
Copy OK
Track 3
Filename C:\Users\porcupine\Desktop\EAC\03 - Untitled 03.wav
Peak level 98.8 %
Extraction speed 2.2 X
Track quality 100.0 %
Test CRC 96D11A40
Copy CRC 96D11A40
Accurately ripped (confidence 2) [AF4704B3] (AR v2)
Copy OK
Track 4
Filename C:\Users\porcupine\Desktop\EAC\04 - Untitled 04.wav
Peak level 98.8 %
Extraction speed 2.4 X
Track quality 100.0 %
Test CRC 19DAC196
Copy CRC 19DAC196
Accurately ripped (confidence 2) [46EF507E] (AR v2)
Copy OK
Track 5
Filename C:\Users\porcupine\Desktop\EAC\05 - Untitled 05.wav
Peak level 45.1 %
Extraction speed 2.4 X
Track quality 100.0 %
Test CRC 968416A9
Copy CRC 968416A9
Accurately ripped (confidence 2) [E4B9F648] (AR v2)
Copy OK
Track 6
Filename C:\Users\porcupine\Desktop\EAC\06 - Piece For Hammered Dulcimer And Mellotron Choir.wav
Peak level 89.9 %
Extraction speed 2.2 X
Track quality 99.9 %
Test CRC 7E4B7393
Copy CRC 7E4B7393
Accurately ripped (confidence 2) [FA462850] (AR v2)
Copy OK
All tracks accurately ripped
No errors occurred
End of status report
==== Log checksum 2A6650993FE09AE07924DA50F4C4364857EA97134345E39BD1BB91E7C152CF3B ====

.cue

REM GENRE "Psychedelic Rock"
REM DATE 2010
REM DISCID 46111506
REM COMMENT "ExactAudioCopy v1.0b2"
PERFORMER "IEM"
TITLE "Have Come For Your Children"
FILE "01 - Arcadia Son.wav" WAVE
TRACK 01 AUDIO
TITLE "Arcadia Son"
PERFORMER "IEM"
INDEX 01 00:00:00
FILE "02 - Untitled 02.wav" WAVE
TRACK 02 AUDIO
TITLE "Untitled 02"
PERFORMER "IEM"
INDEX 01 00:00:00
FILE "03 - Untitled 03.wav" WAVE
TRACK 03 AUDIO
TITLE "Untitled 03"
PERFORMER "IEM"
INDEX 01 00:00:00
FILE "04 - Untitled 04.wav" WAVE
TRACK 04 AUDIO
TITLE "Untitled 04"
PERFORMER "IEM"
INDEX 01 00:00:00
FILE "05 - Untitled 05.wav" WAVE
TRACK 05 AUDIO
TITLE "Untitled 05"
PERFORMER "IEM"
INDEX 01 00:00:00
FILE "06 - Piece For Hammered Dulcimer And Mellotron Choir.wav" WAVE
TRACK 06 AUDIO
TITLE "Piece For Hammered Dulcimer And Mellotron Choir"
PERFORMER "IEM"
INDEX 01 00:00:00

admin

Post 16-Aug-2018 07:47

[Quote]

Blue Man Group / Three
Жанр: Experimental rock
Страна-производитель диска (релиза): USA
Год издания: 2016
Страна исполнителя (группы): USA
Аудиокодек: FLAC (*.flac)
Тип рипа: tracks
Битрейт аудио: lossless
Продолжительность: 00:50:07
Источник (релизер): Сторонний ресурс
Наличие сканов в содержимом раздачи: нет
Треклист:
01. Dispatches 1 (1:21)
02. The Forge (3:33)
03. Hex Suit (3:33)
04. 3 To 1 (4:14)
05. Alive (2:57)
06. Snorkelbone (3:02)
07. Cimbalom 9 (4:41)
08. Robots (5:11)
09. Creature Feature (3:35)
10. Vortex (3:47)
11. Tone Spokes (2:59)
12. Dispatches 2 (1:38)
13. Giacometti (4:22)
14. Torus (5:13)

Лог проверки качества

-----------------------
DON'T MODIFY THIS FILE
-----------------------
PERFORMER: auCDtect Task Manager, ver. 1.5.1RC2 build 1.5.1.3
Copyright (c) 2008-2010 y-soft. All rights reserved
http://y-soft.org
ANALYZER: auCDtect: CD records authenticity detector, version 0.8.2
Copyright (c) 2004 Oleg Berngardt. All rights reserved.
Copyright (c) 2004 Alexander Djourik. All rights reserved.
FILE: 14 - Torus.flac
Size: 26587963 Hash: 09139D38F05BE3966459E67ECE945D07 Accuracy: -m0
Conclusion: CDDA 100%
Signature: 267EA2B344C14D3F0F00D4CD2E76EFCB966FA358
FILE: 13 - Giacometti.flac
Size: 26603480 Hash: 73DA6DE2B8C7D5AEF33CC2BB6AECB12B Accuracy: -m0
Conclusion: CDDA 100%
Signature: 97DC65E4808E6010141BA6051118A3CD3573EC04
FILE: 12 - Dispatches 2.flac
Size: 6163631 Hash: C68620E7A14F94619AEB94BED612C8F3 Accuracy: -m0
Conclusion: CDDA 100%
Signature: 9F3D6664989EF840103A00918CC944A1D17F23FC
FILE: 11 - Tone Spokes.flac
Size: 18603872 Hash: 7370C29A942CC8F5FF5B3A2D168A747A Accuracy: -m0
Conclusion: CDDA 100%
Signature: BB48ED6A399239B1A72D90530CBC59346BCF3069
FILE: 10 - Vortex.flac
Size: 21210832 Hash: 64B70D293B84539AA3523DC98892B5AE Accuracy: -m0
Conclusion: CDDA 100%
Signature: 8562061D6CA87B4023F51B4A618AD1C5B5EB4229
FILE: 09 - Creature Feature.flac
Size: 20423744 Hash: C0AF2D80F502C3C2153F4BF365B869B0 Accuracy: -m0
Conclusion: CDDA 100%
Signature: 32CA462B43C0AF4CB110F1D4E57A262E83945422
FILE: 08 - Robots.flac
Size: 27389970 Hash: 69E60F3835E27591B0D21FF1A245B468 Accuracy: -m0
Conclusion: CDDA 100%
Signature: FE610912114442F77DA4BEE846F22E3DBA80FBA1
FILE: 07 - Cimbalom 9.flac
Size: 30513677 Hash: CC3B0FA8074FA8EB6B644D04E2D38711 Accuracy: -m0
Conclusion: CDDA 100%
Signature: 2658B4B8AFC0F77E3C9BBBBBAC8E9B6D5BB2A896
FILE: 06 - Snorkelbone.flac
Size: 15819822 Hash: 533C7C2C4FF848011A4E63942BE9A00B Accuracy: -m0
Conclusion: CDDA 100%
Signature: 7ADAA2F5A4C836B53408E28450ECE1CECD97EB4A
FILE: 05 - Alive.flac
Size: 19025855 Hash: 360CB41218EFFFC66595403CC0D28331 Accuracy: -m0
Conclusion: CDDA 100%
Signature: 79F492DA3010307A5CDFB1DBC25B2734FA102D4A
FILE: 04 - 3 To 1.flac
Size: 26590778 Hash: 9072EC718BEF16102128134CEBEEF853 Accuracy: -m0
Conclusion: CDDA 99%
Signature: 07CAA8DABF5E9D8D4455FD579F28CB30F2719A8F
FILE: 03 - Hex Suit.flac
Size: 25847391 Hash: DB355B9089865F1C35E81A4C75C4C081 Accuracy: -m0
Conclusion: CDDA 100%
Signature: 76FBD3231D6B3454C836B99142A7095F41E18029
FILE: 02 - The Forge.flac
Size: 22522866 Hash: 14D93BFFF456F24FC5D12EF0DCF9F7F2 Accuracy: -m0
Conclusion: CDDA 100%
Signature: B278D968AAB8D536D12EA227FFD7E4B640333F0A
FILE: 01 - Dispatches 1.flac
Size: 5665775 Hash: CAADA18417C9C4EB35715B12CEB64EE0 Accuracy: -m0
Conclusion: CDDA 100%
Signature: 98F184E07B993CFC80DF612631BC1CB443641FA4

Состав

Мэтт Голдман, Фил Стантон и Крис Винк

admin

Post 16-Aug-2018 07:34

[Quote]

Pierre Vervloesem & Alinovsky / Invisible Quality
Жанр: Experimental / Electronica / Avant-Garde
Носитель: WEB
Год издания: 2018
Издатель (лейбл): Web Release [OFF Records]
Страна исполнителя (группы): Belgium
Аудиокодек: FLAC (*.flac)
Тип рипа: tracks
Битрейт аудио: lossless
Продолжительность: 56:14 min
Источник (релизер): bandcamp.com
Наличие сканов в содержимом раздачи: :(
Треклист:
1. Disque Oh.
2. En Trois Temps.
3. Blouse Normale.
4. Le Prince.
5. Le Premier.
6. V’la Au’t Chose.
7. Loupe.
8. Blouse Longue.
9. Eddy Merckx.
digital only bonus track:
10. Truc 1.

DRM.log

foobar2000 1.3.8 / Dynamic Range Meter 1.1.1
log date: 2018-07-15 19:59:29
--------------------------------------------------------------------------------
Analyzed: Pierre Vervloesem & Alinovsky / Invisible Quality
--------------------------------------------------------------------------------
DR Peak RMS Duration Track
--------------------------------------------------------------------------------
DR7 -0.10 dB -9.49 dB 4:44 01-Disque oh (feat. Caroline Lumia)
DR8 -0.10 dB -10.51 dB 5:35 02-En trois temps
DR8 -0.10 dB -11.04 dB 4:55 03-Blouse normale (feat. Caroline Lumia)
DR8 -0.10 dB -10.67 dB 3:56 04-Le prince (feat. Caroline Lumia)
DR9 -0.10 dB -11.65 dB 5:03 05-Le premier (feat. Caroline Lumia)
DR9 -0.10 dB -12.56 dB 3:55 06-V'la au’t chose
DR9 -0.10 dB -12.14 dB 4:11 07-Loupe (feat. Caroline Lumia)
DR8 -0.10 dB -10.17 dB 10:59 08-Blouse longue
DR9 -0.10 dB -13.35 dB 8:56 09-Eddy Merckx (feat. Caroline Lumia)
DR10 -0.10 dB -12.18 dB 4:00 10-Truc 1 - Digital Bonus Track
--------------------------------------------------------------------------------
Number of tracks: 10
Official DR value: DR8
Samplerate: 44100 Hz
Channels: 2
Bits per sample: 16
Bitrate: 750 kbps
Codec: FLAC
================================================================================

Лог проверки качества

-----------------------
DON'T MODIFY THIS FILE
-----------------------
PERFORMER: auCDtect Task Manager, ver. 1.6.0 RC1 build 1.6.0.1
Copyright (c) 2008-2010 y-soft. All rights reserved
http://y-soft.org
ANALYZER: auCDtect: CD records authenticity detector, version 0.8.2
Copyright (c) 2004 Oleg Berngardt. All rights reserved.
Copyright (c) 2004 Alexander Djourik. All rights reserved.
FILE: 01. Disque oh (feat. Caroline Lumia).flac
Size: 29397711 Hash: 88609A6AD17C565365668DC079A08F74 Accuracy: -m0
Conclusion: CDDA 100%
Signature: 32784036FEA8B64EEF48DC65E834C5B05DFD46E4
FILE: 02. En trois temps.flac
Size: 32043602 Hash: 96331B703F1DC059F5D74DF9C7BCC150 Accuracy: -m0
Conclusion: CDDA 100%
Signature: D1F8146DA106FA093361DEE2C342A6D41CEFF204
FILE: 03. Blouse normale (feat. Caroline Lumia).flac
Size: 26235596 Hash: 90F8F338B4C331E25DBB22A6ABDAD92F Accuracy: -m0
Conclusion: CDDA 100%
Signature: D6520D487823D2CCBA5E826017B80A524F7F0775
FILE: 04. Le prince (feat. Caroline Lumia).flac
Size: 21741611 Hash: DDEE91B02A9F1D525FC2B50E918F1E8D Accuracy: -m0
Conclusion: CDDA 100%
Signature: 79CAE4D11CC0067ACAA5519ACAF8425F7307B74D
FILE: 05. Le premier (feat. Caroline Lumia).flac
Size: 26152230 Hash: B655417A93DE5376657AFC0491F96F78 Accuracy: -m0
Conclusion: CDDA 100%
Signature: 77B58D467FD9C7D449F004642AF9B9DED3CD4611
FILE: 06. V'la au’t chose.flac
Size: 20776867 Hash: 0648D0A681BF334BEE6FC04C85413E54 Accuracy: -m0
Conclusion: CDDA 100%
Signature: 106487EE065903156C567C033FC4D04E45C7A7E2
FILE: 07. Loupe (feat. Caroline Lumia).flac
Size: 19654157 Hash: E1DAE2874D031365D434E3965CE6ECED Accuracy: -m0
Conclusion: CDDA 100%
Signature: ADFAE1F737A618FD98FA90CF423B665A4896A992
FILE: 08. Blouse longue.flac
Size: 60186513 Hash: 5EDCC59ADBF0B9C9A6669C6F8504CA90 Accuracy: -m0
Conclusion: CDDA 100%
Signature: B8EC6E82199613113F03678A5E688592DED70EF6
FILE: 09. Eddy Merckx (feat. Caroline Lumia).flac
Size: 42716007 Hash: C6C8F023F4D11EF7CF85704EE8D65B05 Accuracy: -m0
Conclusion: CDDA 99%
Signature: CC4F2FEA14E212D32F6B2D612A1225A529E9247F
FILE: 10. Truc 1 - Digital Bonus Track.flac
Size: 22644057 Hash: C0471727FF4CA3EB6BD2BB1B384A377F Accuracy: -m0
Conclusion: CDDA 100%
Signature: D9F653457D92C418B3D3DC0DE3C9887D70CE7A4E

Об альбоме (сборнике)

released July 4, 2018
Review:
From September 2017 to December, Pierre Vervloesem spent 3 months editing, mixing adding guitars and basses, keys and noises, spices and magic to a few recording sessions he did with Alinovsky who provided on command or improvised beats, percussions and keys.
The album features also Caroline Lumia, an electro acoustic artist who gave a full range of field recordings and house noises that Pierre used on most of the tracks.
The results is the album ‘ Invisible Quality’ which is a versatile mix of country - blues and Vervloesemesque guitars, dub basses, phantomatic or funky keyboards, experimental avant pop and even disco!
Take your time to listen as there are so many little variations in each songs that you’ll need at least ten hearings before enjoying the invisible quality of the album! Enjoy!

admin

Post 16-Aug-2018 07:32

[Quote]

Koenjihyakkei [Koenji Hyakkei] / Dhorimviskha
Жанр: Zeuhl / RIO / Avant-Prog
Носитель: WEB
Год издания: 2018
Издатель (лейбл): Web Release
Страна исполнителя (группы): Japan
Аудиокодек: FLAC (*.flac)
Тип рипа: tracks
Битрейт аудио: lossless
Продолжительность: 61:09 min
Источник (релизер): bandcamp.com
Наличие сканов в содержимом раздачи: :(
Треклист:
1. Vleztemtraiv. 10:19
2. Levhorm. 9:11
3. Zjindhaiq. 7:32
4. Phlessttighas. 6:22
5. Djebelaki Zomn. 9:49
6. Palbeth Tissilaq. 6:09
7. Dhorimviskha. 11:47

DRM.log

foobar2000 1.3.8 / Dynamic Range Meter 1.1.1
log date: 2018-07-13 19:42:06
--------------------------------------------------------------------------------
Analyzed: Koenjihyakkei / Dhorimviskha
--------------------------------------------------------------------------------
DR Peak RMS Duration Track
--------------------------------------------------------------------------------
DR5 0.00 dB -6.32 dB 10:19 01-Vreztemtraiv
DR5 0.00 dB -6.60 dB 9:11 02-Levhorm
DR6 0.00 dB -7.27 dB 7:32 03-Zjindhaiq
DR6 0.00 dB -7.32 dB 6:22 04-Phlessttighas
DR5 0.00 dB -6.71 dB 9:49 05-Djebelaki Zomn
DR5 0.00 dB -7.54 dB 6:09 06-Palbeth Tissilaq
DR12 0.00 dB -14.01 dB 11:47 07-Dhorimviskha
--------------------------------------------------------------------------------
Number of tracks: 7
Official DR value: DR6
Samplerate: 44100 Hz
Channels: 2
Bits per sample: 16
Bitrate: 858 kbps
Codec: FLAC
================================================================================

Лог проверки качества

-----------------------
DON'T MODIFY THIS FILE
-----------------------
PERFORMER: auCDtect Task Manager, ver. 1.6.0 RC1 build 1.6.0.1
Copyright (c) 2008-2010 y-soft. All rights reserved
http://y-soft.org
ANALYZER: auCDtect: CD records authenticity detector, version 0.8.2
Copyright (c) 2004 Oleg Berngardt. All rights reserved.
Copyright (c) 2004 Alexander Djourik. All rights reserved.
FILE: 01. Vreztemtraiv.flac
Size: 82377315 Hash: 95F82B13CEF18155440BEA4FD16C4EBA Accuracy: -m0
Conclusion: CDDA 99%
Signature: 9D9A78E90FF5B1B66600E2C121D9EA9CBE1E1460
FILE: 02. Levhorm.flac
Size: 70602866 Hash: F22700A2BE51FC93CF3045494FB8ABDF Accuracy: -m0
Conclusion: CDDA 100%
Signature: 293A212535A5AED03770A45FB5362B75FC7D25AC
FILE: 03. Zjindhaiq.flac
Size: 55525592 Hash: 5D57BE01E482A87FE3308D1458311F94 Accuracy: -m0
Conclusion: MPEG 95%
Signature: 35A86DD1053D376000BCF01436977FA392D6CAB1
FILE: 04. Phlessttighas.flac
Size: 48676800 Hash: CCA05182471BDE1FD030F15E2B59B9DA Accuracy: -m0
Conclusion: CDDA 100%
Signature: 0F2E664730EA6AA7FECC129905729AA068626BD7
FILE: 05. Djebelaki Zomn.flac
Size: 79492323 Hash: 736B0AA374570AC596DE3F9E7F6107BA Accuracy: -m0
Conclusion: MPEG 95%
Signature: 488717731860DF26850550FF87DE387DB73F1E68
FILE: 06. Palbeth Tissilaq.flac
Size: 44236453 Hash: E7EF28C1D40EF6029D4D718ED7E05297 Accuracy: -m0
Conclusion: CDDA 100%
Signature: 6EB470CAF4184C4AAE6632BFDFFAE50DF4C1B037
FILE: 07. Dhorimviskha.flac
Size: 75942424 Hash: D32DF9CCD97B4D3131F328848540157C Accuracy: -m0
Conclusion: CDDA 100%
Signature: 6879180E1CE50A9BC64CB27DE3AA2D36FF5B1893

Скриншот спектра частот

Об альбоме (сборнике)

All songs composed by Yoshida Tatsuya exept 4 by Yabuki Taku
All produced by Koenji Hyakkei
released July 11, 2018

Состав

- Yoshida Tatsuya / drums, vocal
- Sakamoto Kengo / bass, vocal
- Komori Keiko / sax, clarinet
- Yabuki Taku / keyboards
- Koganemaru Kei / guitar, vocal
- Ah / vocal

admin

Post 16-Aug-2018 07:08

[Quote]

Silver Apples - Silver Apples, Contact
Жанр: Psychedelic / Experimental
Год выпуска диска: 1968,69, 1997
Страна: USA
Производитель диска: MCA / MCD 11680
Аудио кодек: APE
Тип рипа: image+.cue
Битрейт аудио: lossless
Продолжительность: 73:37
Наличие сканов в содержимом раздачи: :yes:
Трэклист:
01. Oscillations (2:49)
02. Seagreen Serenades (2:55)
03. Lovefingers (4:11)
04. Program (4:07)
05. Velvet Cave (3:30)
06. Whirly-Bird (2:41)
07. Dust (3:40)
08. Dancing Gods (5:57)
09. Misty Mountain (2:46)
10. You and I (3:24)
11. Water (4:18)
12. Ruby (2:32)
13. Gypsy Love (5:36)
14. You're Not Foolin' Me (6:26)
15. I Have Known Love (3:53)
16. A Pox on You (5:11)
17. Confusion (3:34)
18. Fantasies (5:57)
Состав:
Danny Taylor - drums, percussion, vocals
Simeon - oscillators, banjo, vocals
Доп. информация: http://en.wikipedia.org/wiki/Silver_Apples

Отчёт EAC

Exact Audio Copy V0.99 prebeta 5 from 4. May 2009
EAC extraction logfile from 1. September 2011, 20:59
Silver Apples / Silver Apples/Contact
Used drive : TEAC CD-W552E Adapter: 1 ID: 0
Read mode : Secure
Utilize accurate stream : Yes
Defeat audio cache : Yes
Make use of C2 pointers : No
Read offset correction : 6
Overread into Lead-In and Lead-Out : No
Fill up missing offset samples with silence : Yes
Delete leading and trailing silent blocks : No
Null samples used in CRC calculations : Yes
Used interface : Installed external ASPI interface
Used output format : Internal WAV Routines
Sample format : 44.100 Hz; 16 Bit; Stereo
TOC of the extracted CD
Track | Start | Length | Start sector | End sector
---------------------------------------------------------
1 | 0:00.00 | 2:49.42 | 0 | 12716
2 | 2:49.42 | 2:55.73 | 12717 | 25914
3 | 5:45.40 | 4:11.42 | 25915 | 44781
4 | 9:57.07 | 4:07.68 | 44782 | 63374
5 | 14:05.00 | 3:30.17 | 63375 | 79141
6 | 17:35.17 | 2:41.18 | 79142 | 91234
7 | 20:16.35 | 3:40.67 | 91235 | 107801
8 | 23:57.27 | 5:57.28 | 107802 | 134604
9 | 29:54.55 | 2:46.52 | 134605 | 147106
10 | 32:41.32 | 3:24.55 | 147107 | 162461
11 | 36:06.12 | 4:18.70 | 162462 | 181881
12 | 40:25.07 | 2:32.13 | 181882 | 193294
13 | 42:57.20 | 5:36.10 | 193295 | 218504
14 | 48:33.30 | 6:26.72 | 218505 | 247526
15 | 55:00.27 | 3:53.43 | 247527 | 265044
16 | 58:53.70 | 5:11.52 | 265045 | 288421
17 | 64:05.47 | 3:34.65 | 288422 | 304536
18 | 67:40.37 | 5:57.18 | 304537 | 331329
Range status and errors
Selected range
Filename C:\Silver Apples - Silver Apples, Contact (1968-1969)\Silver Apples - Silver Apples, Contact.wav
Peak level 100.0 %
Range quality 100.0 %
Copy CRC CF12F589
Copy OK
No errors occurred
AccurateRip summary
Track 1 accurately ripped (confidence 12) [4159E1B2]
Track 2 accurately ripped (confidence 11) [737F75D9]
Track 3 accurately ripped (confidence 11) [7324C29A]
Track 4 accurately ripped (confidence 11) [4CC10B46]
Track 5 accurately ripped (confidence 11) [DD0FDAA8]
Track 6 accurately ripped (confidence 11) [5BFF62E2]
Track 7 accurately ripped (confidence 11) [B0E96061]
Track 8 accurately ripped (confidence 11) [7A25CC12]
Track 9 accurately ripped (confidence 11) [91CABBAC]
Track 10 accurately ripped (confidence 12) [8CAFB5A2]
Track 11 accurately ripped (confidence 11) [1B33370D]
Track 12 accurately ripped (confidence 11) [8E467561]
Track 13 accurately ripped (confidence 11) [BB41382D]
Track 14 accurately ripped (confidence 11) [1A0F5002]
Track 15 accurately ripped (confidence 11) [BB6600FD]
Track 16 accurately ripped (confidence 11) [E8741E6A]
Track 17 accurately ripped (confidence 11) [AF48E20D]
Track 18 accurately ripped (confidence 10) [53B2B692]
All tracks accurately ripped
End of status report

CueTools

[CUETools log; Date: 01.09.2011 21:35:40; Version: 2.1.2a]
[CTDB TOCID: jYuhXRJqwEMuWiJqHG5IvnzblqE-] found.
[ CTDBID ] Status
[1582aca6] (32/32) Accurately ripped
[AccurateRip ID: 002c3ee5-0259b2d5-1a114112] found.
Track [ CRC ] Status
01 [4159e1b2] (12/35) Accurately ripped
02 [737f75d9] (11/34) Accurately ripped
03 [7324c29a] (11/34) Accurately ripped
04 [4cc10b46] (11/34) Accurately ripped
05 [dd0fdaa8] (11/34) Accurately ripped
06 [5bff62e2] (11/34) Accurately ripped
07 [b0e96061] (11/34) Accurately ripped
08 [7a25cc12] (11/33) Accurately ripped
09 [91cabbac] (11/34) Accurately ripped
10 [8cafb5a2] (12/35) Accurately ripped
11 [1b33370d] (11/34) Accurately ripped
12 [8e467561] (11/34) Accurately ripped
13 [bb41382d] (11/34) Accurately ripped
14 [1a0f5002] (11/34) Accurately ripped
15 [bb6600fd] (11/34) Accurately ripped
16 [e8741e6a] (11/34) Accurately ripped
17 [af48e20d] (11/34) Accurately ripped
18 [53b2b692] (10/33) Accurately ripped
Offsetted by -1328:
01 [49a45b0c] (04/35) Accurately ripped
02 [30a0cc17] (04/34) Accurately ripped
03 [0c722c0a] (04/34) Accurately ripped
04 [b75c5dcf] (04/34) Accurately ripped
05 [0ac2e567] (04/34) Accurately ripped
06 [99b222bf] (04/34) Accurately ripped
07 [4a24b47c] (04/34) Accurately ripped
08 [17d19c30] (04/33) Accurately ripped
09 [8bd5f784] (04/34) Accurately ripped
10 [a5bedf64] (04/35) Accurately ripped
11 [0b3d73ad] (04/34) Accurately ripped
12 [da1137a1] (04/34) Accurately ripped
13 [941a02ad] (04/34) Accurately ripped
14 [5a161fe2] (04/34) Accurately ripped
15 [12b4eadd] (04/34) Accurately ripped
16 [bd099885] (04/34) Accurately ripped
17 [ddf1904f] (04/34) Accurately ripped
18 [984ce05d] (05/33) Accurately ripped
Offsetted by -669:
01 [4b39b9f5] (03/35) Accurately ripped
02 [9abf5ccc] (03/34) Accurately ripped
03 [8ce6f033] (03/34) Accurately ripped
04 [b6eeaf11] (03/34) Accurately ripped
05 [ffb0f485] (03/34) Accurately ripped
06 [74acea85] (03/34) Accurately ripped
07 [527466b1] (03/34) Accurately ripped
08 [2730462c] (03/33) Accurately ripped
09 [0794565a] (03/34) Accurately ripped
10 [16de4fcd] (03/35) Accurately ripped
11 [35ac063c] (03/34) Accurately ripped
12 [70cb407d] (03/34) Accurately ripped
13 [02221805] (03/34) Accurately ripped
14 [44b94c64] (03/34) Accurately ripped
15 [138517e6] (03/34) Accurately ripped
16 [3af92b19] (03/34) Accurately ripped
17 [bda7455a] (03/34) Accurately ripped
18 [b6191411] (03/33) Accurately ripped
Offsetted by -664:
01 [77e3c60e] (14/35) Accurately ripped
02 [bb5d708d] (14/34) Accurately ripped
03 [3fcb7752] (14/34) Accurately ripped
04 [ce505f87] (14/34) Accurately ripped
05 [4f52fdab] (14/34) Accurately ripped
06 [f0aad571] (14/34) Accurately ripped
07 [ce9508c7] (14/34) Accurately ripped
08 [6b0fe9dd] (13/33) Accurately ripped
09 [e75b83cd] (14/34) Accurately ripped
10 [5ba68591] (14/35) Accurately ripped
11 [b6119b1d] (14/34) Accurately ripped
12 [342bd681] (14/34) Accurately ripped
13 [a7ad9d6d] (14/34) Accurately ripped
14 [3a12b7f2] (14/34) Accurately ripped
15 [4434302d] (14/34) Accurately ripped
16 [5b7e80fb] (14/34) Accurately ripped
17 [308f85ce] (14/34) Accurately ripped
18 [ae723ae0] (13/33) Accurately ripped
Offsetted by -96:
01 [37529aca] (02/35) Accurately ripped
02 [34d1006d] (02/34) Accurately ripped
03 [6ecdd37a] (02/34) Accurately ripped
04 [c7b9ff98] (02/34) Accurately ripped
05 [0d073afa] (02/34) Accurately ripped
06 [0e3001c1] (02/34) Accurately ripped
07 [ec5132ce] (02/34) Accurately ripped
08 [c8597936] (02/33) Accurately ripped
09 [e6310049] (02/34) Accurately ripped
10 [bce2eb4d] (02/35) Accurately ripped
11 [f86fd64d] (02/34) Accurately ripped
12 [e70801e1] (02/34) Accurately ripped
13 [83fd9d2d] (02/34) Accurately ripped
14 [4cf40bc2] (02/34) Accurately ripped
15 [9635febd] (02/34) Accurately ripped
16 [a438b5e3] (02/34) Accurately ripped
17 [40701d71] (02/34) Accurately ripped
18 [78800bd1] (02/33) Accurately ripped
Track Peak [ CRC32 ] [W/O NULL] [ LOG ]
-- 100,0 [CF12F589] [B86A52A2] CRC32
01 98,9 [BDE1719A] [1FBE5C98]
02 98,7 [4F134325] [E156C371]
03 99,6 [51FB76AC] [176BAAC6]
04 99,6 [9CCAFB85] [FC2CBCF4]
05 99,6 [C9A3D394] [99191515]
06 99,6 [A28AC315] [28D925C1]
07 99,6 [8AD56EFC] [297E92B2]
08 99,6 [F2AF49AF] [6CC1D93C]
09 99,1 [6339C3D5] [47081F1F]
10 99,6 [976B5C30] [361FF00C]
11 99,6 [1D17BD74] [F0B50E8A]
12 99,6 [C2947475] [CEB43CCC]
13 99,6 [9233ECC7] [258966C8]
14 99,6 [02DE0DFA] [F1600781]
15 99,6 [1AB11464] [835B92E2]
16 99,6 [E7C5DBD9] [D7D18146]
17 99,6 [3F9FAA41] [209CC214]
18 100,0 [0835241E] [A6ACE973]

admin

Post 16-Aug-2018 06:58

[Quote]

Pram
"Across the Meridian"
СТРАНА — UK (Birmingham, West Midlands)
ЖАНРЫ — Neo-Psychedelia | Art Pop
ИСТОЧНИК — redacted | bandcamp
ЛЭЙБЛ — Domino Recording Co. (UK)
№ ПО КАТАЛОГУ — WIG 434
ФОРМАТ — WEB | Album
КОДЕК — FLAC (*.flac)
ТИП РИПА — tracks
БИТРЕЙТ — losslessРЕЛИЗ — 20.07.2018
ВРЕМЯ — 00:45:47.
TRACK LISTING
01. Shimmer and Disappear (03:16)
02. Thistledown (04:16)
03. Electra (04:20)
04. Wave of Translation (03:30)
05. Shadow in Twilight (02:28)
06. Ladder to the Moon (05:40)
07. The Midnight Room (02:40)
08. Footprints Towards Zero (03:37)
09. Mayfly (04:35)
10. Sailing Stones (04:07)
11. Where the Sea Stops Moving (03:23)
12. Doll's Eyes (04:01)

auCDtect

DON'T MODIFY THIS FILE
-----------------------
PERFORMER: auCDtect Task Manager, ver. 1.6.0 RC1 build 1.6.0.1
Copyright (c) 2008-2010 y-soft. All rights reserved
ANALYZER: auCDtect: CD records authenticity detector, version 0.8.2
Copyright (c) 2004 Oleg Berngardt. All rights reserved.
Copyright (c) 2004 Alexander Djourik. All rights reserved.
FILE: 12. Doll's Eyes.flac
Size: 27023204 Hash: 97ECCD600203D30A4ED16EA6E0FA37DB Accuracy: -m0
Conclusion: CDDA 100%
Signature: BD51666153BF3625180B88CAB02EF7324D4AD05F
FILE: 11. Where the Sea Stops Moving.flac
Size: 15107220 Hash: 578A80F5CD073EE55501E98AD129B1DB Accuracy: -m0
Conclusion: CDDA 100%
Signature: 9C4DD5F0917C301B68F48447A033386F341CB85A
FILE: 10. Sailing Stones.flac
Size: 26576086 Hash: 2C1CC00C922446EFEFE177BDA053982E Accuracy: -m0
Conclusion: CDDA 100%
Signature: F98693664FD89942FA239CCC24016493407526D2
FILE: 09. Mayfly.flac
Size: 26149398 Hash: 5CA3381BEFB09BDCAE5D621033423517 Accuracy: -m0
Conclusion: CDDA 100%
Signature: CAE80AE434A9C4FEE26EBE5EBF345D8CCC5D5350
FILE: 08. Footprints Towards Zero.flac
Size: 24441465 Hash: 8F9F872EA719729BA4DBDFA9FA84747D Accuracy: -m0
Conclusion: CDDA 99%
Signature: E691301EF6A9C2A8418C423F4C3E8AA23358A278
FILE: 07. The Midnight Room.flac
Size: 17060390 Hash: 57D8F565AD6E89900BE1B30986AFF6B4 Accuracy: -m0
Conclusion: CDDA 100%
Signature: BD042666BBD062D9448DD3CC7ADCBBB48F0A7A57
FILE: 06. Ladder to the Moon.flac
Size: 36213993 Hash: C4E86B74EEF61E6C143EBDDAD6F82F51 Accuracy: -m0
Conclusion: CDDA 100%
Signature: 5066329D67575442CB85F21DBC88B99D269BB94A
FILE: 05. Shadow in Twilight.flac
Size: 14699782 Hash: D31B7F2EB73BAC02F950E84D527E2E33 Accuracy: -m0
Conclusion: CDDA 100%
Signature: BA50D6F0B2D5459F66FF067FB2B3EC7730A1C558
FILE: 04. Wave of Translation.flac
Size: 19381875 Hash: 3DE643B7E368D162E33E043FFAAAB40F Accuracy: -m0
Conclusion: CDDA 100%
Signature: D1FC38A94EC61BAE7E648317DA303E21C4F70F30
FILE: 03. Electra.flac
Size: 24659841 Hash: C7FE7F8E1B314CBA695D11B77EA2C3B0 Accuracy: -m0
Conclusion: CDDA 100%
Signature: 77B17468C37E3873E65612CA96662D66FC984B00
FILE: 02. Thistledown.flac
Size: 27739081 Hash: 13E82B301AF5872E878FCD411BE383E0 Accuracy: -m0
Conclusion: CDDA 99%
Signature: 12C8E179B1644DA220376D45CA96B5FBF1F388DE
FILE: 01. Shimmer and Disappear.flac
Size: 23038309 Hash: 7B184DBB91D70FEC59DCEE26D586F3DE Accuracy: -m0
Conclusion: CDDA 100%
Signature: 8D32BD0B7405F1029D5CA911DF78FDAC140621D6
 

Current time is: 09-Jul 13:31

All times are UTC + 3