Search found 4 matches

Author Message

admin

Post 24-May-2019 04:13

[Quote]

Название: Labyrinth of Fallen Angels
Исполнитель: Elysium
Год: 2019
Жанр: Folk-Metal, Gothic-Rock
Страна: Italy
Продолжительность: 00:43:49
Формат/Кодек: FLAC
Битрейт аудио: Lossless
Тип рипа: tracks

01 - Black Hole (00:04:53)
02 - Evanescent (00:03:37)
03 - Before the End (00:03:06)
04 - Turn Around (00:05:07)
05 - Fight for All Your Love (00:04:39)
06 - Close to You (00:04:49)
07 - Siren (00:05:12)
08 - Higher State of Consciousness (00:03:57)
09 - Nobody Knows (00:03:28)
10 - Here I Am (00:04:56)

Лог проверки качества

AUDIOCHECKER v2.0 beta (build 457) - by Dester - opdester@freemail.hu
~~~~~~~~~~~~~~~~~~~~~~~~~~~~~~~~~~
Started at: четверг, 23. 05. 2019. - 17:07.06
10 files found
01 -===- C:UsersUserDownloadsElysium - 2019 - Labyrinth of Fallen Angels (FLAC)1 - Black Hole.flac
Extracted successfully
Conclusion: this track is CDDA with probability 100%
Tempfile successfully deleted.
02 -===- C:UsersUserDownloadsElysium - 2019 - Labyrinth of Fallen Angels (FLAC)2 - Evanescent.flac
Extracted successfully
Conclusion: this track is CDDA with probability 100%
Tempfile successfully deleted.
03 -===- C:UsersUserDownloadsElysium - 2019 - Labyrinth of Fallen Angels (FLAC)3 - Before the End.flac
Extracted successfully
Conclusion: this track is CDDA with probability 100%
Tempfile successfully deleted.
04 -===- C:UsersUserDownloadsElysium - 2019 - Labyrinth of Fallen Angels (FLAC)4 - Turn Around.flac
Extracted successfully
Conclusion: this track is CDDA with probability 100%
Tempfile successfully deleted.
05 -===- C:UsersUserDownloadsElysium - 2019 - Labyrinth of Fallen Angels (FLAC)5 - Fight for All Your Love.flac
Extracted successfully
Conclusion: this track is CDDA with probability 100%
Tempfile successfully deleted.
06 -===- C:UsersUserDownloadsElysium - 2019 - Labyrinth of Fallen Angels (FLAC)6 - Close to You.flac
Extracted successfully
Conclusion: this track is CDDA with probability 100%
Tempfile successfully deleted.
07 -===- C:UsersUserDownloadsElysium - 2019 - Labyrinth of Fallen Angels (FLAC)7 - Siren.flac
Extracted successfully
Conclusion: this track is CDDA with probability 100%
Tempfile successfully deleted.
08 -===- C:UsersUserDownloadsElysium - 2019 - Labyrinth of Fallen Angels (FLAC)8 - Higher State of Consciousness.flac
Extracted successfully
Conclusion: this track is CDDA with probability 100%
Tempfile successfully deleted.
09 -===- C:UsersUserDownloadsElysium - 2019 - Labyrinth of Fallen Angels (FLAC)9 - Nobody Knows.flac
Extracted successfully
Conclusion: this track is CDDA with probability 100%
Tempfile successfully deleted.
10 -===- C:UsersUserDownloadsElysium - 2019 - Labyrinth of Fallen Angels (FLAC)10 - Here I Am.flac
Extracted successfully
Conclusion: this track is CDDA with probability 100%
Tempfile successfully deleted.
Finished at: четверг, 23. 05. 2019. - 17:08.59 (operation time: 0:01.52)

DR

foobar2000 1.4.4 / Замер динамического диапазона (DR) 1.1.1
Дата отчёта: 2019-05-23 17:07:53
--------------------------------------------------------------------------------
Анализ: Elysium / Labyrinth of Fallen Angels
--------------------------------------------------------------------------------
DR Пики RMS Продолжительность трека
--------------------------------------------------------------------------------
DR6 0.00 дБ -7.71 дБ 4:54 01-Black Hole
DR6 0.00 дБ -6.69 дБ 3:37 02-Evanescent
DR6 0.00 дБ -7.02 дБ 3:07 03-Before the End
DR6 0.00 дБ -8.95 дБ 5:07 04-Turn Around
DR6 0.00 дБ -6.88 дБ 4:40 05-Fight for All Your Love
DR6 0.00 дБ -7.75 дБ 4:50 06-Close to You
DR5 0.00 дБ -6.81 дБ 5:13 07-Siren
DR6 0.00 дБ -7.16 дБ 3:58 08-Higher State of Consciousness
DR6 0.00 дБ -7.30 дБ 3:29 09-Nobody Knows
DR6 -0.01 дБ -7.56 дБ 4:57 10-Here I Am
--------------------------------------------------------------------------------
Количество треков: 10
Реальные значения DR: DR6
Частота: 44100 Гц
Каналов: 2
Разрядность: 16
Битрейт: 965 кбит/с
Кодек: FLAC
================================================================================

admin

Post 17-Jan-2019 02:51

[Quote]

Название: Blood Of Kvasir
Исполнитель: Skaldenmet
Год: 2019
Жанр: Viking Metal
Страна: Germany
Продолжительность: 00:44:33
Формат/Кодек: MP3
Битрейт аудио: 320 Kbps

Трек-лист

1. Velkomin
2. To The Viking
3. Berserker Rage
4. Face Up To Northern Light
5. Launen Des Orkans
6. Cloaked By His Smoke And Mirrors
7. Hel's Lair
8. Blood Of Kvasir
9. Beim Runenstein

admin

Post 18-Aug-2018 07:27

[Quote]

Название: Ostara
Исполнитель: The Wishing Tree
Год: 2009
Жанр: Folk Rock, Prog Rock
Страна: UK
Продолжительность: 00:43:17
Формат/Кодек: FLAC (image+.cue)
Битрейт аудио: lossless

Трек-лист

1 Ostara
2 Easy
3 Hollow Hills
4 Seventh Sign
5 Falling
6 Fly
7 Kingfisher
8 Soldier
Дополнительная информация: Сольный проект, созданный когда-то гитаристом группы Marillion Стивом Ротери (Steve Rothery). Второй за почти 12 лет студийный альбом проекта, вновь записанный при участии певицы Ханны Стобарт (Hannah Stobart) демонстрирует материал на грани мягкого прогрессив-рока и ортодоксального британского фолка.

admin

Post 01-Aug-2018 03:18

[Quote]

Название: Mother Russia
Исполнитель: Zmey Gorynich
Год: 2018
Жанр: Folk-Metal
Страна: Россия
Продолжительность: 51:56
Формат/Кодек: MP3
Битрейт аудио: 320 kbps
Наличие сканов: -Трек-лист:
01. Ау (0:34)
02. Гой-Еси Ты Русь Родная! (3:26)
03. Морозобой (3:25)
04. Деда-Тетеря (2:56)
05. Медвеплясъ (5:32)
06. Ой, Лели-Лели! (4:01)
07. Сорочинская Ярмарка (3:57)
08. Борода (3:52)
09. Змей Горынычъ (3:28)
10. Айнанэ (3:39)
11. Колобокъ (2:46)
12. Странствiя Рукоблуда и брата его Малафея (6:14)
13. Princess Of Russia (E-Type cover) (3:36)
14. Солнце (Rammstein cover) (4:30)
 

Current time is: 25-Sep 23:55

All times are UTC + 3