Search found 53 matches

Author Message

admin

Post 13-May-2022 12:29

[Quote]

Название: Pirates
Исполнитель: Visions Of Atlantis
Год: 2022
Жанр: Symphonic-Metal
Страна: Austria
Продолжительность: 00:58:07
Формат/Кодек: FLAC
Тип рипа: Tracks
Битрейт аудио: Lossless
Разрядность: 24 Bit/44,1 kHz
Носитель: WEB

Трек-лист

01. Pirates Will Return (6:08)
02. Melancholy Angel (3:56)
03. Master the Hurricane (7:18)
04. Clocks (3:56)
05. Freedom (4:01)
06. Legion of the Seas (4:36)
07. Wild Elysium (4:16)
08. Darkness Inside (4:31)
09. In My World (5:25)
10. Mercy (4:27)
11. Heal the Scars (3:55)
12. I Will Be Gone (5:38)

DRM
foobar2000 1.6.9 / Dynamic Range Meter 1.1.1
--------------------------------------------------------------------------------
Analyzed: Visions Of Atlantis / Pirates
--------------------------------------------------------------------------------
DR Peak RMS Duration Track
--------------------------------------------------------------------------------
DR7 -1.15 dB -10.76 dB 6:08 01-Pirates Will Return
DR8 -1.10 dB -10.32 dB 3:56 02-Melancholy Angel
DR7 -1.00 dB -10.27 dB 7:18 03-Master the Hurricane
DR8 -1.11 dB -9.85 dB 3:56 04-Clocks
DR10 -1.21 dB -15.01 dB 4:01 05-Freedom
DR7 -1.09 dB -10.40 dB 4:36 06-Legion of the Seas
DR7 -1.09 dB -9.63 dB 4:16 07-Wild Elysium
DR8 -1.11 dB -10.98 dB 4:31 08-Darkness Inside
DR7 -1.10 dB -9.80 dB 5:25 09-In My World
DR7 -1.12 dB -10.39 dB 4:27 10-Mercy
DR8 -1.20 dB -11.91 dB 3:55 11-Heal the Scars
DR7 -1.14 dB -10.56 dB 5:38 12-I Will Be Gone
--------------------------------------------------------------------------------
Number of tracks: 12
Official DR value: DR8
Samplerate: 44100 Hz
Channels: 2
Bits per sample: 24
Bitrate: 1583 kbps
Codec: FLAC
================================================================================

admin

Post 10-May-2022 01:08

[Quote]

Название: Between Your World and Mine
Исполнитель: MorningStar
Год: 2022
Жанр: Melodic-Metal
Страна: USA
Продолжительность: 00:45:15
Формат/Кодек: MP3
Битрейт аудио: 320 kbps

Трек-лист

01 - The Calling [00:04:12]
02 - Calalini [00:04:44]
03 - Stranded in Cyber City [00:03:30]
04 - The Circus [00:04:09]
05 - Bittersweet Lullaby [00:04:52]
06 - Decisions [00:03:36]
07 - Silence [00:03:44]
08 - Two Brothers [00:03:52]
09 - Eternal [00:03:59]
10 - Calalini (Instrumental) [00:04:37]
11 - Eternal (Instrumental) [00:03:56]

admin

Post 07-May-2022 01:21

[Quote]

Название: Evil Becomes Rule
Исполнитель: Christian Death
Год: 2022
Жанр: Gothic-Rock
Страна: USA
Лейбл: Season of Mist
Продолжительность: 00:42:31
Формат/Кодек: FLAC
Битрейт аудио: Lossless

Трек-лист

01 - The Alpha and the Omega
02 - New Messiah
03 - Elegant Sleeping
04 - Blood Moon
05 - Abraxas We Are
06 - The Warning
07 - Beautiful
08 - Rise and Shine
09 - Evil Becomes Rule
10 - Who Am I, Pt. 1
11 - Who Am I, Pt. 2

Log

DON'T MODIFY THIS FILE
-----------------------
PERFORMER: auCDtect Task Manager, ver. 1.6.0 RC1 build 1.6.0.1
Copyright (c) 2008-2010 y-soft. All rights reserved
http://y-soft.org
ANALYZER: auCDtect: CD records authenticity detector, version 0.8.2
Copyright (c) 2004 Oleg Berngardt. All rights reserved.
Copyright (c) 2004 Alexander Djourik. All rights reserved.
FILE: 11 - Who Am I, Pt. 2.flac
Size: 6772830 Hash: 0BC2BF0024405AC17711B346DC388DDF Accuracy: -m40
Conclusion: CDDA 100%
Signature: 04D6D427D2547DC92C910C90B4DA7A78648CC712
FILE: 10 - Who Am I, Pt. 1.flac
Size: 23788564 Hash: B4AD6D2F127030138F617EFD0D21B748 Accuracy: -m40
Conclusion: CDDA 100%
Signature: 9BC58F61F0B501C36DEAE24835FE39DAFDC02762
FILE: 09 - Evil Becomes Rule.flac
Size: 22006172 Hash: C42BC8EFC014DEA2040C67BB932F7A48 Accuracy: -m40
Conclusion: CDDA 100%
Signature: C682BD0B1627A8C33AD3637CBF67E83AA710C80E
FILE: 08 - Rise and Shine.flac
Size: 31433424 Hash: 3BB334FCE6E636B32C540715C399492F Accuracy: -m40
Conclusion: CDDA 100%
Signature: 76A4FD6B1F6C824E51AC93AE955CB188FFA9BBDD
FILE: 07 - Beautiful.flac
Size: 34434926 Hash: 26DEEB865443EDA2308DF336BF884914 Accuracy: -m40
Conclusion: CDDA 100%
Signature: 3C2DA36C11E550708FD9A2E17F37F15AD4EFA4AF
FILE: 06 - The Warning.flac
Size: 30551979 Hash: D5ACDE1C51E59687165BA89A1ABD1FD5 Accuracy: -m40
Conclusion: CDDA 100%
Signature: 1495D0690183839710C35F1265FF13164E0B2F32
FILE: 05 - Abraxas We Are.flac
Size: 32115619 Hash: D1E7998800710728986F6588C6BA7D87 Accuracy: -m40
Conclusion: CDDA 99%
Signature: 916C69116BFC9FAA65EB81B9F46E5B4E93455E05
FILE: 04 - Blood Moon.flac
Size: 26672681 Hash: DF19CC6C8D3798C90837D92D85842608 Accuracy: -m40
Conclusion: CDDA 100%
Signature: 5BCCEF037B3075A6B778193478F4C39164F7F358
FILE: 03 - Elegant Sleeping.flac
Size: 30098811 Hash: F758BE06965A3ACBA9FC17D746B8E02E Accuracy: -m40
Conclusion: CDDA 100%
Signature: 09EAF7625D8154D26DF642B88830591CE3D476A7
FILE: 02 - New Messiah.flac
Size: 29662059 Hash: 1259455A00475E0AE1F96DF323F74EF9 Accuracy: -m40
Conclusion: CDDA 100%
Signature: A18873D27F26CCBF9AFE972554FB26FFFB424973
FILE: 01 - The Alpha and the Omega.flac
Size: 25608801 Hash: 1A822AD73D6C4DA16912071927438CA0 Accuracy: -m40
Conclusion: CDDA 100%
Signature: CF0B6976F0B9D9D0F69625D05EF2D88102CC11FF

admin

Post 30-Apr-2022 00:57

[Quote]

Название: T.M.T.T.80
Исполнитель: Reckless
Год: 2022
Жанр: Hard-Rock, Glam-Metal
Страна: Italy
Продолжительность: 00:58:40
Формат/Кодек: MP3
Битрейт аудио: 320 kbps

Трек-лист

01 - Take Me to the 80’s [00:04:58]
02 - Countach [00:04:04]
03 - Workout [00:03:11]
04 - One Night Together [00:06:07]
05 - Chic & Destroy [00:04:46]
06 - Rock Hard (In My Party!) [00:04:54]
07 - We Are the Rock [00:04:36]
08 - Red Lips [00:04:12]
09 - Raise Your Fist [00:05:28]
10 - Tonight [00:06:00]
11 - Back in Time [00:05:07]
12 - Scandalo! [00:05:10]

admin

Post 09-Apr-2022 05:46

[Quote]

Название: Ascension of the Dark Prophet
Исполнитель: Saphath
Год: 2022
Жанр: Symphonic, Death, Gothic, Black-Metal
Страна: Россия
Продолжительность: 00:44:48
Формат/Кодек: MP3
Битрейт аудио: 320 kbps

Трек-лист

01 - Children of the Night [00:04:59]
02 - Outcast of Eden [00:03:42]
03 - Darkness Unleashed [00:03:19]
04 - Broken Mirror [00:04:33]
05 - The Daughter of Ice Plains [00:03:06]
06 - Asphodel Meadows [00:05:37]
07 - Language of My Pain [00:03:39]
08 - The Raven [00:05:12]
09 - Your God [00:03:41]
10 - The Land of My Dreams [00:06:55]

admin

Post 08-Apr-2022 03:55

[Quote]

Название: Leidenschaft
Исполнитель: Lacrimosa
Год: 2021
Жанр: Gothic Metal
Страна: Switzerland
Продолжительность: 00:55:01
Формат/Кодек: FLAC
Битрейт аудио: image+.cue + scans

Трек-лист

01. Liebe uber Leben (6:11)
02. Fuhr mich nochmal in den Sturm (5:59)
03. Kulturasche (4:22)
04. The Daugther of Coldness (4:32)
05. Raubtier (4:48)
06. Die Antwort ist Schweigen (6:24)
07. Celebrate the Darkness (5:21)
08. Augenschein (4:49)
09. Die Liebenden (4:12)
10. Exodus (8:23)

EAC

Exact Audio Copy V1.6 from 23. October 2020
EAC extraction logfile from 2. April 2022, 8:47
Lacrimosa / Leidenschaft (HOS 8090)
Used drive : ASUS BW-16D1HT Adapter: 1 ID: 0
Read mode : Secure
Utilize accurate stream : Yes
Defeat audio cache : Yes
Make use of C2 pointers : No
Read offset correction : 6
Overread into Lead-In and Lead-Out : No
Fill up missing offset samples with silence : Yes
Delete leading and trailing silent blocks : No
Null samples used in CRC calculations : Yes
Used interface : Native Win32 interface for Win NT & 2000
Used output format : User Defined Encoder
Selected bitrate : 1024 kBit/s
Quality : High
Add ID3 tag : No
Command line compressor : C:Program Files (x86)Exact Audio CopyFlacflac.exe
Additional command line options : -6 -V -T "ARTIST=%artist%" -T "TITLE=%title%" -T "ALBUM=%albumtitle%" -T "DATE=%year%" -T "TRACKNUMBER=%tracknr%" -T "GENRE=%genre%" -T "COMMENT=%comment%" -T "BAND=%albuminterpret%" -T "ALBUMARTIST=%albuminterpret%" -T "COMPOSER=%composer%" %haslyrics%--tag-from-file=LYRICS="%lyricsfile%"%haslyrics% -T "DISCNUMBER=%cdnumber%" -T "TOTALDISCS=%totalcds%" -T "TOTALTRACKS=%numtracks%" %hascover%--picture="%coverfile%"%hascover% %source% -o %dest%
TOC of the extracted CD
Track | Start | Length | Start sector | End sector
---------------------------------------------------------
1 | 0:00.00 | 6:11.37 | 0 | 27861
2 | 6:11.37 | 5:59.08 | 27862 | 54794
3 | 12:10.45 | 4:22.00 | 54795 | 74444
4 | 16:32.45 | 4:31.60 | 74445 | 94829
5 | 21:04.30 | 4:47.48 | 94830 | 116402
6 | 25:52.03 | 6:23.66 | 116403 | 145193
7 | 32:15.69 | 5:21.15 | 145194 | 169283
8 | 37:37.09 | 4:48.68 | 169284 | 190951
9 | 42:26.02 | 4:11.69 | 190952 | 209845
10 | 46:37.71 | 8:23.02 | 209846 | 247572
Range status and errors
Selected range
Filename D:MUSICLacrimosa - Leidenschaft (HOS 8090).wav
Peak level 97.8 %
Extraction speed 8.1 X
Range quality 100.0 %
Test CRC 3D58D31C
Copy CRC 3D58D31C
Copy OK
No errors occurred
AccurateRip summary
Track 1 cannot be verified as accurate (confidence 1) [024347EC], AccurateRip returned [644DAD46] (AR v2)
Track 2 cannot be verified as accurate (confidence 1) [D720A486], AccurateRip returned [97D29C70] (AR v2)
Track 3 cannot be verified as accurate (confidence 1) [94876A2B], AccurateRip returned [B0E5696E] (AR v2)
Track 4 cannot be verified as accurate (confidence 1) [12FBB78C], AccurateRip returned [5B11AD6A] (AR v2)
Track 5 cannot be verified as accurate (confidence 1) [84D49ACE], AccurateRip returned [3D290650] (AR v2)
Track 6 cannot be verified as accurate (confidence 1) [02D022F2], AccurateRip returned [73509243] (AR v2)
Track 7 cannot be verified as accurate (confidence 1) [5E57E31D], AccurateRip returned [9B40EB79] (AR v2)
Track 8 cannot be verified as accurate (confidence 1) [AB483DBE], AccurateRip returned [3A4610C7] (AR v2)
Track 9 cannot be verified as accurate (confidence 1) [CCD32E7A], AccurateRip returned [EF2ACE2C] (AR v2)
Track 10 cannot be verified as accurate (confidence 1) [67E83A45], AccurateRip returned [B20C4415] (AR v2)
No tracks could be verified as accurate
You may have a different pressing from the one(s) in the database
End of status report
---- CUETools DB Plugin V2.1.6
[CTDB TOCID: bC7DChZdrEHQ3iCMSTtdlsw5zlU-] found
Submit result: bC7DChZdrEHQ3iCMSTtdlsw5zlU- has been confirmed
Track | CTDB Status
1 | (27/27) Accurately ripped
2 | (27/27) Accurately ripped
3 | (27/27) Accurately ripped
4 | (27/27) Accurately ripped
5 | (26/27) Accurately ripped
6 | (27/27) Accurately ripped
7 | (27/27) Accurately ripped
8 | (27/27) Accurately ripped
9 | (27/27) Accurately ripped
10 | (26/27) Accurately ripped
==== Log checksum 8A4BDEB5C78BCBF4D2892044F756FECED5BEB610DBF70806631384520F182595 ====

admin

Post 29-Mar-2022 02:47

[Quote]

Название: Tahta Hitam
Исполнитель: Dreamer
Год: 2022
Жанр: Gothic-Metal
Страна: Indonesia
Лейбл: Cerberus Productions
Продолжительность: 00:47:21
Формат/Кодек: MP3
Битрейт аудио: 320 kbps

Трек-лист

01 - Panah Kematian [00:05:13]
02 - Khurusetra [00:05:50]
03 - Tirani [00:05:20]
04 - Tahta Hitam [00:04:19]
05 - Jabang Tetuka [00:04:11]
06 - Perang Suci [00:04:56]
07 - Doa Pendosa II [00:05:17]
08 - Raja Dunia [00:04:27]
09 - Perang, Darah, dan Dosa [00:04:20]
10 - Dreamer - Anggakara [00:03:23]

admin

Post 26-Mar-2022 06:13

[Quote]

Название: On Fragile Wings
Исполнитель: Thanateros
Год: 2022
Жанр: Gothic, Folk-Metal
Страна: Germany
Лейбл: New Crusade
Продолжительность: 00:57:45
Формат/Кодек: MP3
Битрейт аудио: 320 kbps

Трек-лист

01. Kybalion (Time To Fly) (02:14)
02. Burn (04:44)
03. On The Barricades (05:14)
04. Coven Of The Drowned (04:42)
05. Passengers (04:18)
06. Black Forest Calling (04:21)
07. We Are The Ravens (06:20)
08. Source Of It All (04:59)
09. Solitude (05:20)
10. Fading (04:11)
11. Nothing Lasts Forever (07:17)
12. Running Up That Hill (03:58)

admin

Post 25-Mar-2022 05:16

[Quote]

Название: Among The Fires Of Hell
Исполнитель: Sakis Tolis
Год: 2022
Жанр: Gothic-Metal
Страна: Greece
Продолжительность: 00:40:48
Формат/Кодек: FLAC
Битрейт аудио: Lossless

Трек-лист

01 - My Salvation (00:04:24)
02 - Among the Fires of Hell (00:04:20)
03 - The Dawn of the New Age (00:04:34)
04 - We the Fallen Angels (00:04:13)
05 - Ad Astra (00:04:52)
06 - Live with Passion (Die with Honour) (00:05:15)
07 - I Name You Under Our Cult (00:03:45)
08 - The Silence (00:04:16)
09 - Nocturnal Hecate (00:05:06)

Log

DON'T MODIFY THIS FILE
-----------------------
PERFORMER: auCDtect Task Manager, ver. 1.6.0 RC1 build 1.6.0.1
Copyright (c) 2008-2010 y-soft. All rights reserved
http://y-soft.org
ANALYZER: auCDtect: CD records authenticity detector, version 0.8.2
Copyright (c) 2004 Oleg Berngardt. All rights reserved.
Copyright (c) 2004 Alexander Djourik. All rights reserved.
FILE: 09 - Nocturnal Hecate.flac
Size: 32527127 Hash: A2EA0391EF973C651BD65B7DF504AA51 Accuracy: -m40
Conclusion: CDDA 99%
Signature: 25E2759922EE450C3E736FCAD696BCF0790BB51C
FILE: 08 - The Silence.flac
Size: 30610662 Hash: DB9472288C93B415275A0AA75F2B0C90 Accuracy: -m40
Conclusion: CDDA 100%
Signature: DC50D19F340272A1DB827DF60BA211D964B69056
FILE: 07 - I Name You Under Our Cult.flac
Size: 25299681 Hash: 132BB9C57D43737839E1E5EF26DDF81C Accuracy: -m40
Conclusion: CDDA 100%
Signature: 9B50920C29ACA7593E910492043CB2FBB5E8636F
FILE: 06 - Live with Passion (Die with Honour).flac
Size: 38097797 Hash: CA619E86AB217FE8F58715DD8B677C5B Accuracy: -m40
Conclusion: CDDA 100%
Signature: AE1971613CE88AA829E88A087014660FF8512DE5
FILE: 05 - Ad Astra.flac
Size: 35087785 Hash: 1D46C47A476577833ED7586ED2EBF5CA Accuracy: -m40
Conclusion: CDDA 100%
Signature: C7F2403D288D246C616E91E700ED8EE426791B3C
FILE: 04 - We the Fallen Angels.flac
Size: 29643795 Hash: E57FA78EDB0DFDAA484B53E932E74FC9 Accuracy: -m40
Conclusion: CDDA 99%
Signature: C69E6554A4458015F808CA28B03C751DB290B671
FILE: 03 - The Dawn of the New Age.flac
Size: 32793080 Hash: 9E3E1540DEA3C23AE0DE6D08A7544201 Accuracy: -m40
Conclusion: CDDA 100%
Signature: 2AE787BD1D11B2B247C9EDED1BA1A49AD83646C3
FILE: 02 - Among the Fires of Hell.flac
Size: 30118719 Hash: BFDFBCBC553C4F2C30C3A90F151B2AE2 Accuracy: -m40
Conclusion: CDDA 100%
Signature: 512A41950E1A75C380F17EC3F271DE9A6267B307
FILE: 01 - My Salvation.flac
Size: 29613237 Hash: B97843BEC4B6774D495A0C89CF7E1D5C Accuracy: -m40
Conclusion: CDDA 100%
Signature: 152D89E934E9CF1EC134A65D81C042DA45B10DEF

admin

Post 12-Mar-2022 04:33

[Quote]

Название: Black Symphony [24-Bit, Hi-Res, Live]
Исполнитель: Within Temptation & The Metropole Orchestra
Год: 2008/2021
Жанр: Symphonic-Metal
Страна: Netherlands
Продолжительность: 02:02:48
Формат/Кодек: FLAC
Битрейт аудио: LOSSLESS/Web-DL [24/96]

Трек-лист

CD 1
01. Ouverture (7:44)
02. Jillian (I'd Give My Heart) (4:39)
03. The Howling (6:31)
04. Stand My Ground (4:33)
05. The Cross (4:58)
06. What Have You Done (feat. Keith Caputo) (5:22)
07. Hand Of Sorrow (5:40)
08. The Heart Of Everything (5:48)
09. Forgiven (4:53)
10. Somewhere (feat. Anneke van Giersbergen) (4:24)
11. The Swan Song (4:00)
12. Memories (4:03)
CD 2
01. Our Solemn Hour (5:22)
02. The Other Half (Of Me) (5:04)
03. Frozen (4:32)
04. The Promise (8:15)
05. Angels (4:02)
06. Mother Earth (6:00)
07. The Truth Beneath The Rose (7:23)
08. Deceiver Of Fools (7:38)
09. All I Need (4:55)
10. Ice Queen (7:15)

admin

Post 12-Mar-2022 04:31

[Quote]

Название: ‎Shed My Skin
Исполнитель: Within Temptation
Год: 2021
Жанр: Symphonic-Metal
Страна: Netherlands
Издатель (лейбл): Universal Music Group
Номер по каталогу: 0602677019998
Продолжительность: 00:24:39
Формат/Кодек: FLAC
Битрейт аудио: LOSSLESS [24/96]

Трек-лист

01 Shed My Skin
02 The Purge
03 Entertain You
04 Shed My Skin (Instrumental)
05 The Purge (Instrumental)
06 Entertain You (Instrumental)

admin

Post 16-Feb-2022 04:01

[Quote]

Название: Pathfinder
Исполнитель: Heaven's Guard
Год: 2022
Жанр: Gothic Metal, Symphonic-Metal, Female-Vocal
Страна: Germany, Hanover, Lower Saxony
Продолжительность: 00:51:08
Формат/Кодек: FLAC
Битрейт аудио: Lossless [16-Bit / 44.1 kHz]

Трек-лист

01. Obscurity (05:42)
02. Veiled in Mist (04:40)
03. Fallen Angels (04:40)
04. Heaven's Guard (04:27)
05. Passenger of Charon (03:36)
06. Deepest Voice (04:29)
07. The Cause of Destiny (04:51)
08. Plato's Cave (05:38)
09. Pathfinder (04:08)
10. Worlds (04:36)
11. Symbiosis (Bonus Track) (04:18)

admin

Post 11-Feb-2022 06:18

[Quote]

Название: Scar Weaver
Исполнитель: Once Human
Год: 2022
Жанр: Groove-Metal, Death-Metal
Страна: United States, Los Angeles, California
Продолжительность: 00:41:02
Формат/Кодек: FLAC
Битрейт аудио: 24-Bit / 48.0 kHz

Трек-лист

01. Eidolon [00:03:53]
02. Deadlock [00:03:28]
03. Scar Weaver [00:04:22]
04. Bottom Feeder [00:05:04]
05. Where the Bones Lie [00:03:38]
06. Erasure [00:04:45]
07. Deserted [00:04:00]
08. We Ride [00:02:41]
09. Cold Arrival [00:04:07]
10. Only in Death [00:04:58]

admin

Post 11-Feb-2022 03:53

[Quote]

Название: Unfinished
Исполнитель: Shield of Wings
Год: 2022
Жанр: Symphonic-Metal, Gothic Metal, Female-Vocal
Страна: USA
Продолжительность: 00:58:09
Формат/Кодек: MP3
Битрейт аудио: 320 Kbps

Трек-лист

01 - Crushing Hail [00:04:33]
02 - Native Colossus [00:05:54]
03 - Breathing [00:05:48]
04 - Frozen Harbor [00:06:44]
05 - Cedar [00:05:43]
06 - Wetland [00:05:03]
07 - Mind of Myth [00:06:21]
08 - Sunfire Shower [00:06:11]
09 - Come Home [00:04:21]
10 - The Scarred Clay Reshaping [00:07:28]

admin

Post 02-Feb-2022 03:54

[Quote]

Название: s.u.p.e.r.N.O.V.A.
Исполнитель: Desdemona
Год: 2003
Жанр: Gothic-Industrial-Metal
Страна: Poland, Polkowice, Dolnośląskie
Издатель (лейбл): Metal Mind Records
Номер по каталогу: MMP CD 0182
Наличие сканов в содержимом раздачи: да
Продолжительность: 00:53:22
Формат/Кодек: FLAC
Битрейт аудио: Lossless (image+cue)

Трек-лист

01. Orbital
02. IX IX
03. Tomorrow Will Turn Into The Past
04. To The Past Shadows
05. Crucified: Act I
06. XII: Salem
07. Void
08. The War Between Us
09. Anymore
10. _s.u.p.e.r.N.O.V.A.
11. Mimoza
12. Astral Drift
13. Insomnia
14. Depression

EAC

Exact Audio Copy V1.6 from 23. October 2020
EAC extraction logfile from 31. January 2022, 23:00
Desdemona / s.u.p.e.r.N.O.V.A.
Used drive : hp CDDVDW TS-U633J Adapter: 1 ID: 0
Read mode : Secure
Utilize accurate stream : Yes
Defeat audio cache : Yes
Make use of C2 pointers : No
Read offset correction : 6
Overread into Lead-In and Lead-Out : No
Fill up missing offset samples with silence : Yes
Delete leading and trailing silent blocks : No
Null samples used in CRC calculations : Yes
Used interface : Native Win32 interface for Win NT & 2000
Used output format : User Defined Encoder
Selected bitrate : 128 kBit/s
Quality : High
Add ID3 tag : Yes
Command line compressor : C:Program Files (x86)Exact Audio CopyFlacflac.exe
Additional command line options : -V -8 -T "Date=%year%" -T "Genre=%genre%" %source%
TOC of the extracted CD
Track | Start | Length | Start sector | End sector
---------------------------------------------------------
1 | 0:00.00 | 0:32.32 | 0 | 2431
2 | 0:32.32 | 5:40.41 | 2432 | 27972
3 | 6:12.73 | 3:17.19 | 27973 | 42766
4 | 9:30.17 | 3:33.08 | 42767 | 58749
5 | 13:03.25 | 4:04.33 | 58750 | 77082
6 | 17:07.58 | 3:13.03 | 77083 | 91560
7 | 20:20.61 | 6:49.03 | 91561 | 122238
8 | 27:09.64 | 4:32.60 | 122239 | 142698
9 | 31:42.49 | 4:16.25 | 142699 | 161923
10 | 35:58.74 | 1:30.28 | 161924 | 168701
11 | 37:29.27 | 4:06.32 | 168702 | 187183
12 | 41:35.59 | 2:41.57 | 187184 | 199315
13 | 44:17.41 | 6:57.64 | 199316 | 230654
14 | 51:15.30 | 2:07.41 | 230655 | 240220
Range status and errors
Selected range
Filename E:TorrentsDesdemona - _s.u.p.e.r.N.O.V.A. (2003)Desdemona - s.u.p.e.r.N.O.V.A..wav
Peak level 100.0 %
Extraction speed 3.8 X
Range quality 100.0 %
Test CRC 93A9C8B0
Copy CRC 93A9C8B0
Copy OK
No errors occurred
AccurateRip summary
Track 1 accurately ripped (confidence 1) [86372719] (AR v2)
Track 2 accurately ripped (confidence 1) [9D19247B] (AR v2)
Track 3 accurately ripped (confidence 1) [2CB63E79] (AR v2)
Track 4 accurately ripped (confidence 1) [23CB051B] (AR v2)
Track 5 accurately ripped (confidence 1) [E0DE6052] (AR v2)
Track 6 accurately ripped (confidence 1) [33E9A5B5] (AR v2)
Track 7 accurately ripped (confidence 1) [FAFEDA21] (AR v2)
Track 8 accurately ripped (confidence 1) [93058C3E] (AR v2)
Track 9 accurately ripped (confidence 1) [3D2C28A8] (AR v2)
Track 10 accurately ripped (confidence 1) [C1CF5231] (AR v2)
Track 11 accurately ripped (confidence 1) [10D5477D] (AR v2)
Track 12 accurately ripped (confidence 1) [3CC3F996] (AR v2)
Track 13 accurately ripped (confidence 1) [A1610E05] (AR v2)
Track 14 accurately ripped (confidence 1) [AC2BC3FE] (AR v2)
All tracks accurately ripped
End of status report
---- CUETools DB Plugin V2.1.6
[CTDB TOCID: 8yoCV74KZxYqFYeuXeCrnvttgJ0-] found
Submit result: 8yoCV74KZxYqFYeuXeCrnvttgJ0- has been confirmed
Track | CTDB Status
1 | (3/3) Accurately ripped
2 | (3/3) Accurately ripped
3 | (3/3) Accurately ripped
4 | (3/3) Accurately ripped
5 | (3/3) Accurately ripped
6 | (3/3) Accurately ripped
7 | (3/3) Accurately ripped
8 | (3/3) Accurately ripped
9 | (3/3) Accurately ripped
10 | (3/3) Accurately ripped
11 | (3/3) Accurately ripped
12 | (3/3) Accurately ripped
13 | (3/3) Accurately ripped
14 | (3/3) Accurately ripped
==== Log checksum C9D0A100D7F4F61A95EA2589ADEFD401EE37E15549268A95BE101F87910760DD ====
 

Current time is: 20-May 14:06

All times are UTC + 3