Search found 500 matches

Author Message

admin

Post 13-May-2022 12:51

[Quote]

Название: Expect The Unexpected
Исполнитель: Stinger
Год: 2022
Жанр: Hard-Rock
Страна: Germany
Лейбл: Rock Of Angels Records
Продолжительность: 00:42:26
Формат/Кодек: FLAC
Битрейт аудио: Lossless

Трек-лист

01. Diggin' Up The Dirt
02. Chasing Utopia (Feat. Billy Sheehan)
03. Monkey
04. Highfalutin'
05. Glory And Pride
06. Down At The Water Below
07. Roller Coaster
08. No More
09. Hallelujah
10. Son Of A Gun
11. Not My Part
12. Two Words One Finger

Log

DON'T MODIFY THIS FILE
-----------------------
PERFORMER: auCDtect Task Manager, ver. 1.6.0 RC1 build 1.6.0.1
Copyright (c) 2008-2010 y-soft. All rights reserved
http://y-soft.org
ANALYZER: auCDtect: CD records authenticity detector, version 0.8.2
Copyright (c) 2004 Oleg Berngardt. All rights reserved.
Copyright (c) 2004 Alexander Djourik. All rights reserved.
FILE: 12 - Two Words One Finger.flac
Size: 25638007 Hash: 83E64312A8C63839469B9A5E2814CBDF Accuracy: -m40
Conclusion: CDDA 100%
Signature: 09D2A3D8206D837B99C1EAC8BC2E12983F482803
FILE: 11 - Not My Part.flac
Size: 23335578 Hash: 1C9C1DAC6F5677B78D747C7928C67840 Accuracy: -m40
Conclusion: CDDA 99%
Signature: F64343CFF0D8DC993F57C669C63692829A5E23DB
FILE: 10 - Son Of A Gun.flac
Size: 22809240 Hash: 1E8D2482CAB359D451D37712CA79005C Accuracy: -m40
Conclusion: CDDA 100%
Signature: 8B8BF696FC0C6A61A461694D5577D26A0F64ED33
FILE: 09 - Hallelujah.flac
Size: 21892344 Hash: EDEB19E2F2A71A7BA41AF7F40044A21B Accuracy: -m40
Conclusion: CDDA 100%
Signature: 50B7728458B914620A96CD3E0231717734682D0C
FILE: 08 - No More.flac
Size: 24438739 Hash: 296749D920F4DD5EA846D7EA06DF3BF2 Accuracy: -m40
Conclusion: CDDA 100%
Signature: E663A27FB1DF5AE49A486A89FB5F1765790FF20A
FILE: 07 - Roller Coaster.flac
Size: 22727050 Hash: 87A175EE5DC5DF0BD10EE18D609EB8C2 Accuracy: -m40
Conclusion: CDDA 99%
Signature: C2DDDF61A2F5353E6E8D71274F72602609875915
FILE: 06 - Down At The Water Below.flac
Size: 20739965 Hash: CCB815849DB132B61C7E16FEDB789AE7 Accuracy: -m40
Conclusion: CDDA 100%
Signature: E6DAF876DFE3AC0131D793BE0CBC4E01DE6DF17B
FILE: 05 - Glory And Pride.flac
Size: 25388416 Hash: 0D4ABCF658D472B18464922305A859C4 Accuracy: -m40
Conclusion: CDDA 100%
Signature: 9FF36D1080392203A0D59E65089D3883B000F2AB
FILE: 04 - Highfalutin'.flac
Size: 20557072 Hash: DEF9BE39983F35EFB5F132CFF68EB6CC Accuracy: -m40
Conclusion: CDDA 100%
Signature: CA57ED7F408DA5F922167EF24FD162248E12E827
FILE: 03 - Monkey.flac
Size: 22458147 Hash: 9F7B831EF7B6516164D5D76F9EA3875C Accuracy: -m40
Conclusion: CDDA 100%
Signature: F059D54510388A09C34C9C4EED1311EB7413D8AF
FILE: 02 - Chasing Utopia.flac
Size: 33626322 Hash: 797FE7CE3640CAEC749B36066325CA79 Accuracy: -m40
Conclusion: CDDA 100%
Signature: 75F717DBD7E1FAC1D508267BD1623AE2CEF3C487
FILE: 01 - Diggin' Up The Dirt.flac
Size: 30132483 Hash: 212BE1AEEF0FB9BA2DB1C77B361C7261 Accuracy: -m40
Conclusion: CDDA 99%
Signature: A7C3BA320FF474B166837818DE05D388280DE4BF

admin

Post 13-May-2022 12:30

[Quote]

Название: Day Out In Nowhere
Исполнитель: Graham Bonnet Band
Год: 2022
Жанр: Hard-Rock
Страна: United Kingdom
Продолжительность: 00:47:16
Формат/Кодек: FLAC
Тип рипа: Tracks
Битрейт аудио: Lossless
Разрядность: 24 Bit/44,1 kHz
Носитель: WEB

Трек-лист

01. Imposter (3:33)
02. Twelve Steps to Heaven (4:39)
03. Brave New World (3:42)
04. Uncle John (4:21)
05. Day out of Nowhere (4:40)
06. The Sky is Alive (5:35)
07. David's Mom (4:04)
08. When We're Asleep (3:53)
09. It's Just a Frickin' Song (4:38)
10. Jester (4:35)
11. Suzy (3:36)

DRM
foobar2000 1.6.9 / Dynamic Range Meter 1.1.1
--------------------------------------------------------------------------------
Analyzed: Graham Bonnet Band / Day out in Nowhere
--------------------------------------------------------------------------------
DR Peak RMS Duration Track
--------------------------------------------------------------------------------
DR7 -0.28 dB -8.50 dB 3:33 01-Imposter
DR7 -0.30 dB -8.89 dB 4:39 02-Twelve Steps to Heaven
DR8 -0.22 dB -8.81 dB 3:42 03-Brave New World
DR7 -0.31 dB -9.29 dB 4:21 04-Uncle John
DR7 -0.21 dB -8.66 dB 4:40 05-Day out of Nowhere
DR7 -0.23 dB -8.66 dB 5:35 06-The Sky is Alive
DR7 -0.26 dB -8.32 dB 4:04 07-David's Mom
DR8 -0.15 dB -8.96 dB 3:53 08-When We're Asleep
DR8 -0.26 dB -8.92 dB 4:38 09-It's Just a Frickin' Song
DR7 -0.30 dB -8.64 dB 4:35 10-Jester
DR8 -0.32 dB -12.42 dB 3:36 11-Suzy
--------------------------------------------------------------------------------
Number of tracks: 11
Official DR value: DR8
Samplerate: 44100 Hz
Channels: 2
Bits per sample: 24
Bitrate: 1478 kbps
Codec: FLAC
================================================================================

admin

Post 13-May-2022 12:22

[Quote]

Название: Best Of
Исполнитель: The Quireboys
Год: 2008
Жанр: Hard-Rock, Glam-Rock, Blues-Rock
Страна: United Kingdom
Продолжительность: 02:29:10
Формат/Кодек: FLAC
Тип рипа: Tracks
Битрейт аудио: Lossless

CD 1:

01. 7 O'Clock [03:38]
02. Pretty Girls [03:20]
03. How Do You Feel? [02:58]
04. Hey You (Live) [03:21]
05. Sex Party (Live) [02:38]
06. I Don't Love You Anymore [05:02]
07. Mayfair [03:00]
08. There She Goes Again (Live) [02:49]
09. Misled [03:36]
10. Doo Doo Doo Doo Doo (Heartbreaker) (Live) [03:38]
11. Tramps and Thieves [04:28]
12. Ain't Love Blind [04:19]
13. Best Jobs [04:02]
14. Brother Louie [03:25]
15. Can't Get Through [04:04]
16. Right on Track (Live at Donington 1990) [02:21]
17. Long Time Comin' (Live at Donnington 1990) [03:15]
18. King of New York (Live at the Town & Country Club, London) [05:54]
19. White Trash Blues (Live at the Town & Country Club, London) [03:56]
20. Whippin' Boy (Live at the Town & Country Club, London) [04:31]

Лог проверки качества
AUDIOCHECKER v2.0 beta (build 457) - by Dester - opdester@freemail.hu
~~~~~~~~~~~~~~~~~~~~~~~~~~~~~~~~~~
Started at: среда, 11. 05. 2022. - 14:35.56
20 files found
01 -===- D:Music#Quireboys - 2008 - Best Of The Quireboys (2CD) [Flac]Disc 1 / 01. 7 O'Clock.flac
Extracted successfully
Conclusion: this track is CDDA with probability 100%
Tempfile successfully deleted.
02 -===- D:Music#Quireboys - 2008 - Best Of The Quireboys (2CD) [Flac]Disc 1 / 02. Pretty Girls.flac
Extracted successfully
Conclusion: this track is CDDA with probability 100%
Tempfile successfully deleted.
03 -===- D:Music#Quireboys - 2008 - Best Of The Quireboys (2CD) [Flac]Disc 1 / 3. How Do You Feel.flac
Extracted successfully
Conclusion: this track is CDDA with probability 100%
Tempfile successfully deleted.
04 -===- D:Music#Quireboys - 2008 - Best Of The Quireboys (2CD) [Flac]Disc 1 / 4. Hey You (Live).flac
Extracted successfully
Conclusion: this track is CDDA with probability 100%
Tempfile successfully deleted.
05 -===- D:Music#Quireboys - 2008 - Best Of The Quireboys (2CD) [Flac]Disc 1 / 5. Sex Party (Live).flac
Extracted successfully
Conclusion: this track is CDDA with probability 100%
Tempfile successfully deleted.
06 -===- D:Music#Quireboys - 2008 - Best Of The Quireboys (2CD) [Flac]Disc 1 / 6. I Don't Love You Anymore.flac
Extracted successfully
Conclusion: this track is CDDA with probability 100%
Tempfile successfully deleted.
07 -===- D:Music#Quireboys - 2008 - Best Of The Quireboys (2CD) [Flac]Disc 1 / 7. Mayfair.flac
Extracted successfully
Conclusion: this track is CDDA with probability 100%
Tempfile successfully deleted.
08 -===- D:Music#Quireboys - 2008 - Best Of The Quireboys (2CD) [Flac]Disc 1 / 8. There She Goes Again (Live).flac
Extracted successfully
Conclusion: this track is CDDA with probability 100%
Tempfile successfully deleted.
09 -===- D:Music#Quireboys - 2008 - Best Of The Quireboys (2CD) [Flac]Disc 1 / 9. Misled.flac
Extracted successfully
Conclusion: this track is CDDA with probability 100%
Tempfile successfully deleted.
10 -===- D:Music#Quireboys - 2008 - Best Of The Quireboys (2CD) [Flac]Disc 1 / 10. Doo Doo Doo Doo Doo (Heartbreaker) (Live).flac
Extracted successfully
Conclusion: this track is CDDA with probability 100%
Tempfile successfully deleted.
11 -===- D:Music#Quireboys - 2008 - Best Of The Quireboys (2CD) [Flac]Disc 1 / 11. Tramps and Thieves.flac
Extracted successfully
Conclusion: this track is CDDA with probability 99%
Tempfile successfully deleted.
12 -===- D:Music#Quireboys - 2008 - Best Of The Quireboys (2CD) [Flac]Disc 1 / 12. Ain't Love Blind.flac
Extracted successfully
Conclusion: this track is CDDA with probability 100%
Tempfile successfully deleted.
13 -===- D:Music#Quireboys - 2008 - Best Of The Quireboys (2CD) [Flac]Disc 1 / 13. Best Jobs.flac
Extracted successfully
Conclusion: this track is CDDA with probability 100%
Tempfile successfully deleted.
14 -===- D:Music#Quireboys - 2008 - Best Of The Quireboys (2CD) [Flac]Disc 1 / 14. Brother Louie.flac
Extracted successfully
Conclusion: this track is CDDA with probability 100%
Tempfile successfully deleted.
15 -===- D:Music#Quireboys - 2008 - Best Of The Quireboys (2CD) [Flac]Disc 1 / 15. Can't Get Through.flac
Extracted successfully
Conclusion: this track is CDDA with probability 100%
Tempfile successfully deleted.
16 -===- D:Music#Quireboys - 2008 - Best Of The Quireboys (2CD) [Flac]Disc 1 / 16. Right on Track (Live at Donington 1990).flac
Extracted successfully
Conclusion: this track is MPEG with probability 89%
Tempfile successfully deleted.
17 -===- D:Music#Quireboys - 2008 - Best Of The Quireboys (2CD) [Flac]Disc 1 / 17. Long Time Comin' (Live at Donnington 1990).flac
Extracted successfully
Conclusion: this track is CDDA with probability 43%
Tempfile successfully deleted.
18 -===- D:Music#Quireboys - 2008 - Best Of The Quireboys (2CD) [Flac]Disc 1 / 18. King of New York (Live at the Town & Country Club, London).flac
Extracted successfully
Conclusion: this track is CDDA with probability 100%
Tempfile successfully deleted.
19 -===- D:Music#Quireboys - 2008 - Best Of The Quireboys (2CD) [Flac]Disc 1 / 19. White Trash Blues (Live at the Town & Country Club, London).flac
Extracted successfully
Conclusion: this track is CDDA with probability 100%
Tempfile successfully deleted.
20 -===- D:Music#Quireboys - 2008 - Best Of The Quireboys (2CD) [Flac]Disc 1 / 20. Whippin' Boy (Live at the Town & Country Club, London).flac
Extracted successfully
Conclusion: this track is CDDA with probability 100%
Tempfile successfully deleted.
Finished at: среда, 11. 05. 2022. - 14:39.38 (operation time: 0:03.41)

CD 2:

01. Hey You (Demo) [02:36]
02. Man on the Loose (Demo) [02:36]
03. That's Right (Demo) [02:37]
04. Roses & Rings (Demo) [02:59]
05. Take Me Home (Demo) [04:22]
06. I Don't Love You Anymore (Demo) [04:36]
07. Sex Party (Live in Japan) [03:00]
08. Sweet Mary Ann (Live in Japan) [03:53]
09. Where Ya Been To (Demo) [04:10]
10. Hates to Please (Demo) [04:25]
11. Ton Ton M'Acoute (Demo) [03:33]
12. You'll Never Make It Alone (Demo) [04:56]
13. You Can't Hide from Your Heart (Demo) [03:04]
14. The Last Time (Demo) [03:41]
15. Go Home (Demo) [03:08]
16. Best Job (Demo) [04:06]
17. Pleasure and Pain (Demo) [04:39]
18. Save Me (Demo) [04:55]
19. 49er (Demo) [03:35]
20. Mona Lisa Smiled [04:27]

Лог проверки качества
AUDIOCHECKER v2.0 beta (build 457) - by Dester - opdester@freemail.hu
~~~~~~~~~~~~~~~~~~~~~~~~~~~~~~~~~~
Started at: среда, 11. 05. 2022. - 14:41.01
20 files found
01 -===- D:Music#Quireboys - 2008 - Best Of The Quireboys (2CD) [Flac]Disc 2 / 1. Hey You (Demo).flac
Extracted successfully
Conclusion: this track is CDDA with probability 99%
Tempfile successfully deleted.
02 -===- D:Music#Quireboys - 2008 - Best Of The Quireboys (2CD) [Flac]Disc 2 / 2. Man on the Loose (Demo).flac
Extracted successfully
Conclusion: this track is CDDA with probability 99%
Tempfile successfully deleted.
03 -===- D:Music#Quireboys - 2008 - Best Of The Quireboys (2CD) [Flac]Disc 2 / 3. That's Right (Demo).flac
Extracted successfully
Conclusion: this track is CDDA with probability 100%
Tempfile successfully deleted.
04 -===- D:Music#Quireboys - 2008 - Best Of The Quireboys (2CD) [Flac]Disc 2 / 4. Roses & Rings (Demo).flac
Extracted successfully
Conclusion: this track is CDDA with probability 100%
Tempfile successfully deleted.
05 -===- D:Music#Quireboys - 2008 - Best Of The Quireboys (2CD) [Flac]Disc 2 / 5. Take Me Home (Demo).flac
Extracted successfully
Conclusion: this track is CDDA with probability 100%
Tempfile successfully deleted.
06 -===- D:Music#Quireboys - 2008 - Best Of The Quireboys (2CD) [Flac]Disc 2 / 6. I Don't Love You Anymore (Demo).flac
Extracted successfully
Conclusion: this track is CDDA with probability 100%
Tempfile successfully deleted.
07 -===- D:Music#Quireboys - 2008 - Best Of The Quireboys (2CD) [Flac]Disc 2 / 7. Sex Party (Live in Japan).flac
Extracted successfully
Conclusion: this track is CDDA with probability 100%
Tempfile successfully deleted.
08 -===- D:Music#Quireboys - 2008 - Best Of The Quireboys (2CD) [Flac]Disc 2 / 8. Sweet Mary Ann (Live in Japan).flac
Extracted successfully
Conclusion: this track is CDDA with probability 100%
Tempfile successfully deleted.
09 -===- D:Music#Quireboys - 2008 - Best Of The Quireboys (2CD) [Flac]Disc 2 / 9. Where Ya Been To (Demo).flac
Extracted successfully
Conclusion: this track is CDDA with probability 100%
Tempfile successfully deleted.
10 -===- D:Music#Quireboys - 2008 - Best Of The Quireboys (2CD) [Flac]Disc 2 / 10. Hates to Please (Demo).flac
Extracted successfully
Conclusion: this track is CDDA with probability 100%
Tempfile successfully deleted.
11 -===- D:Music#Quireboys - 2008 - Best Of The Quireboys (2CD) [Flac]Disc 2 / 11. Ton Ton M'Acoute (Demo).flac
Extracted successfully
Conclusion: this track is CDDA with probability 100%
Tempfile successfully deleted.
12 -===- D:Music#Quireboys - 2008 - Best Of The Quireboys (2CD) [Flac]Disc 2 / 12. You'll Never Make It Alone (Demo).flac
Extracted successfully
Conclusion: this track is CDDA with probability 100%
Tempfile successfully deleted.
13 -===- D:Music#Quireboys - 2008 - Best Of The Quireboys (2CD) [Flac]Disc 2 / 13. You Can't Hide from Your Heart (Demo).flac
Extracted successfully
Conclusion: this track is CDDA with probability 100%
Tempfile successfully deleted.
14 -===- D:Music#Quireboys - 2008 - Best Of The Quireboys (2CD) [Flac]Disc 2 / 14. The Last Time (Demo).flac
Extracted successfully
Conclusion: this track is CDDA with probability 100%
Tempfile successfully deleted.
15 -===- D:Music#Quireboys - 2008 - Best Of The Quireboys (2CD) [Flac]Disc 2 / 15. Go Home (Demo).flac
Extracted successfully
Conclusion: this track is CDDA with probability 100%
Tempfile successfully deleted.
16 -===- D:Music#Quireboys - 2008 - Best Of The Quireboys (2CD) [Flac]Disc 2 / 16. Best Job (Demo).flac
Extracted successfully
Conclusion: this track is CDDA with probability 100%
Tempfile successfully deleted.
17 -===- D:Music#Quireboys - 2008 - Best Of The Quireboys (2CD) [Flac]Disc 2 / 17. Pleasure and Pain (Demo).flac
Extracted successfully
Conclusion: this track is CDDA with probability 100%
Tempfile successfully deleted.
18 -===- D:Music#Quireboys - 2008 - Best Of The Quireboys (2CD) [Flac]Disc 2 / 18. Save Me (Demo).flac
Extracted successfully
Conclusion: this track is CDDA with probability 100%
Tempfile successfully deleted.
19 -===- D:Music#Quireboys - 2008 - Best Of The Quireboys (2CD) [Flac]Disc 2 / 19. 49er (Demo).flac
Extracted successfully
Conclusion: this track is CDDA with probability 100%
Tempfile successfully deleted.
20 -===- D:Music#Quireboys - 2008 - Best Of The Quireboys (2CD) [Flac]Disc 2 / 20. Mona Lisa Smiled.flac
Extracted successfully
Conclusion: this track is MPEG with probability 95%
Tempfile successfully deleted.
Finished at: среда, 11. 05. 2022. - 14:45.19 (operation time: 0:04.18)

admin

Post 08-May-2022 01:35

[Quote]

Название: Complicated
Исполнитель: Jeff Scott Soto
Год: 2022
Жанр: Hard-Rock
Страна: USA
Продолжительность: 00:45:20
Формат/Кодек: FLAC
Тип рипа: Tracks
Битрейт аудио: Lossless
Разрядность: 24 Bit/44.1 kHz
Носитель: WEB

Трек-лист

01. Last to Know (4:25)
02. Disbelieving (3:38)
03. Home Again (3:33)
04. Love is the Revolution (4:07)
05. Until I See You Again (4:41)
06. Complicated (4:48)
07. Don't Look Back (4:33)
08. New Horizon (3:44)
09. Back to the Begining (4:30)
10. Thank You (4:04)
11. Obsession (3:17)

DRM
foobar2000 1.6.9 / Dynamic Range Meter 1.1.1
--------------------------------------------------------------------------------
Analyzed: Jeff Scott Soto / Complicated
--------------------------------------------------------------------------------
DR Peak RMS Duration Track
--------------------------------------------------------------------------------
DR7 -0.31 dB -8.45 dB 4:25 01-Last to Know
DR7 -0.31 dB -8.59 dB 3:38 02-Disbelieving
DR7 -0.31 dB -8.42 dB 3:33 03-Home Again
DR7 -0.31 dB -8.36 dB 4:07 04-Love is the Revolution
DR7 -0.31 dB -9.46 dB 4:41 05-Until I See You Again
DR7 -0.31 dB -8.69 dB 4:48 06-Complicated
DR7 -0.31 dB -7.75 dB 4:33 07-Don't Look Back
DR7 -0.31 dB -8.13 dB 3:44 08-New Horizon
DR7 -0.31 dB -8.39 dB 4:30 09-Back to the Begining
DR7 -0.31 dB -8.53 dB 4:04 10-Thank You
DR7 -0.31 dB -7.98 dB 3:17 11-Obsession
--------------------------------------------------------------------------------
Number of tracks: 11
Official DR value: DR7
Samplerate: 44100 Hz
Channels: 2
Bits per sample: 24
Bitrate: 1764 kbps
Codec: FLAC
================================================================================

admin

Post 07-May-2022 01:40

[Quote]

Название: I Will Come Runnin'
Исполнитель: Peter Goalby
Год: 2022
Жанр: Classic-Rock, Hard-Rock, AOR
Страна: UK
Продолжительность: 00:39:20
Формат/Кодек: MP3
Битрейт аудио: 320 kbps

Трек-лист

01.I Will Come Runnin'
02.Rock 'N' Roll Crazy
03.A Brand New Love
04.Dancing on Water
05.Somebody's Fool
06.It Was There All The Time
07.Waitin' For An Angel To Call
08.There's Always A Place In My Heart
09.Perfect Strangers
10.A Little Piece Of Heaven

Состав

Peter Goalby (ex-Fable, Trapeze, Uriah Heep) - Lead And Backing Vocals
Eddy Morton - Guitars
Robin George - Guitars, Keyboards
Paul Hodson - Keyboards, Bass, Drums

admin

Post 07-May-2022 01:25

[Quote]

Название: Greatest Hits
Исполнитель: Whitesnake
Год: 2022
Жанр: Hard-Rock
Страна: United Kingdom
Продолжительность: 01:16:28
Формат/Кодек: FLAC
Тип рипа: Tracks
Битрейт аудио: Lossless
Разрядность: 24 Bit/96 kHz
Носитель: WEB

Трек-лист

01. Still Of The Night (6:50)
02. Here I Go Again (4:32)
03. Is This Love (5:03)
04. Give Me All Your Love (3:13)
05. Love Ain’t No Stranger (4:19)
06. Slide It In (3:19)
07. Slow An’ Easy (6:10)
08. Guilty Of Love (3:23)
09. Fool For Your Loving (4:11)
10. Judgement Day (5:23)
11. The Deeper The Love (4:09)
12. Now You’re Gone (4:10)
13. Sweet Lady Luck (4:36)
14. You’re Gonna Break My Heart Again (4:16)
15. Crying In The Rain (5:48)
16. Forevermore (7:06)

DRM
foobar2000 1.6.9 / Dynamic Range Meter 1.1.1
--------------------------------------------------------------------------------
Analyzed: Whitesnake / Greatest Hits (2022 Remix)
--------------------------------------------------------------------------------
DR Peak RMS Duration Track
--------------------------------------------------------------------------------
DR6 -0.05 dB -7.30 dB 6:50 01-Still Of The Night (2022 Remix)
DR7 -0.05 dB -8.57 dB 4:32 02-Here I Go Again (2022 Remix)
DR7 -0.04 dB -8.29 dB 5:03 03-Is This Love (2022 Remix)
DR6 -0.05 dB -6.74 dB 3:13 04-Give Me All Your Love (2022 Remix)
DR6 -0.05 dB -7.42 dB 4:19 05-Love Ain’t No Stranger (2022 Remix)
DR6 -0.05 dB -6.87 dB 3:19 06-Slide It In (2022 Remix)
DR6 -0.05 dB -8.33 dB 6:10 07-Slow An’ Easy (2022 Remix)
DR6 -0.05 dB -6.87 dB 3:23 08-Guilty Of Love (2022 Remix)
DR6 -0.05 dB -6.65 dB 4:11 09-Fool For Your Loving (2022 Remix)
DR6 -0.05 dB -7.60 dB 5:23 10-Judgement Day (2022 Remix)
DR6 -0.05 dB -7.24 dB 4:09 11-The Deeper The Love (2022 Remix)
DR6 -0.05 dB -7.46 dB 4:10 12-Now You’re Gone (2022 Remix)
DR6 -0.05 dB -6.62 dB 4:36 13-Sweet Lady Luck (2022 Remix)
DR5 -0.05 dB -6.57 dB 4:16 14-You’re Gonna Break My Heart Again (2022 Remix)
DR6 -0.05 dB -6.68 dB 5:48 15-Crying In The Rain (2022 Remix)
DR6 -0.05 dB -9.00 dB 7:06 16-Forevermore (2022 Remix)
--------------------------------------------------------------------------------
Number of tracks: 16
Official DR value: DR6
Samplerate: 96000 Hz
Channels: 2
Bits per sample: 24
Bitrate: 3150 kbps
Codec: FLAC
================================================================================

admin

Post 06-May-2022 00:07

[Quote]

Название: Catching Up
Исполнитель: Sideburn Flare
Год: 2022
Жанр: 70s, Hard-Rock
Страна: Sweden
Лейбл: POP Productions
Продолжительность: 00:49:21
Формат/Кодек: FLAC
Битрейт аудио: Lossless

Трек-лист

01. Bouncer
02. Brainwash
03. Trouble
04. Pimp
05. Scar
06. Lawbreaker
07. Night
08. Brownie
09. Hunter
10. Sniper

Log

AUDIOCHECKER v2.0 beta (build 457) - by Dester - opdester@freemail.hu
~~~~~~~~~~~~~~~~~~~~~~~~~~~~~~~~~~
Started at: среда, 04. 05. 2022. - 13:04.23
10 files found
01 -===- D:Music#Sideburn Flare - 2022 - Catching Up [Flac]1 - Bouncer.flac
Extracted successfully
Conclusion: this track is CDDA with probability 100%
Tempfile successfully deleted.
02 -===- D:Music#Sideburn Flare - 2022 - Catching Up [Flac]2 - Brainwash.flac
Extracted successfully
Conclusion: this track is CDDA with probability 100%
Tempfile successfully deleted.
03 -===- D:Music#Sideburn Flare - 2022 - Catching Up [Flac]3 - Trouble.flac
Extracted successfully
Conclusion: this track is CDDA with probability 100%
Tempfile successfully deleted.
04 -===- D:Music#Sideburn Flare - 2022 - Catching Up [Flac]4 - Pimp.flac
Extracted successfully
Conclusion: this track is CDDA with probability 100%
Tempfile successfully deleted.
05 -===- D:Music#Sideburn Flare - 2022 - Catching Up [Flac]5 - Scar.flac
Extracted successfully
Conclusion: this track is CDDA with probability 100%
Tempfile successfully deleted.
06 -===- D:Music#Sideburn Flare - 2022 - Catching Up [Flac]6 - Lawbreaker.flac
Extracted successfully
Conclusion: this track is CDDA with probability 100%
Tempfile successfully deleted.
07 -===- D:Music#Sideburn Flare - 2022 - Catching Up [Flac]7 - Night.flac
Extracted successfully
Conclusion: this track is CDDA with probability 99%
Tempfile successfully deleted.
08 -===- D:Music#Sideburn Flare - 2022 - Catching Up [Flac]8 - Brownie.flac
Extracted successfully
Conclusion: this track is CDDA with probability 100%
Tempfile successfully deleted.
09 -===- D:Music#Sideburn Flare - 2022 - Catching Up [Flac]9 - Hunter.flac
Extracted successfully
Conclusion: this track is CDDA with probability 100%
Tempfile successfully deleted.
10 -===- D:Music#Sideburn Flare - 2022 - Catching Up [Flac]10 - Sniper.flac
Extracted successfully
Conclusion: this track is CDDA with probability 100%
Tempfile successfully deleted.
Finished at: среда, 04. 05. 2022. - 13:07.29 (operation time: 0:03.06)

admin

Post 04-May-2022 01:41

[Quote]

Название: The Vinyl Collection
Исполнитель: Scorpions
Год: 1976-1984
Страна-производитель: Japan
Аудио кодек: WavPack
Тип рипа: Image+.cue
Разрядность: 32 Bit/192 kHz
Жанр: Hard-Rock
Продолжительность: 02:34:13
Код класса состояния винила: Mint
Устройство воспроизведения: YAMAHA GT-2000 + Oyaide MJ-12 + Clamp 580 g
Головка звукоснимателя: Dynavector XX2MKII + Oyaide HSR-AG
Предварительный усилитель: YAMAHA C-4
АЦП: M-Audio ProFire 610
Программа-оцифровщик: Sound Forge Pro 15 Suite
Обработка: Не производилась

Трек-лист

1976 - Virgin Killer (RCA - RVP-6155)
A1. Pictured Life
A2. Catch Your Train
A3. In Your Park
A4. Backstage Queen
A5. Virgin Killer
B1. Hell Cat (Vocals - Ulrich Roth)
B2. Crying Days
B3. Polar Nights (Vocals - Ulrich Roth)
B4. Yellow Raven
1980 - Animal Magnetism (RCA - RVP-6458)
A1. Make It Real
A2. Don't Make No Promises (Your Body Can't Keep)
A3. Hold Me Tight
A4. Twentieth Century Man
A5. Lady Starlight
B1. Falling In Love
B2. Only A Man
B3. The Zoo
B4. Animal Magnetism
1982 - Blackout (RCA - RPL-8107)
A1. Blackout
A2. Can't Live Without You
A3. No One Like You
A4. You Give Me All I Need
A5. Now!
B1. Dynamite
B2. Arizona
B3. China White
B4. When The Smoke Is Going Down
1984 - Love At First Sting (RCA - RPL-8223)
A1. Bad Boys Running Wild
A2. Rock You Like A Hurricane
A3. I'm Leaving You
A4. Coming Home
A5. The Same Thrill
B1. Big City Nights
B2. As Soon As The Good Times Roll
B3. Crossfire
B4. Still Loving You

admin

Post 30-Apr-2022 00:51

[Quote]

Название: Automaton
Исполнитель: Crashdiet
Год: 2022
Жанр: Hard, Sleaze-Rock
Страна: Sweden
Лейбл: Crusader Records
Продолжительность: 00:44:23
Формат/Кодек: MP3
Битрейт аудио: 320 kbps

Трек-лист

01 - Automaton [00:00:39]
02 - Together Whatever [00:03:50]
03 - Shine On [00:03:39]
04 - No Man's Land [00:03:54]
05 - Darker Minds [00:03:37]
06 - Dead Crusade [00:04:39]
07 - Powerline (feat. Michael Starr) [00:04:16]
08 - Resurrection of the Damned [00:03:27]
09 - We Die Hard [00:04:22]
10 - Shell Shock [00:03:52]
11 - Unbroken [00:03:38]
12 - I Can't Move On (Without You) [00:04:25]

admin

Post 30-Apr-2022 00:49

[Quote]

Название: Shoot Me Your Ace
Исполнитель: Reef
Год: 2022
Жанр: Southern, Hard-Rock
Страна: UK
Лейбл: Raging Sea Records
Продолжительность: 00:42:51
Формат/Кодек: MP3
Битрейт аудио: 320 kbps

Трек-лист

01 - Shoot Me Your Ace [00:03:21]
02 - When Can I See You Again [00:04:17]
03 - Refugee [00:03:27]
04 - Best of Me [00:04:12]
05 - Wolfman [00:03:34]
06 - Hold Back the Morning [00:04:13]
07 - Right On [00:04:50]
08 - Everything Far Away [00:05:12]
09 - I See Your Face [00:03:31]
10 - Strange Love [00:06:09]

admin

Post 30-Apr-2022 00:46

[Quote]

Название: Dopamine
Исполнитель: Thunder
Год: 2022
Жанр: Hard-Rock
Страна: UK
Лейбл: BMG Rights Management (UK) Ltd
Продолжительность: 01:10:37
Формат/Кодек: MP3
Битрейт аудио: 320 kbps

Трек-лист

01 - The Western Sky [00:03:51]
02 - One Day We'll Be Free Again [00:05:04]
03 - Even If It Takes a Lifetime [00:04:38]
04 - Black [00:05:10]
05 - Unraveling [00:03:51]
06 - The Dead City [00:04:07]
07 - Last Orders [00:04:26]
08 - All the Way [00:03:51]
09 - Dancing in the Sunshine [00:03:34]
10 - Big Pink Supermoon [00:06:16]
11 - Across the Nation [00:04:13]
12 - Just a Grifter [00:03:25]
13 - I Don't Believe the World [00:04:26]
14 - Disconnected [00:04:25]
15 - Is Anybody Out There_ [00:04:20]
16 - No Smoke Without Fire [00:04:53]

admin

Post 25-Apr-2022 00:53

[Quote]

Название: Surviving The Law
Исполнитель: Nazareth
Год: 2022
Страна-производитель: Europe
Аудио кодек: FLAC
Тип рипа: Tracks
Жанр: Hard-Rock
Разрядность: 24 Bit/192 kHz
Продолжительность: 00:48:09
Код класса состояния винила: Mint
Устройство воспроизведения: SONY PS-X800
Головка звукоснимателя: SHURE V15VxMR
Предварительный усилитель: Pro-Ject Phono Box RS
АЦП: TASCAM DA-3000
Программа-оцифровщик: Adobe Audition
Обработка: Не производилась

2022 - Surviving The Law (Frontiers Music SRL ‎- FR LP 1218Y)

A1. Strange Days
A2. You Gotta Pass It Around
A3. Runaway
A4. Better Leave It Out
A5. Mind Bomb
A6. Sweet Kiss
A7. Falling In Love
B1. Waiting For The World Of End
B2. Let The Whisky Flow
B3. Sinner
B4. Ciggies & Booze
B5. Psycho Skies
B6. Love Breaks
B7. You Made Me

Спектр, АЧХ, Уровень записи

admin

Post 25-Apr-2022 00:49

[Quote]

Название: A Descent Into Madness
Исполнитель: Barons Court
Год: 2022
Жанр: Hard-Rock
Страна: Sweden
Лейбл: Barons Records
Продолжительность: 00:55:08
Формат/Кодек: MP3
Битрейт аудио: 320 kbps

Трек-лист

01 - Skymning [00:01:35]
02 - Deus Deceptor [00:04:13]
03 - Devil [00:03:56]
04 - She Is There [00:07:36]
05 - Demon Eyes [00:04:09]
06 - Last Monday [00:04:01]
07 - Waiting At The Crossroads [00:05:23]
08 - A Second Life [00:04:31]
09 - Coming For Your Daughter [00:03:12]
10 - Drive Away [00:03:42]
11 - A Descent Into Madness [00:05:41]
12 - Heaven Denied [00:07:04]

admin

Post 25-Apr-2022 00:48

[Quote]

Название: Closer To The Flame
Исполнитель: Riot Act
Год: 2022
Жанр: Hard, Classic-Rock
Страна: USA
Лейбл: Global Rock Records
Продолжительность: 01:27:09
Формат/Кодек: MP3
Битрейт аудио: 320 kbps

Трек-лист

CD1
01. Closer to the Flame [03:22]
02. Wanted [04:06]
03. Straight for your Heart [03:30]
04. Smoking Gun [03:54]
05. Almost There [04:21]
06. Stand Or Fall [03:18]
07. Love Come Round [02:53]
08. Angelina [03:05]
09. Right Between the Eyes [02:58]
10. Rock Love and Roll [04:25]
CD2
01. Rock City [03:43]
02. 49er [05:40]
03. Swords and Tequila [03:46]
04. Overdrive [04:47]
05. No Lies [04:13]
06. Tokyo Rose [04:05]
07. Warrior [06:02]
08. Don't Hold Back [03:15]
09. White Rock [02:57]
10. Outlaw [04:07]
11. Road Racin [04:59]
12. Alter of the King [03:33]

admin

Post 23-Apr-2022 02:14

[Quote]

Название: Platinum Rare Vol. 2 [24-Bit, Hi-Res, Remastered]
Исполнитель: The Sweet
Год: 22.04.2022
Жанр: Classic Rock
Страна: UK
Label: Prudential Music Group
Продолжительность: 01:27:33
Формат/Кодек: FLAC
Битрейт аудио: 24-Bit / 48.0 kHz
Источник записи: [TR24][OF]

Трек-лист

01. Action (Rough Mix) (3:27)
02. Idenity Crisis (Outtake) (3:10)
03. Oh Yeah (Band Demo) (2:19)
04. Lies in Your Eyes (Rough Mix) (3:36)
05. Own Up (Instrumental) (3:19)
06. Strange Girl (Band Demo) (4:30)
07. Soild Gold Brass (Outtake) (5:34)
08. Too Much Talking (Instrumental) (4:11)
09. Cover Girl (Rough Mix) (3:33)
10. Need a Lotta Lovin (Rough Mix) (2:58)
11. Lady of the Lake (Rough Mix) (4:07)
12. Are You Coming to See Me (Band Demo) (1:36)
13. Fever of Love (Rough Mix) (4:26)
14. Breakdown (Outtake) (3:11)
15. At Midnight (Instrumental) (3:51)
16. Turn It Down (Rough Mix) (3:32)
17. Tall Girls (Rough Mix) (4:28)
18. Hey Mama (Rough Mix) (3:41)
19. Fox on the Run (Andy Scott Demo) (1:42)
20. Love is the Cure (Andy Scott Demo) (3:36)
21. Where'd You Go (Andy Scott Demo) (4:10)
22. Make up Your Mind (Andy Scott Demo) (3:48)
23. Eye Games (Andy Scott Demo) (1:43)
24. Californa Nights (Andy Scott Demo) (1:03)
25. Lettres D'amour (Andy Scott Demo) (0:58)
26. Silverbird (Andy Scott Demo) (2:03)
27. Stairway to the Stars (Andy Scott Demo) (3:01)

DRM:

foobar2000 1.6.9 / Dynamic Range Meter 1.1.1
--------------------------------------------------------------------------------
Analyzed: The Sweet / Platinum Rare Vol. 2 (Remastered)
--------------------------------------------------------------------------------
DR Peak RMS Duration Track
--------------------------------------------------------------------------------
DR7 -0.10 dB -8.77 dB 3:27 01-Action (Rough Mix)
DR8 -0.10 dB -8.38 dB 3:10 02-Idenity Crisis (Outtake)
DR6 -0.10 dB -7.03 dB 2:19 03-Oh Yeah (Band Demo)
DR6 -0.10 dB -8.28 dB 3:36 04-Lies in Your Eyes (Rough Mix)
DR7 -0.10 dB -8.02 dB 3:19 05-Own Up (Instrumental)
DR7 -0.10 dB -7.92 dB 4:30 06-Strange Girl (Band Demo)
DR5 -0.10 dB -6.64 dB 5:34 07-Soild Gold Brass (Outtake)
DR5 -0.10 dB -6.13 dB 4:11 08-Too Much Talking (Instrumental)
DR6 -0.10 dB -7.13 dB 3:33 09-Cover Girl (Rough Mix)
DR6 -0.10 dB -6.74 dB 2:58 10-Need a Lotta Lovin (Rough Mix)
DR8 -0.10 dB -11.07 dB 4:07 11-Lady of the Lake (Rough Mix)
DR8 -0.10 dB -9.01 dB 1:36 12-Are You Coming to See Me (Band Demo)
DR8 -0.10 dB -9.33 dB 4:26 13-Fever of Love (Rough Mix)
DR6 -0.10 dB -6.91 dB 3:11 14-Breakdown (Outtake)
DR6 -0.10 dB -7.34 dB 3:51 15-At Midnight (Instrumental)
DR5 -0.10 dB -5.71 dB 3:32 16-Turn It Down (Rough Mix)
DR6 -0.10 dB -7.72 dB 4:28 17-Tall Girls (Rough Mix)
DR6 -0.10 dB -7.39 dB 3:41 18-Hey Mama (Rough Mix)
DR8 -0.10 dB -9.99 dB 1:42 19-Fox on the Run (Andy Scott Demo)
DR7 -0.10 dB -7.96 dB 3:36 20-Love is the Cure (Andy Scott Demo)
DR6 -0.10 dB -8.17 dB 4:10 21-Where'd You Go (Andy Scott Demo)
DR8 -0.10 dB -9.70 dB 3:48 22-Make up Your Mind (Andy Scott Demo)
DR11 -0.10 dB -11.90 dB 1:43 23-Eye Games (Andy Scott Demo)
DR8 -0.10 dB -9.86 dB 1:03 24-Californa Nights (Andy Scott Demo)
DR7 -0.10 dB -8.17 dB 0:58 25-Lettres D'amour (Andy Scott Demo)
DR7 -0.10 dB -9.46 dB 2:03 26-Silverbird (Andy Scott Demo)
DR7 -0.10 dB -8.36 dB 3:01 27-Stairway to the Stars (Andy Scott Demo)
--------------------------------------------------------------------------------
Number of tracks: 27
Official DR value: DR7
Samplerate: 48000 Hz
Channels: 2
Bits per sample: 24
Bitrate: 1588 kbps
Codec: FLAC
================================================================================

Mi:

Format : FLAC
Format/Info : Free Lossless Audio Codec
File size : 44.4 MiB
Duration : 3 min 27 s
Overall bit rate mode : Variable
Overall bit rate : 1 798 kb/s
Album : Platinum Rare Vol. 2 (Remastered)
Album/Performer : The Sweet
Part : 1
Part/Total : 1
Track name : Action (Rough Mix)
Track name/Position : 1
Track name/Total : 27
Performer : The Sweet
Label : Prudential Music Group
Genre : Rock
Recorded date : 2022
ISRC : QMDA62106576
Copyright : 2022 Scott Free Under License to Prudential Music Group
Cover : Yes
Cover type : Cover (front)
Cover MIME : image/jpeg
UPC : 196292102789
Audio
Format : FLAC
Format/Info : Free Lossless Audio Codec
Duration : 3 min 27 s
Bit rate mode : Variable
Bit rate : 1 769 kb/s
Channel(s) : 2 channels
Channel layout : L R
Sampling rate : 48.0 kHz
Bit depth : 24 bits
Compression mode : Lossless
Stream size : 43.7 MiB (98%)
Writing library : libFLAC 1.3.0 (UTC 2013-05-26)
General
Complete name : C:UserszatolokinaDownloadsmusicThe Sweet - 2022 - Platinum Rare Vol. 2 (Remastered) (24bit-48kHz)�2 Idenity Crisis (Outtake).flac
Format : FLAC
Format/Info : Free Lossless Audio Codec
File size : 36.0 MiB
Duration : 3 min 9 s
Overall bit rate mode : Variable
Overall bit rate : 1 591 kb/s
Album : Platinum Rare Vol. 2 (Remastered)
Album/Performer : The Sweet
Part : 1
Part/Total : 1
Track name : Idenity Crisis (Outtake)
Track name/Position : 2
Track name/Total : 27
Performer : The Sweet
Label : Prudential Music Group
Genre : Rock
Recorded date : 2022
ISRC : QMDA62106577
Copyright : 2022 Scott Free Under License to Prudential Music Group
Cover : Yes
Cover type : Cover (front)
Cover MIME : image/jpeg
UPC : 196292102789
Audio
Format : FLAC
Format/Info : Free Lossless Audio Codec
Duration : 3 min 9 s
Bit rate mode : Variable
Bit rate : 1 559 kb/s
Channel(s) : 2 channels
Channel layout : L R
Sampling rate : 48.0 kHz
Bit depth : 24 bits
Compression mode : Lossless
Stream size : 35.3 MiB (98%)
Writing library : libFLAC 1.3.0 (UTC 2013-05-26)
General
Complete name : C:UserszatolokinaDownloadsmusicThe Sweet - 2022 - Platinum Rare Vol. 2 (Remastered) (24bit-48kHz)�3 Oh Yeah (Band Demo).flac
Format : FLAC
Format/Info : Free Lossless Audio Codec
File size : 25.7 MiB
Duration : 2 min 18 s
Overall bit rate mode : Variable
Overall bit rate : 1 555 kb/s
Album : Platinum Rare Vol. 2 (Remastered)
Album/Performer : The Sweet
Part : 1
Part/Total : 1
Track name : Oh Yeah (Band Demo)
Track name/Position : 3
Track name/Total : 27
Performer : The Sweet
Label : Prudential Music Group
Genre : Rock
Recorded date : 2022
ISRC : QMDA62106578
Copyright : 2022 Scott Free Under License to Prudential Music Group
Cover : Yes
Cover type : Cover (front)
Cover MIME : image/jpeg
UPC : 196292102789
Audio
Format : FLAC
Format/Info : Free Lossless Audio Codec
Duration : 2 min 18 s
Bit rate mode : Variable
Bit rate : 1 511 kb/s
Channel(s) : 2 channels
Channel layout : L R
Sampling rate : 48.0 kHz
Bit depth : 24 bits
Compression mode : Lossless
Stream size : 25.0 MiB (97%)
Writing library : libFLAC 1.3.0 (UTC 2013-05-26)
General
Complete name : C:UserszatolokinaDownloadsmusicThe Sweet - 2022 - Platinum Rare Vol. 2 (Remastered) (24bit-48kHz)�4 Lies in Your Eyes (Rough Mix).flac
Format : FLAC
Format/Info : Free Lossless Audio Codec
File size : 43.5 MiB
Duration : 3 min 36 s
Overall bit rate mode : Variable
Overall bit rate : 1 687 kb/s
Album : Platinum Rare Vol. 2 (Remastered)
Album/Performer : The Sweet
Part : 1
Part/Total : 1
Track name : Lies in Your Eyes (Rough Mix)
Track name/Position : 4
Track name/Total : 27
Performer : The Sweet
Label : Prudential Music Group
Genre : Rock
Recorded date : 2022
ISRC : QMDA62106579
Copyright : 2022 Scott Free Under License to Prudential Music Group
Cover : Yes
Cover type : Cover (front)
Cover MIME : image/jpeg
UPC : 196292102789
Audio
Format : FLAC
Format/Info : Free Lossless Audio Codec
Duration : 3 min 36 s
Bit rate mode : Variable
Bit rate : 1 659 kb/s
Channel(s) : 2 channels
Channel layout : L R
Sampling rate : 48.0 kHz
Bit depth : 24 bits
Compression mode : Lossless
Stream size : 42.8 MiB (98%)
Writing library : libFLAC 1.3.0 (UTC 2013-05-26)
General
Complete name : C:UserszatolokinaDownloadsmusicThe Sweet - 2022 - Platinum Rare Vol. 2 (Remastered) (24bit-48kHz)�5 Own Up (Instrumental).flac
Format : FLAC
Format/Info : Free Lossless Audio Codec
File size : 43.3 MiB
Duration : 3 min 18 s
Overall bit rate mode : Variable
Overall bit rate : 1 829 kb/s
Album : Platinum Rare Vol. 2 (Remastered)
Album/Performer : The Sweet
Part : 1
Part/Total : 1
Track name : Own Up (Instrumental)
Track name/Position : 5
Track name/Total : 27
Performer : The Sweet
Label : Prudential Music Group
Genre : Rock
Recorded date : 2022
ISRC : QMDA62106580
Copyright : 2022 Scott Free Under License to Prudential Music Group
Cover : Yes
Cover type : Cover (front)
Cover MIME : image/jpeg
UPC : 196292102789
Audio
Format : FLAC
Format/Info : Free Lossless Audio Codec
Duration : 3 min 18 s
Bit rate mode : Variable
Bit rate : 1 799 kb/s
Channel(s) : 2 channels
Channel layout : L R
Sampling rate : 48.0 kHz
Bit depth : 24 bits
Compression mode : Lossless
Stream size : 42.6 MiB (98%)
Writing library : libFLAC 1.3.0 (UTC 2013-05-26)
General
Complete name : C:UserszatolokinaDownloadsmusicThe Sweet - 2022 - Platinum Rare Vol. 2 (Remastered) (24bit-48kHz)�6 Strange Girl (Band Demo).flac
Format : FLAC
Format/Info : Free Lossless Audio Codec
File size : 43.4 MiB
Duration : 4 min 30 s
Overall bit rate mode : Variable
Overall bit rate : 1 349 kb/s
Album : Platinum Rare Vol. 2 (Remastered)
Album/Performer : The Sweet
Part : 1
Part/Total : 1
Track name : Strange Girl (Band Demo)
Track name/Position : 6
Track name/Total : 27
Performer : The Sweet
Label : Prudential Music Group
Genre : Rock
Recorded date : 2022
ISRC : QMDA62106581
Copyright : 2022 Scott Free Under License to Prudential Music Group
Cover : Yes
Cover type : Cover (front)
Cover MIME : image/jpeg
UPC : 196292102789
Audio
Format : FLAC
Format/Info : Free Lossless Audio Codec
Duration : 4 min 30 s
Bit rate mode : Variable
Bit rate : 1 326 kb/s
Channel(s) : 2 channels
Channel layout : L R
Sampling rate : 48.0 kHz
Bit depth : 24 bits
Compression mode : Lossless
Stream size : 42.7 MiB (98%)
Writing library : libFLAC 1.3.0 (UTC 2013-05-26)
General
Complete name : C:UserszatolokinaDownloadsmusicThe Sweet - 2022 - Platinum Rare Vol. 2 (Remastered) (24bit-48kHz)�7 Soild Gold Brass (Outtake).flac
Format : FLAC
Format/Info : Free Lossless Audio Codec
File size : 65.1 MiB
Duration : 5 min 33 s
Overall bit rate mode : Variable
Overall bit rate : 1 637 kb/s
Album : Platinum Rare Vol. 2 (Remastered)
Album/Performer : The Sweet
Part : 1
Part/Total : 1
Track name : Soild Gold Brass (Outtake)
Track name/Position : 7
Track name/Total : 27
Performer : The Sweet
Label : Prudential Music Group
Genre : Rock
Recorded date : 2022
ISRC : QMDA62106582
Copyright : 2022 Scott Free Under License to Prudential Music Group
Cover : Yes
Cover type : Cover (front)
Cover MIME : image/jpeg
UPC : 196292102789
Audio
Format : FLAC
Format/Info : Free Lossless Audio Codec
Duration : 5 min 33 s
Bit rate mode : Variable
Bit rate : 1 619 kb/s
Channel(s) : 2 channels
Channel layout : L R
Sampling rate : 48.0 kHz
Bit depth : 24 bits
Compression mode : Lossless
Stream size : 64.4 MiB (99%)
Writing library : libFLAC 1.3.0 (UTC 2013-05-26)
General
Complete name : C:UserszatolokinaDownloadsmusicThe Sweet - 2022 - Platinum Rare Vol. 2 (Remastered) (24bit-48kHz)�8 Too Much Talking (Instrumental).flac
Format : FLAC
Format/Info : Free Lossless Audio Codec
File size : 53.7 MiB
Duration : 4 min 11 s
Overall bit rate mode : Variable
Overall bit rate : 1 791 kb/s
Album : Platinum Rare Vol. 2 (Remastered)
Album/Performer : The Sweet
Part : 1
Part/Total : 1
Track name : Too Much Talking (Instrumental)
Track name/Position : 8
Track name/Total : 27
Performer : The Sweet
Label : Prudential Music Group
Genre : Rock
Recorded date : 2022
ISRC : QMDA62106583
Copyright : 2022 Scott Free Under License to Prudential Music Group
Cover : Yes
Cover type : Cover (front)
Cover MIME : image/jpeg
UPC : 196292102789
Audio
Format : FLAC
Format/Info : Free Lossless Audio Codec
Duration : 4 min 11 s
Bit rate mode : Variable
Bit rate : 1 767 kb/s
Channel(s) : 2 channels
Channel layout : L R
Sampling rate : 48.0 kHz
Bit depth : 24 bits
Compression mode : Lossless
Stream size : 53.0 MiB (99%)
Writing library : libFLAC 1.3.0 (UTC 2013-05-26)
General
Complete name : C:UserszatolokinaDownloadsmusicThe Sweet - 2022 - Platinum Rare Vol. 2 (Remastered) (24bit-48kHz)�9 Cover Girl (Rough Mix).flac
Format : FLAC
Format/Info : Free Lossless Audio Codec
File size : 48.6 MiB
Duration : 3 min 33 s
Overall bit rate mode : Variable
Overall bit rate : 1 914 kb/s
Album : Platinum Rare Vol. 2 (Remastered)
Album/Performer : The Sweet
Part : 1
Part/Total : 1
Track name : Cover Girl (Rough Mix)
Track name/Position : 9
Track name/Total : 27
Performer : The Sweet
Label : Prudential Music Group
Genre : Rock
Recorded date : 2022
ISRC : QMDA62106584
Copyright : 2022 Scott Free Under License to Prudential Music Group
Cover : Yes
Cover type : Cover (front)
Cover MIME : image/jpeg
UPC : 196292102789
Audio
Format : FLAC
Format/Info : Free Lossless Audio Codec
Duration : 3 min 33 s
Bit rate mode : Variable
Bit rate : 1 885 kb/s
Channel(s) : 2 channels
Channel layout : L R
Sampling rate : 48.0 kHz
Bit depth : 24 bits
Compression mode : Lossless
Stream size : 47.9 MiB (99%)
Writing library : libFLAC 1.3.0 (UTC 2013-05-26)
General
Complete name : C:UserszatolokinaDownloadsmusicThe Sweet - 2022 - Platinum Rare Vol. 2 (Remastered) (24bit-48kHz)10 Need a Lotta Lovin (Rough Mix).flac
Format : FLAC
Format/Info : Free Lossless Audio Codec
File size : 37.7 MiB
Duration : 2 min 57 s
Overall bit rate mode : Variable
Overall bit rate : 1 783 kb/s
Album : Platinum Rare Vol. 2 (Remastered)
Album/Performer : The Sweet
Part : 1
Part/Total : 1
Track name : Need a Lotta Lovin (Rough Mix)
Track name/Position : 10
Track name/Total : 27
Performer : The Sweet
Label : Prudential Music Group
Genre : Rock
Recorded date : 2022
ISRC : QMDA62106585
Copyright : 2022 Scott Free Under License to Prudential Music Group
Cover : Yes
Cover type : Cover (front)
Cover MIME : image/jpeg
UPC : 196292102789
Audio
Format : FLAC
Format/Info : Free Lossless Audio Codec
Duration : 2 min 57 s
Bit rate mode : Variable
Bit rate : 1 749 kb/s
Channel(s) : 2 channels
Channel layout : L R
Sampling rate : 48.0 kHz
Bit depth : 24 bits
Compression mode : Lossless
Stream size : 37.0 MiB (98%)
Writing library : libFLAC 1.3.0 (UTC 2013-05-26)
General
Complete name : C:UserszatolokinaDownloadsmusicThe Sweet - 2022 - Platinum Rare Vol. 2 (Remastered) (24bit-48kHz)11 Lady of the Lake (Rough Mix).flac
Format : FLAC
Format/Info : Free Lossless Audio Codec
File size : 53.2 MiB
Duration : 4 min 7 s
Overall bit rate mode : Variable
Overall bit rate : 1 804 kb/s
Album : Platinum Rare Vol. 2 (Remastered)
Album/Performer : The Sweet
Part : 1
Part/Total : 1
Track name : Lady of the Lake (Rough Mix)
Track name/Position : 11
Track name/Total : 27
Performer : The Sweet
Label : Prudential Music Group
Genre : Rock
Recorded date : 2022
ISRC : QMDA62106586
Copyright : 2022 Scott Free Under License to Prudential Music Group
Cover : Yes
Cover type : Cover (front)
Cover MIME : image/jpeg
UPC : 196292102789
Audio
Format : FLAC
Format/Info : Free Lossless Audio Codec
Duration : 4 min 7 s
Bit rate mode : Variable
Bit rate : 1 779 kb/s
Channel(s) : 2 channels
Channel layout : L R
Sampling rate : 48.0 kHz
Bit depth : 24 bits
Compression mode : Lossless
Stream size : 52.5 MiB (99%)
Writing library : libFLAC 1.3.0 (UTC 2013-05-26)
General
Complete name : C:UserszatolokinaDownloadsmusicThe Sweet - 2022 - Platinum Rare Vol. 2 (Remastered) (24bit-48kHz)12 Are You Coming to See Me (Band Demo).flac
Format : FLAC
Format/Info : Free Lossless Audio Codec
File size : 18.2 MiB
Duration : 1 min 35 s
Overall bit rate mode : Variable
Overall bit rate : 1 596 kb/s
Album : Platinum Rare Vol. 2 (Remastered)
Album/Performer : The Sweet
Part : 1
Part/Total : 1
Track name : Are You Coming to See Me (Band Demo)
Track name/Position : 12
Track name/Total : 27
Performer : The Sweet
Label : Prudential Music Group
Genre : Rock
Recorded date : 2022
ISRC : QMDA62106587
Copyright : 2022 Scott Free Under License to Prudential Music Group
Cover : Yes
Cover type : Cover (front)
Cover MIME : image/jpeg
UPC : 196292102789
Audio
Format : FLAC
Format/Info : Free Lossless Audio Codec
Duration : 1 min 35 s
Bit rate mode : Variable
Bit rate : 1 533 kb/s
Channel(s) : 2 channels
Channel layout : L R
Sampling rate : 48.0 kHz
Bit depth : 24 bits
Compression mode : Lossless
Stream size : 17.5 MiB (96%)
Writing library : libFLAC 1.3.0 (UTC 2013-05-26)
General
Complete name : C:UserszatolokinaDownloadsmusicThe Sweet - 2022 - Platinum Rare Vol. 2 (Remastered) (24bit-48kHz)13 Fever of Love (Rough Mix).flac
Format : FLAC
Format/Info : Free Lossless Audio Codec
File size : 55.7 MiB
Duration : 4 min 25 s
Overall bit rate mode : Variable
Overall bit rate : 1 759 kb/s
Album : Platinum Rare Vol. 2 (Remastered)
Album/Performer : The Sweet
Part : 1
Part/Total : 1
Track name : Fever of Love (Rough Mix)
Track name/Position : 13
Track name/Total : 27
Performer : The Sweet
Label : Prudential Music Group
Genre : Rock
Recorded date : 2022
ISRC : QMDA62106588
Copyright : 2022 Scott Free Under License to Prudential Music Group
Cover : Yes
Cover type : Cover (front)
Cover MIME : image/jpeg
UPC : 196292102789
Audio
Format : FLAC
Format/Info : Free Lossless Audio Codec
Duration : 4 min 25 s
Bit rate mode : Variable
Bit rate : 1 736 kb/s
Channel(s) : 2 channels
Channel layout : L R
Sampling rate : 48.0 kHz
Bit depth : 24 bits
Compression mode : Lossless
Stream size : 55.0 MiB (99%)
Writing library : libFLAC 1.3.0 (UTC 2013-05-26)
General
Complete name : C:UserszatolokinaDownloadsmusicThe Sweet - 2022 - Platinum Rare Vol. 2 (Remastered) (24bit-48kHz)14 Breakdown (Outtake).flac
Format : FLAC
Format/Info : Free Lossless Audio Codec
File size : 37.7 MiB
Duration : 3 min 10 s
Overall bit rate mode : Variable
Overall bit rate : 1 656 kb/s
Album : Platinum Rare Vol. 2 (Remastered)
Album/Performer : The Sweet
Part : 1
Part/Total : 1
Track name : Breakdown (Outtake)
Track name/Position : 14
Track name/Total : 27
Performer : The Sweet
Label : Prudential Music Group
Genre : Rock
Recorded date : 2022
ISRC : QMDA62106589
Copyright : 2022 Scott Free Under License to Prudential Music Group
Cover : Yes
Cover type : Cover (front)
Cover MIME : image/jpeg
UPC : 196292102789
Audio
Format : FLAC
Format/Info : Free Lossless Audio Codec
Duration : 3 min 10 s
Bit rate mode : Variable
Bit rate : 1 625 kb/s
Channel(s) : 2 channels
Channel layout : L R
Sampling rate : 48.0 kHz
Bit depth : 24 bits
Compression mode : Lossless
Stream size : 37.0 MiB (98%)
Writing library : libFLAC 1.3.0 (UTC 2013-05-26)
General
Complete name : C:UserszatolokinaDownloadsmusicThe Sweet - 2022 - Platinum Rare Vol. 2 (Remastered) (24bit-48kHz)15 At Midnight (Instrumental).flac
Format : FLAC
Format/Info : Free Lossless Audio Codec
File size : 40.7 MiB
Duration : 3 min 51 s
Overall bit rate mode : Variable
Overall bit rate : 1 478 kb/s
Album : Platinum Rare Vol. 2 (Remastered)
Album/Performer : The Sweet
Part : 1
Part/Total : 1
Track name : At Midnight (Instrumental)
Track name/Position : 15
Track name/Total : 27
Performer : The Sweet
Label : Prudential Music Group
Genre : Rock
Recorded date : 2022
ISRC : QMDA62106590
Copyright : 2022 Scott Free Under License to Prudential Music Group
Cover : Yes
Cover type : Cover (front)
Cover MIME : image/jpeg
UPC : 196292102789
Audio
Format : FLAC
Format/Info : Free Lossless Audio Codec
Duration : 3 min 51 s
Bit rate mode : Variable
Bit rate : 1 452 kb/s
Channel(s) : 2 channels
Channel layout : L R
Sampling rate : 48.0 kHz
Bit depth : 24 bits
Compression mode : Lossless
Stream size : 40.0 MiB (98%)
Writing library : libFLAC 1.3.0 (UTC 2013-05-26)
General
Complete name : C:UserszatolokinaDownloadsmusicThe Sweet - 2022 - Platinum Rare Vol. 2 (Remastered) (24bit-48kHz)16 Turn It Down (Rough Mix).flac
Format : FLAC
Format/Info : Free Lossless Audio Codec
File size : 36.3 MiB
Duration : 3 min 31 s
Overall bit rate mode : Variable
Overall bit rate : 1 440 kb/s
Album : Platinum Rare Vol. 2 (Remastered)
Album/Performer : The Sweet
Part : 1
Part/Total : 1
Track name : Turn It Down (Rough Mix)
Track name/Position : 16
Track name/Total : 27
Performer : The Sweet
Label : Prudential Music Group
Genre : Rock
Recorded date : 2022
ISRC : QMDA62106591
Copyright : 2022 Scott Free Under License to Prudential Music Group
Cover : Yes
Cover type : Cover (front)
Cover MIME : image/jpeg
UPC : 196292102789
Audio
Format : FLAC
Format/Info : Free Lossless Audio Codec
Duration : 3 min 31 s
Bit rate mode : Variable
Bit rate : 1 411 kb/s
Channel(s) : 2 channels
Channel layout : L R
Sampling rate : 48.0 kHz
Bit depth : 24 bits
Compression mode : Lossless
Stream size : 35.6 MiB (98%)
Writing library : libFLAC 1.3.0 (UTC 2013-05-26)
General
Complete name : C:UserszatolokinaDownloadsmusicThe Sweet - 2022 - Platinum Rare Vol. 2 (Remastered) (24bit-48kHz)17 Tall Girls (Rough Mix).flac
Format : FLAC
Format/Info : Free Lossless Audio Codec
File size : 57.0 MiB
Duration : 4 min 27 s
Overall bit rate mode : Variable
Overall bit rate : 1 785 kb/s
Album : Platinum Rare Vol. 2 (Remastered)
Album/Performer : The Sweet
Part : 1
Part/Total : 1
Track name : Tall Girls (Rough Mix)
Track name/Position : 17
Track name/Total : 27
Performer : The Sweet
Label : Prudential Music Group
Genre : Rock
Recorded date : 2022
ISRC : QMDA62106592
Copyright : 2022 Scott Free Under License to Prudential Music Group
Cover : Yes
Cover type : Cover (front)
Cover MIME : image/jpeg
UPC : 196292102789
Audio
Format : FLAC
Format/Info : Free Lossless Audio Codec
Duration : 4 min 27 s
Bit rate mode : Variable
Bit rate : 1 762 kb/s
Channel(s) : 2 channels
Channel layout : L R
Sampling rate : 48.0 kHz
Bit depth : 24 bits
Compression mode : Lossless
Stream size : 56.3 MiB (99%)
Writing library : libFLAC 1.3.0 (UTC 2013-05-26)
General
Complete name : C:UserszatolokinaDownloadsmusicThe Sweet - 2022 - Platinum Rare Vol. 2 (Remastered) (24bit-48kHz)18 Hey Mama (Rough Mix).flac
Format : FLAC
Format/Info : Free Lossless Audio Codec
File size : 41.1 MiB
Duration : 3 min 41 s
Overall bit rate mode : Variable
Overall bit rate : 1 561 kb/s
Album : Platinum Rare Vol. 2 (Remastered)
Album/Performer : The Sweet
Part : 1
Part/Total : 1
Track name : Hey Mama (Rough Mix)
Track name/Position : 18
Track name/Total : 27
Performer : The Sweet
Label : Prudential Music Group
Genre : Rock
Recorded date : 2022
ISRC : QMDA62106593
Copyright : 2022 Scott Free Under License to Prudential Music Group
Cover : Yes
Cover type : Cover (front)
Cover MIME : image/jpeg
UPC : 196292102789
Audio
Format : FLAC
Format/Info : Free Lossless Audio Codec
Duration : 3 min 41 s
Bit rate mode : Variable
Bit rate : 1 534 kb/s
Channel(s) : 2 channels
Channel layout : L R
Sampling rate : 48.0 kHz
Bit depth : 24 bits
Compression mode : Lossless
Stream size : 40.4 MiB (98%)
Writing library : libFLAC 1.3.0 (UTC 2013-05-26)
General
Complete name : C:UserszatolokinaDownloadsmusicThe Sweet - 2022 - Platinum Rare Vol. 2 (Remastered) (24bit-48kHz)19 Fox on the Run (Andy Scott Demo).flac
Format : FLAC
Format/Info : Free Lossless Audio Codec
File size : 18.1 MiB
Duration : 1 min 41 s
Overall bit rate mode : Variable
Overall bit rate : 1 498 kb/s
Album : Platinum Rare Vol. 2 (Remastered)
Album/Performer : The Sweet
Part : 1
Part/Total : 1
Track name : Fox on the Run (Andy Scott Demo)
Track name/Position : 19
Track name/Total : 27
Performer : The Sweet
Label : Prudential Music Group
Genre : Rock
Recorded date : 2022
ISRC : QMDA62106594
Copyright : 2022 Scott Free Under License to Prudential Music Group
Cover : Yes
Cover type : Cover (front)
Cover MIME : image/jpeg
UPC : 196292102789
Audio
Format : FLAC
Format/Info : Free Lossless Audio Codec
Duration : 1 min 41 s
Bit rate mode : Variable
Bit rate : 1 439 kb/s
Channel(s) : 2 channels
Channel layout : L R
Sampling rate : 48.0 kHz
Bit depth : 24 bits
Compression mode : Lossless
Stream size : 17.4 MiB (96%)
Writing library : libFLAC 1.3.0 (UTC 2013-05-26)
General
Complete name : C:UserszatolokinaDownloadsmusicThe Sweet - 2022 - Platinum Rare Vol. 2 (Remastered) (24bit-48kHz)20 Love is the Cure (Andy Scott Demo).flac
Format : FLAC
Format/Info : Free Lossless Audio Codec
File size : 44.5 MiB
Duration : 3 min 35 s
Overall bit rate mode : Variable
Overall bit rate : 1 732 kb/s
Album : Platinum Rare Vol. 2 (Remastered)
Album/Performer : The Sweet
Part : 1
Part/Total : 1
Track name : Love is the Cure (Andy Scott Demo)
Track name/Position : 20
Track name/Total : 27
Performer : The Sweet
Label : Prudential Music Group
Genre : Rock
Recorded date : 2022
ISRC : QMDA62106595
Copyright : 2022 Scott Free Under License to Prudential Music Group
Cover : Yes
Cover type : Cover (front)
Cover MIME : image/jpeg
UPC : 196292102789
Audio
Format : FLAC
Format/Info : Free Lossless Audio Codec
Duration : 3 min 35 s
Bit rate mode : Variable
Bit rate : 1 705 kb/s
Channel(s) : 2 channels
Channel layout : L R
Sampling rate : 48.0 kHz
Bit depth : 24 bits
Compression mode : Lossless
Stream size : 43.8 MiB (98%)
Writing library : libFLAC 1.3.0 (UTC 2013-05-26)
General
Complete name : C:UserszatolokinaDownloadsmusicThe Sweet - 2022 - Platinum Rare Vol. 2 (Remastered) (24bit-48kHz)21 Where'd You Go (Andy Scott Demo).flac
Format : FLAC
Format/Info : Free Lossless Audio Codec
File size : 55.2 MiB
Duration : 4 min 9 s
Overall bit rate mode : Variable
Overall bit rate : 1 853 kb/s
Album : Platinum Rare Vol. 2 (Remastered)
Album/Performer : The Sweet
Part : 1
Part/Total : 1
Track name : Where'd You Go (Andy Scott Demo)
Track name/Position : 21
Track name/Total : 27
Performer : The Sweet
Label : Prudential Music Group
Genre : Rock
Recorded date : 2022
ISRC : QMDA62106596
Copyright : 2022 Scott Free Under License to Prudential Music Group
Cover : Yes
Cover type : Cover (front)
Cover MIME : image/jpeg
UPC : 196292102789
Audio
Format : FLAC
Format/Info : Free Lossless Audio Codec
Duration : 4 min 9 s
Bit rate mode : Variable
Bit rate : 1 829 kb/s
Channel(s) : 2 channels
Channel layout : L R
Sampling rate : 48.0 kHz
Bit depth : 24 bits
Compression mode : Lossless
Stream size : 54.4 MiB (99%)
Writing library : libFLAC 1.3.0 (UTC 2013-05-26)
General
Complete name : C:UserszatolokinaDownloadsmusicThe Sweet - 2022 - Platinum Rare Vol. 2 (Remastered) (24bit-48kHz)22 Make up Your Mind (Andy Scott Demo).flac
Format : FLAC
Format/Info : Free Lossless Audio Codec
File size : 45.7 MiB
Duration : 3 min 47 s
Overall bit rate mode : Variable
Overall bit rate : 1 684 kb/s
Album : Platinum Rare Vol. 2 (Remastered)
Album/Performer : The Sweet
Part : 1
Part/Total : 1
Track name : Make up Your Mind (Andy Scott Demo)
Track name/Position : 22
Track name/Total : 27
Performer : The Sweet
Label : Prudential Music Group
Genre : Rock
Recorded date : 2022
ISRC : QMDA62106597
Copyright : 2022 Scott Free Under License to Prudential Music Group
Cover : Yes
Cover type : Cover (front)
Cover MIME : image/jpeg
UPC : 196292102789
Audio
Format : FLAC
Format/Info : Free Lossless Audio Codec
Duration : 3 min 47 s
Bit rate mode : Variable
Bit rate : 1 658 kb/s
Channel(s) : 2 channels
Channel layout : L R
Sampling rate : 48.0 kHz
Bit depth : 24 bits
Compression mode : Lossless
Stream size : 45.0 MiB (98%)
Writing library : libFLAC 1.3.0 (UTC 2013-05-26)
General
Complete name : C:UserszatolokinaDownloadsmusicThe Sweet - 2022 - Platinum Rare Vol. 2 (Remastered) (24bit-48kHz)23 Eye Games (Andy Scott Demo).flac
Format : FLAC
Format/Info : Free Lossless Audio Codec
File size : 23.4 MiB
Duration : 1 min 42 s
Overall bit rate mode : Variable
Overall bit rate : 1 915 kb/s
Album : Platinum Rare Vol. 2 (Remastered)
Album/Performer : The Sweet
Part : 1
Part/Total : 1
Track name : Eye Games (Andy Scott Demo)
Track name/Position : 23
Track name/Total : 27
Performer : The Sweet
Label : Prudential Music Group
Genre : Rock
Recorded date : 2022
ISRC : QMDA62106598
Copyright : 2022 Scott Free Under License to Prudential Music Group
Cover : Yes
Cover type : Cover (front)
Cover MIME : image/jpeg
UPC : 196292102789
Audio
Format : FLAC
Format/Info : Free Lossless Audio Codec
Duration : 1 min 42 s
Bit rate mode : Variable
Bit rate : 1 856 kb/s
Channel(s) : 2 channels
Channel layout : L R
Sampling rate : 48.0 kHz
Bit depth : 24 bits
Compression mode : Lossless
Stream size : 22.7 MiB (97%)
Writing library : libFLAC 1.3.0 (UTC 2013-05-26)
General
Complete name : C:UserszatolokinaDownloadsmusicThe Sweet - 2022 - Platinum Rare Vol. 2 (Remastered) (24bit-48kHz)24 Californa Nights (Andy Scott Demo).flac
Format : FLAC
Format/Info : Free Lossless Audio Codec
File size : 13.1 MiB
Duration : 1 min 2 s
Overall bit rate mode : Variable
Overall bit rate : 1 749 kb/s
Album : Platinum Rare Vol. 2 (Remastered)
Album/Performer : The Sweet
Part : 1
Part/Total : 1
Track name : Californa Nights (Andy Scott Demo)
Track name/Position : 24
Track name/Total : 27
Performer : The Sweet
Label : Prudential Music Group
Genre : Rock
Recorded date : 2022
ISRC : QMDA62106599
Copyright : 2022 Scott Free Under License to Prudential Music Group
Cover : Yes
Cover type : Cover (front)
Cover MIME : image/jpeg
UPC : 196292102789
Audio
Format : FLAC
Format/Info : Free Lossless Audio Codec
Duration : 1 min 2 s
Bit rate mode : Variable
Bit rate : 1 653 kb/s
Channel(s) : 2 channels
Channel layout : L R
Sampling rate : 48.0 kHz
Bit depth : 24 bits
Compression mode : Lossless
Stream size : 12.3 MiB (95%)
Writing library : libFLAC 1.3.0 (UTC 2013-05-26)
General
Complete name : C:UserszatolokinaDownloadsmusicThe Sweet - 2022 - Platinum Rare Vol. 2 (Remastered) (24bit-48kHz)25 Lettres D'amour (Andy Scott Demo).flac
Format : FLAC
Format/Info : Free Lossless Audio Codec
File size : 11.8 MiB
Duration : 58 s 101 ms
Overall bit rate mode : Variable
Overall bit rate : 1 708 kb/s
Album : Platinum Rare Vol. 2 (Remastered)
Album/Performer : The Sweet
Part : 1
Part/Total : 1
Track name : Lettres D'amour (Andy Scott Demo)
Track name/Position : 25
Track name/Total : 27
Performer : The Sweet
Label : Prudential Music Group
Genre : Rock
Recorded date : 2022
ISRC : QMDA62106600
Copyright : 2022 Scott Free Under License to Prudential Music Group
Cover : Yes
Cover type : Cover (front)
Cover MIME : image/jpeg
UPC : 196292102789
Audio
Format : FLAC
Format/Info : Free Lossless Audio Codec
Duration : 58 s 101 ms
Bit rate mode : Variable
Bit rate : 1 605 kb/s
Channel(s) : 2 channels
Channel layout : L R
Sampling rate : 48.0 kHz
Bit depth : 24 bits
Compression mode : Lossless
Stream size : 11.1 MiB (94%)
Writing library : libFLAC 1.3.0 (UTC 2013-05-26)
General
Complete name : C:UserszatolokinaDownloadsmusicThe Sweet - 2022 - Platinum Rare Vol. 2 (Remastered) (24bit-48kHz)26 Silverbird (Andy Scott Demo).flac
Format : FLAC
Format/Info : Free Lossless Audio Codec
File size : 24.4 MiB
Duration : 2 min 2 s
Overall bit rate mode : Variable
Overall bit rate : 1 669 kb/s
Album : Platinum Rare Vol. 2 (Remastered)
Album/Performer : The Sweet
Part : 1
Part/Total : 1
Track name : Silverbird (Andy Scott Demo)
Track name/Position : 26
Track name/Total : 27
Performer : The Sweet
Label : Prudential Music Group
Genre : Rock
Recorded date : 2022
ISRC : QMDA62106601
Copyright : 2022 Scott Free Under License to Prudential Music Group
Cover : Yes
Cover type : Cover (front)
Cover MIME : image/jpeg
UPC : 196292102789
Audio
Format : FLAC
Format/Info : Free Lossless Audio Codec
Duration : 2 min 2 s
Bit rate mode : Variable
Bit rate : 1 620 kb/s
Channel(s) : 2 channels
Channel layout : L R
Sampling rate : 48.0 kHz
Bit depth : 24 bits
Compression mode : Lossless
Stream size : 23.7 MiB (97%)
Writing library : libFLAC 1.3.0 (UTC 2013-05-26)
General
Complete name : C:UserszatolokinaDownloadsmusicThe Sweet - 2022 - Platinum Rare Vol. 2 (Remastered) (24bit-48kHz)27 Stairway to the Stars (Andy Scott Demo).flac
Format : FLAC
Format/Info : Free Lossless Audio Codec
File size : 35.0 MiB
Duration : 3 min 0 s
Overall bit rate mode : Variable
Overall bit rate : 1 621 kb/s
Album : Platinum Rare Vol. 2 (Remastered)
Album/Performer : The Sweet
Part : 1
Part/Total : 1
Track name : Stairway to the Stars (Andy Scott Demo)
Track name/Position : 27
Track name/Total : 27
Performer : The Sweet
Label : Prudential Music Group
Genre : Rock
Recorded date : 2022
ISRC : QMDA62106602
Copyright : 2022 Scott Free Under License to Prudential Music Group
Cover : Yes
Cover type : Cover (front)
Cover MIME : image/jpeg
UPC : 196292102789
Audio
Format : FLAC
Format/Info : Free Lossless Audio Codec
Duration : 3 min 0 s
Bit rate mode : Variable
Bit rate : 1 588 kb/s
Channel(s) : 2 channels
Channel layout : L R
Sampling rate : 48.0 kHz
Bit depth : 24 bits
Compression mode : Lossless
Stream size : 34.3 MiB (98%)
Writing library : libFLAC 1.3.0 (UTC 2013-05-26)
General
Complete name : C:UserszatolokinaDownloadsmusicThe Sweet - 2022 - Platinum Rare Vol. 2 (Remastered) (24bit-48kHz)cover.jpg
Format : JPEG
File size : 729 KiB
Image
Format : JPEG
Width : 1 414 pixels
Height : 1 414 pixels
Color space : YUV
Chroma subsampling : 4:2:0
Bit depth : 8 bits
Compression mode : Lossy
Stream size : 729 KiB (100%)
 

Current time is: 25-May 05:02

All times are UTC + 3