Search found 285 matches

Author Message

admin

Post 08-Jun-2022 05:03

[Quote]

Название: Caravaggio
Исполнитель: Caravaggio
Год: 2022
Жанр: Progressive-Rock
Страна: Italy
Продолжительность: 00:54:48
Формат/Кодек: FLAC
Битрейт аудио: Lossless

Трек-лист

01. Before My Eyes
02. Not On Me
03. Joyful Graveyard
04. Guernica
05. Healing The Leaders
06. Unlike Dolphins
07. Pompeii
08. Comfortable
09. Fix You (Coldplay cover)
10. Life Watching

log

DON'T MODIFY THIS FILE
-----------------------
PERFORMER: auCDtect Task Manager, ver. 1.6.0 RC1 build 1.6.0.1
Copyright (c) 2008-2010 y-soft. All rights reserved
http://y-soft.org
ANALYZER: auCDtect: CD records authenticity detector, version 0.8.2
Copyright (c) 2004 Oleg Berngardt. All rights reserved.
Copyright (c) 2004 Alexander Djourik. All rights reserved.
FILE: 10 - Life Watching.flac
Size: 39575785 Hash: 48AF5222B48A823D398C5260ECFC6DA8 Accuracy: -m40
Conclusion: CDDA 99%
Signature: ACC47C3D3A5EC3833857DB7326E04E134EA52919
FILE: 09 - Fix You.flac
Size: 31957343 Hash: D2BAEDBCC48F7DDAC7A3B11D9357C588 Accuracy: -m40
Conclusion: CDDA 100%
Signature: 1F24FF343BC5ECB7688400B7179FBD470E7F99FD
FILE: 08 - Comfortable.flac
Size: 36289584 Hash: A2B75B6BB53CDF8D6273FFA712654152 Accuracy: -m40
Conclusion: CDDA 100%
Signature: A3370B7969D9DA45D8A002555F896E78BCF30D8D
FILE: 07 - Pompeii.flac
Size: 16421855 Hash: 8B6CCDEDB8AB3E055EB716DF15DA09CB Accuracy: -m40
Conclusion: CDDA 100%
Signature: 338FFA32D8A438943B1743DE5C7F5D3BAA100B8B
FILE: 06 - Unlike Dolphins.flac
Size: 48490399 Hash: 0CCDA470573D981409A922662991FC82 Accuracy: -m40
Conclusion: CDDA 100%
Signature: 19842A062D0F0633CB9B7DCEF74B5BC658A90020
FILE: 05 - Healing The Leaders.flac
Size: 35700057 Hash: 5ACA064874278BAAA62340A00D9B3660 Accuracy: -m40
Conclusion: CDDA 100%
Signature: 52272A7E9C46CC7C8DA80E370C4F5828CFE7A7A2
FILE: 04 - Guernica.flac
Size: 48405496 Hash: 33B4B25D00AE12867F038B7037817E15 Accuracy: -m40
Conclusion: CDDA 100%
Signature: 97C9BFDCF6ABA4606A0C1C7E341329C4B7D43188
FILE: 03 - Joyful Graveyard.flac
Size: 40233708 Hash: 18E9D259F6A269ED44499558874EC721 Accuracy: -m40
Conclusion: CDDA 100%
Signature: DBBBD8D9778FCCDA6CCE475DA30C1E7A94487558
FILE: 02 - Not On Me.flac
Size: 24537608 Hash: C6ABC86F0ED77900C0104B3B2FB7DF9D Accuracy: -m40
Conclusion: CDDA 100%
Signature: 89F31DE069B20F6A96D85892AB8B877E1FFE11B3
FILE: 01 - Before My Eyes.flac
Size: 41371965 Hash: 8EA595095BC1E4D70B9E21DB36529C5B Accuracy: -m40
Conclusion: CDDA 100%
Signature: EE01785F037288CECC49E847FF4AE58CEDA5BAC9

admin

Post 08-Jun-2022 03:34

[Quote]

Название: Scissorgames
Исполнитель: Ghost Of The Machine
Год: 2022
Жанр: Progressive-Rock
Страна: UK
Лейбл: GOTM RECORDS
Продолжительность: 01:02:34
Формат/Кодек: FLAC
Битрейт аудио: Lossless

Трек-лист

01. Scissors
02. Mountain
03. Just for Reference
04. January's Child
05. Mercury Rising (Parts I and II)
06. Dead to Me
07. Scissors (Reprise)

log

DON'T MODIFY THIS FILE
-----------------------
PERFORMER: auCDtect Task Manager, ver. 1.6.0 RC1 build 1.6.0.1
Copyright (c) 2008-2010 y-soft. All rights reserved
http://y-soft.org
ANALYZER: auCDtect: CD records authenticity detector, version 0.8.2
Copyright (c) 2004 Oleg Berngardt. All rights reserved.
Copyright (c) 2004 Alexander Djourik. All rights reserved.
FILE: 07 - Scissors (Reprise).flac
Size: 72644499 Hash: 97CC27D102A4B11E5814A2811A856ECC Accuracy: -m40
Conclusion: CDDA 99%
Signature: C9B3F407399F42D656AB12CBFC7A26615E603471
FILE: 06 - Dead To Me.flac
Size: 29255431 Hash: 98B33A1C4ADABCEF865325C6FEAEECE7 Accuracy: -m40
Conclusion: CDDA 100%
Signature: B2F2134E45898D8D0292B538EB57A752B4CB0E7E
FILE: 05 - Mercury Rising (Parts I and II).flac
Size: 62186036 Hash: DB2221F1338A559DB74B147A4EF12D39 Accuracy: -m40
Conclusion: CDDA 100%
Signature: 94B236B50358B117D27142A4F5B919FFB0848ADC
FILE: 04 - January's Child.flac
Size: 56288659 Hash: 52B558F2A5228AB5CC510E644C84EF89 Accuracy: -m40
Conclusion: CDDA 100%
Signature: 6D7354DF8CBB58146476BD1958519F1BF31C9C38
FILE: 03 - Just For Reference.flac
Size: 35713664 Hash: 470A5DEB7CC4071E11B62724383FDAF6 Accuracy: -m40
Conclusion: CDDA 100%
Signature: 6D4392230ABF444157F12A16FB5FBF464A8FC09D
FILE: 02 - Mountain.flac
Size: 62390737 Hash: 345A503FFD2A8094CB7812C482C5872F Accuracy: -m40
Conclusion: CDDA 100%
Signature: 7C928D270D4C0CBACFF48AA965A30790E39CF527
FILE: 01 - Scissors.flac
Size: 125223540 Hash: 2632F395EFC213DBF2A0200AA2460119 Accuracy: -m40
Conclusion: CDDA 100%
Signature: 2B71D131D98C16EBE09CD9CA6D7191ACBBF79ADA

admin

Post 08-Jun-2022 03:26

[Quote]

Название: Centerself
Исполнитель: Stage Of Matter
Год: 2022
Жанр: Progressive, Hard-Rock
Страна: USA
Продолжительность: 00:41:34
Формат/Кодек: FLAC
Битрейт аудио: Lossless

Трек-лист

01. Schizoid (02:34)
02. Untitled Song (07:28)
03. Book of Disquiet (04:24)
04. Falling Pictures (05:56)
05. Rising Degrees (03:51)
06. Let Me Be (00:44)
07. Free to Go (04:46)
08. Hyde's Inn (03:35)
09. Histrionic (08:16)

log

DON'T MODIFY THIS FILE
-----------------------
PERFORMER: auCDtect Task Manager, ver. 1.6.0 RC1 build 1.6.0.1
Copyright (c) 2008-2010 y-soft. All rights reserved
http://y-soft.org
ANALYZER: auCDtect: CD records authenticity detector, version 0.8.2
Copyright (c) 2004 Oleg Berngardt. All rights reserved.
Copyright (c) 2004 Alexander Djourik. All rights reserved.
FILE: 09 - Histrionic.flac
Size: 67520653 Hash: BA380D30F8044CA106E4F9EE9875801C Accuracy: -m40
Conclusion: CDDA 100%
Signature: 3FFD687F0355FEA4CC537E3B9AF20099B455A318
FILE: 08 - Hyde's Inn.flac
Size: 29918616 Hash: B354B589EE01DD7D9271F9582A5211D6 Accuracy: -m40
Conclusion: CDDA 100%
Signature: 54DE3436E8444016BC75F9A2853E338CAB58E7C5
FILE: 07 - Free to Go.flac
Size: 41066980 Hash: AAF3BE4F889CDB7F1C6879F3BA509A0A Accuracy: -m40
Conclusion: CDDA 99%
Signature: A615F634ABA36FFA1566012E274FBBEAAAB7211A
FILE: 06 - Let Me Be.flac
Size: 4343492 Hash: 8220C62376EFD0D9646DEA1BE2F0CDF0 Accuracy: -m40
Conclusion: CDDA 100%
Signature: 1051B13E2BFA39264089F6CA251D6E7F883B359B
FILE: 05 - Rising Degrees.flac
Size: 29772992 Hash: 05EF033F14BE2CB0467C3658907EBB8A Accuracy: -m40
Conclusion: CDDA 100%
Signature: 47DF7A1A270FCF6AFF2782B193083AE146BD5686
FILE: 04 - Falling Pictures.flac
Size: 47919880 Hash: 7DF38FC906DFA11F2D4C9C0B5BD51E7E Accuracy: -m40
Conclusion: CDDA 100%
Signature: 3C86B2C50CB9C4855AD54293122BA44CC93B23B4
FILE: 03 - Book of Disquiet.flac
Size: 37574606 Hash: F60A5107F6579FFB32849003EE344B3B Accuracy: -m40
Conclusion: CDDA 99%
Signature: EC1527ADABCF57BBFD01F5370FC4A578D5375ACB
FILE: 02 - Untitled Song.flac
Size: 61721960 Hash: 34B6086A9F83521B8A2CFC7BCBE45D62 Accuracy: -m40
Conclusion: CDDA 99%
Signature: 99E838E3131C6EDEF381E54C815793E82CD6A0FD
FILE: 01 - Schizoid.flac
Size: 16561280 Hash: D22FE4D233BF17EB32A508968C2654F4 Accuracy: -m40
Conclusion: CDDA 99%
Signature: 62FAD000CABDCB5D0027C66522FE846B5CFD46F8

admin

Post 07-Jun-2022 06:12

[Quote]

Название: A New World Record
Исполнитель: Electric Light Orchestra
Год: 1976/2018
Жанр: Progressive-Rock, Art-Pop-Rock
Страна: United Kingdom
Продолжительность: 00:36:36
Формат/Кодек: DST64 + DTS CD
Тип рипа: Image (ISO)
Битрейт аудио: 2,8224 MHz
Носитель: SACD

Трек-лист

01. Tightrope
02. Telephone Line
03. Rockaria!
04. Mission (A New World Record)
05. So Fine
06. Livin' Thing
07. Above The Clouds
08. Do Ya
09. Shangri-La

DRM
foobar2000 1.6.8 / Dynamic Range Meter 1.1.1
--------------------------------------------------------------------------------
Analyzed: Electric Light Orchestra / A New World Record (192-24 6Ch)
--------------------------------------------------------------------------------
DR Peak RMS Duration Track
--------------------------------------------------------------------------------
DR13 -0.34 dB -18.38 dB 5:06 01-Tightrope
DR14 -0.32 dB -18.71 dB 4:41 02-Telephone Line
DR12 -1.02 dB -17.70 dB 3:13 03-Rockaria!
DR14 -0.32 dB -18.75 dB 4:29 04-Mission (A New World Record)
DR14 -0.51 dB -18.51 dB 3:56 05-So Fine
DR14 -0.32 dB -18.46 dB 3:32 06-Livin' Thing
DR15 -0.32 dB -19.17 dB 2:17 07-Above The Clouds
DR14 -0.32 dB -18.20 dB 3:46 08-Do Ya
DR14 -0.64 dB -18.34 dB 5:37 09-Shangri-La
--------------------------------------------------------------------------------
Number of tracks: 9
Official DR value: DR14
Samplerate: 192000 Hz
Channels: 6
Bits per sample: 24
Bitrate: 27648 kbps
Codec: PCM

admin

Post 07-Jun-2022 06:11

[Quote]

Название: Eldorado
Исполнитель: Electric Light Orchestra
Год: 1974/2021
Жанр: Progressive-Rock, Art-Pop-Rock
Страна: United Kingdom
Продолжительность: 00:39:11
Формат/Кодек: DSD 2.0
Тип рипа: Image (ISO)
Битрейт аудио: 2,8224 MHz
Носитель: SACD

Трек-лист

01. Eldorado Overture
02. Can't Get It Out of My Head
03. Boy Blue
04. Laredo Tornado
05. Poor Boy (The Greenwood)
06. Mister Kingdom
07. Nobody's Child
08. Illusions in G Major
09. Eldorado
10. Eldorado Finale

DRM
foobar2000 1.6.8 / Dynamic Range Meter 1.1.1
--------------------------------------------------------------------------------
Analyzed: Electric Light Orchestra / Eldorado
--------------------------------------------------------------------------------
DR Peak RMS Duration Track
--------------------------------------------------------------------------------
DR12 -7.80 dB -25.10 dB 2:13 01-Eldorado Overture
DR12 -7.43 dB -22.95 dB 4:21 02-Can't Get It Out Of My Head
DR12 -6.52 dB -21.31 dB 5:19 03-Boy Blue
DR13 -8.08 dB -23.36 dB 5:29 04-Laredo Tornado
DR11 -6.77 dB -20.79 dB 2:58 05-Poor Boy (The Greenwood)
DR11 -7.09 dB -22.35 dB 5:29 06-Mister Kingdom
DR11 -6.21 dB -20.94 dB 3:56 07-Nobody's Child
DR10 -6.81 dB -19.02 dB 2:37 08-Illusions In G Major
DR11 -7.17 dB -22.78 dB 5:17 09-Eldorado
DR11 -6.26 dB -20.69 dB 1:32 10-Eldorado Finale
--------------------------------------------------------------------------------
Number of tracks: 10
Official DR value: DR11
Samplerate: 2822400 Hz / PCM Samplerate: 88200 Hz
Channels: 2
Bits per sample: 1
Bitrate: 5645 kbps
Codec: DSD64
================================================================================

admin

Post 02-Jun-2022 04:36

[Quote]

Название: Things Are Getting Stranger On The Shore
Исполнитель: Mordecai Smyth
Год: 2022
Жанр: Progressive-Rock
Страна: UK
Лейбл: Mega Dodo
Продолжительность: 00:49:41
Формат/Кодек: FLAC
Битрейт аудио: Lossless

Трек-лист

01. In Your Dark Space
02. Fear Of Flying
03. Mercy
04. The Love That We Found
05. Out Of Thin Air
06. The Upholsterers Wife
07. That Late Autumn Sun
08. High Once More

log

DON'T MODIFY THIS FILE
-----------------------
PERFORMER: auCDtect Task Manager, ver. 1.6.0 RC1 build 1.6.0.1
Copyright (c) 2008-2010 y-soft. All rights reserved
http://y-soft.org
ANALYZER: auCDtect: CD records authenticity detector, version 0.8.2
Copyright (c) 2004 Oleg Berngardt. All rights reserved.
Copyright (c) 2004 Alexander Djourik. All rights reserved.
FILE: 08 - High Once More.flac
Size: 39187899 Hash: 3F6007E36AB03404A29763EB531C9AC7 Accuracy: -m40
Conclusion: CDDA 100%
Signature: 8D939B762FAE4D938ABACDA530D777F2A1D4211D
FILE: 07 - That Late Autumn Sun.flac
Size: 109467953 Hash: A87A240AF814818707FFCE13878D3DEB Accuracy: -m40
Conclusion: CDDA 100%
Signature: 8A8E11FAAC778C4DB3DDF3BEDF4096C1073C3EEA
FILE: 06 - The Upholsterers Wife.flac
Size: 8727249 Hash: 5C48AC829CBEBCA17665F259B619B087 Accuracy: -m40
Conclusion: MPEG 100%
Signature: FC7955A86FDE43357409BC3044E2FDF957E6D019
FILE: 05 - Out Of Thin Air.flac
Size: 36361211 Hash: 20C7DF07C039F8D810C0989FCA1967EC Accuracy: -m40
Conclusion: CDDA 100%
Signature: F53CF334F9A587A0938116085FA4E673982303BC
FILE: 04 - The Love That We Found.flac
Size: 17791291 Hash: 5B35888060EACA14D594CA8123C8BE3C Accuracy: -m40
Conclusion: CDDA 100%
Signature: 498C0D94119613C05EBE73B8AB91C73062430096
FILE: 03 - Mercy.flac
Size: 55690684 Hash: 7DA23F94D9643449E4E311C863CEEE75 Accuracy: -m40
Conclusion: CDDA 99%
Signature: 23CBE32497610A9DB425671E1864EE442A974F97
FILE: 02 - Fear Of Flying.flac
Size: 27348680 Hash: A9E1B3A229A0C31920C7E016661090F0 Accuracy: -m40
Conclusion: CDDA 100%
Signature: B2BB55B5618654C1008956AA3A1352C94D0F90B4
FILE: 01 - In Your Dark Space.flac
Size: 58466180 Hash: EA233470C3CA483D8DD6D2EBAD74F1A7 Accuracy: -m40
Conclusion: CDDA 100%
Signature: 94FE67ECD01A3ED5B823CCCE22009E64E0CD3CAE

admin

Post 02-Jun-2022 04:27

[Quote]

Название: Synchronicity
Исполнитель: Nik Turner & The Trance Dimensionals
Год: 2022
Жанр: Psychedelic, Space-Rock
Страна: UK
Лейбл: Black Widow Records
Продолжительность: 00:57:47
Формат/Кодек: FLAC
Битрейт аудио: Lossless

Трек-лист

01. Destination Void
02. The Enchantress
03. Taken to the Limit
04. Cloudlands
05. Thunder Rider Invocation
06. Sphinx Dancer
07. Sekhmet
08. Angels of the Light
09. Night of the Jewelled Eye
10. Abode of the Blessed
11. Children of the Sun

admin

Post 02-Jun-2022 04:23

[Quote]

Название: Melatonia
Исполнитель: Jarred Venti
Год: 2022
Жанр: Progressive, Psychedelic-Rock
Страна: USA
Лейбл: Jarred Venti Music
Продолжительность: 00:41:02
Формат/Кодек: FLAC
Битрейт аудио: Lossless

Трек-лист

01. Dormez-Vous
02. Melatonia
03. Falling Awake
04. The Rapid Eye
05. Time Means Nothing Here
06. The Voice
07. Gummy Worm
08. Nocturnal
09. Creatures of the Night
10. Lucidity
11. Shhh, You're Only Dreaming

log

DON'T MODIFY THIS FILE
-----------------------
PERFORMER: auCDtect Task Manager, ver. 1.6.0 RC1 build 1.6.0.1
Copyright (c) 2008-2010 y-soft. All rights reserved
http://y-soft.org
ANALYZER: auCDtect: CD records authenticity detector, version 0.8.2
Copyright (c) 2004 Oleg Berngardt. All rights reserved.
Copyright (c) 2004 Alexander Djourik. All rights reserved.
FILE: 11 - Shhh, You're Only Dreaming.flac
Size: 25243525 Hash: F67F157D57FFF3AF4ECC1D0D966458F7 Accuracy: -m40
Conclusion: CDDA 100%
Signature: 585341F0ADA49973251B17BB243CA91EA0CD4213
FILE: 10 - Lucidity.flac
Size: 17238725 Hash: 3C466DEE96490AB8AD09AB83E8154B44 Accuracy: -m40
Conclusion: CDDA 100%
Signature: 5CBCD364DC8C5F9BA902EE4DC8BA515B586D54C9
FILE: 09 - Creatures of the Night.flac
Size: 21820449 Hash: 6F9405616C393E1EB2B1DF7AA0336D2C Accuracy: -m40
Conclusion: CDDA 100%
Signature: 4B41B1C98D92255182D7D5DF3943CA4740019CDE
FILE: 08 - Nocturnal.flac
Size: 25773929 Hash: 2DCC37EFA1BD3D63AC56A60CF561CD20 Accuracy: -m40
Conclusion: CDDA 100%
Signature: 6FE041C0E54DBAE069E87A0DC1D2D1AFF672471E
FILE: 07 - Gummy Worm.flac
Size: 22087784 Hash: EA13AFEDB1725B9DA248F5DE64049530 Accuracy: -m40
Conclusion: CDDA 100%
Signature: 0EAB366AB97C129BDDCF9C5154FADDD9EBC005BA
FILE: 06 - The Voice.flac
Size: 12344105 Hash: 61B7550DFECC37B5775557C7ED5B5D58 Accuracy: -m40
Conclusion: MPEG 90%
Signature: 244F0735FBA1896FDE97182BDDC9FC665599FF07
FILE: 05 - Time Means Nothing Here.flac
Size: 33481618 Hash: FB8768A14BF76E51CC53880D7D8C53E1 Accuracy: -m40
Conclusion: CDDA 100%
Signature: 0159BAD1821994C36D429EDFF6FC88D13EE0DCAC
FILE: 04 - The Rapid Eye.flac
Size: 41469259 Hash: 1B11061A35856A70B43A5EDE4C2519CB Accuracy: -m40
Conclusion: CDDA 100%
Signature: 133E2ED1A6FC7A9A256BFFE437A548939DEA5079
FILE: 03 - Falling Awake.flac
Size: 30253208 Hash: 95C9D6CC852DC79BD20571F08701D278 Accuracy: -m40
Conclusion: CDDA 99%
Signature: 431B0F927FABEC8B18A2CD6D291D3973504B8A96
FILE: 02 - Melatonia.flac
Size: 29120423 Hash: 4FCA8A3DC5C73905544CF10A0E60C6E0 Accuracy: -m40
Conclusion: CDDA 100%
Signature: 74C8992749977D1B8CCAE4E52A5AD8EA6B6797F5
FILE: 01 - Dormez-Vous.flac
Size: 19345088 Hash: DD088F2CE412DB96ED31596B49FE8758 Accuracy: -m40
Conclusion: CDDA 100%
Signature: CB91D4641E85744E1445BDD506244B78BA218481

admin

Post 02-Jun-2022 04:18

[Quote]

Название: Honeybrains: Just Rock
Исполнитель: VA
Год: 2022
Жанр: Rock
Продолжительность: 01:54:35
Формат/Кодек: MP3
Битрейт аудио: 320 Kbps

Трек-лист

01. Royal Blood - Honeybrains
02. Red Hot Chili Peppers - Black Summer
03. GAYLE - abcdefu (angrier)
04. Shinedown - Planet Zero
05. Avril Lavigne - Bite Me
06. Sueco - Loser
07. The Rare Occasions - Notion
08. Liam Gallagher - Everything's Electric
09. ILLENIUM - Story of My Life (feat. Trippie Redd)
10. Surf Curse - Sugar
11. Nessa Barrett - i hope ur miserable until ur dead
12. Twenty One Pilots - The Outside
13. Royal & The Serpent - PHUCKBOI REJECTS
14. Weezer - A Little Bit of Love
15. Skillet - Surviving the Game
16. Foals - 2am
17. The Walters - I Love You So
18. Against The Current - Wildfire
19. Mastodon - Teardrinker
20. Portugal. The Man - What, Me Worry_
21. My Chemical Romance - Teenagers
22. nothing,nowhere. - Pieces of You
23. A Day To Remember - Everything We Need
24. Red Hot Chili Peppers - These Are the Ways
25. Halestorm - Back from the Dead
26. The War On Drugs - I Don't Live Here Anymore (feat. Lucius)
27. Avril Lavigne - Bois Lie (feat. Machine Gun Kelly)
28. Twenty One Pilots - Saturday
29. Biffy Clyro - Space
30. Sueco - Paralyzed
31. Foals - Wake Me Up
32. ILLENIUM - Wouldn’t Change a Thing
33. Nessa Barrett - dying on the inside
34. Surf Curse - Freaks
35. Against The Current - weapon

admin

Post 02-Jun-2022 03:55

[Quote]

Название: Capitulism
Исполнитель: Kellermensch
Год: 2022
Жанр: Progressive, Experimental-Rock
Страна: Denmark
Лейбл: Persona Non Grata Records - RAR marketed by Motor Entertainment
Продолжительность: 00:38:44
Формат/Кодек: MP3
Битрейт аудио: 320 kbps

Трек-лист

01 - Instrumental [00:04:01]
02 - 6705 [00:03:54]
03 - Mission [00:04:20]
04 - Nothing [00:03:57]
05 - Follow You Around [00:05:37]
06 - Under [00:05:02]
07 - Another Drink [00:03:48]
08 - The Light [00:03:35]
09 - I'm Not Like Everybody Else [00:04:25]

admin

Post 30-May-2022 05:11

[Quote]

Название: In Spiral
Исполнитель: Jean-Pascal Boffo
Год: 2022
Жанр: Progressive-Rock, Instrumental
Страна: France
Продолжительность: 00:44:07
Формат/Кодек: FLAC
Битрейт аудио: Lossless

Трек-лист

01. Fly away
02. Cosmic blossom
03. Childhood dream
04. Seed of light
05. Epicycle
06. Blue nebula
07. Inner world
08. Connection breakdown
09. Space time
10. Night sky

log

DON'T MODIFY THIS FILE
-----------------------
PERFORMER: auCDtect Task Manager, ver. 1.6.0 RC1 build 1.6.0.1
Copyright (c) 2008-2010 y-soft. All rights reserved
http://y-soft.org
ANALYZER: auCDtect: CD records authenticity detector, version 0.8.2
Copyright (c) 2004 Oleg Berngardt. All rights reserved.
Copyright (c) 2004 Alexander Djourik. All rights reserved.
FILE: 10 - Night sky.flac
Size: 30485327 Hash: AE81BFB90577D0DA1E5F845625C06DBF Accuracy: -m40
Conclusion: CDDA 99%
Signature: B3A7F9DC88497BC574F2F9C18F9EFD0A5F4A0C19
FILE: 09 - Space time.flac
Size: 25264020 Hash: D8F68BAD5E99AA99A41A7D842FE40EC3 Accuracy: -m40
Conclusion: CDDA 100%
Signature: 146C531B800878BAB37DE9BD65C03C0FBDC43EB9
FILE: 08 - Connection breakdown.flac
Size: 30127091 Hash: 9387A0E6E6A5A4106FB55F2C01D673D1 Accuracy: -m40
Conclusion: CDDA 100%
Signature: CC4DC4E2B7B660578BA7A3490477207045D79127
FILE: 07 - Inner world.flac
Size: 25547174 Hash: B5881FE312ECC084BD4387F713A37A16 Accuracy: -m40
Conclusion: CDDA 100%
Signature: 4C6D4760E11A04EF9C38ADCF32EE2D6C3953E01B
FILE: 06 - Blue nebula.flac
Size: 30203908 Hash: 2511EBF84F200CC422007F1B54FE0D53 Accuracy: -m40
Conclusion: CDDA 99%
Signature: F8A2B0DC009017DD5CDD251DCA9F266E425245DE
FILE: 05 - Epicycle.flac
Size: 33454860 Hash: BDB25D2FA3FC38F20A03814E83A80205 Accuracy: -m40
Conclusion: CDDA 100%
Signature: 66196F47FE46798FA9AC3FA70EFA95A5A4E3B86A
FILE: 04 - Seed of light.flac
Size: 25301996 Hash: F4A2667755D667299EC3B6344408F66D Accuracy: -m40
Conclusion: CDDA 100%
Signature: C9E56883644D3B55578A1BA5AD4F7F2802F1D382
FILE: 03 - Childhood dream.flac
Size: 24210141 Hash: 5BF94AD940DF8F4B2AD4D381F303DFD1 Accuracy: -m40
Conclusion: CDDA 100%
Signature: E44F8BF413C2DCF88D4405051F8ABA5489346001
FILE: 02 - Cosmic blossom.flac
Size: 27818839 Hash: B6973193ABACEFD69211CE51BAA62FE1 Accuracy: -m40
Conclusion: CDDA 100%
Signature: FDDC4A559537DFED3FF6569C984F8C69385A4820
FILE: 01 - Fly away.flac
Size: 26226793 Hash: CEEA125F59BB7A10A76303DF940F46EE Accuracy: -m40
Conclusion: CDDA 100%
Signature: 55B6845D13B57B81CBB02C36006EB7CC34731B9D

admin

Post 27-May-2022 02:58

[Quote]

Название: Continuo
Исполнитель: Anderes Holz
Год: 2022
Жанр: Progressive-Rock
Страна: Germany
Продолжительность: 00:37:40
Формат/Кодек: FLAC
Битрейт аудио: Lossless

Трек-лист

01. Sifr 07:12
02. Morgenwelt 03:44
03. Stereo Indigo 04:00
04. Fase 02:34
05. Globus 06:08
06. Neume 02:15
07. Schwan 03:33
08. Buto 02:25
09. Copor 03:32
10. Philia 02:13

log

DON'T MODIFY THIS FILE
-----------------------
PERFORMER: auCDtect Task Manager, ver. 1.6.0 RC1 build 1.6.0.1
Copyright (c) 2008-2010 y-soft. All rights reserved
http://y-soft.org
ANALYZER: auCDtect: CD records authenticity detector, version 0.8.2
Copyright (c) 2004 Oleg Berngardt. All rights reserved.
Copyright (c) 2004 Alexander Djourik. All rights reserved.
FILE: 10 - Philia.flac
Size: 11624949 Hash: 71211DF8C46C734E666EA98972AA9A7B Accuracy: -m40
Conclusion: CDDA 100%
Signature: 8232FF11A27B8EF4F1283B42631835DBA2909F2B
FILE: 09 - copor.flac
Size: 28876598 Hash: 1211510C5A99D5C2B7573659A284801E Accuracy: -m40
Conclusion: CDDA 100%
Signature: A147E63DB00E38E3100BA9B93AE5CB587633DF82
FILE: 08 - Buto.flac
Size: 16870055 Hash: 262FC5B18119E6783E0FA6766D13834A Accuracy: -m40
Conclusion: CDDA 100%
Signature: E1843C8BB0B37CCA6B1D603E86A4EC7122A87672
FILE: 07 - Schwan.flac
Size: 24822747 Hash: 4696E431B5C81DFA197ED8FAC6C639A6 Accuracy: -m40
Conclusion: CDDA 100%
Signature: FF7AE285BD6A6E70E3DFD695A3DD50474F3210D5
FILE: 06 - Neume.flac
Size: 12112521 Hash: 5D2A8F6C942142E8CFC5157EC5737AD6 Accuracy: -m40
Conclusion: CDDA 100%
Signature: 470165979482ED22FE0A7D04C72E58756F9C362B
FILE: 05 - Globus.flac
Size: 46689352 Hash: 4385AF35155EA16B83C049073FDB15D7 Accuracy: -m40
Conclusion: CDDA 100%
Signature: C66E881FFAADAFF9F09B06908520D2085A51B2F0
FILE: 04 - Fase.flac
Size: 14188225 Hash: BE00045497C56B576E266269C4006C43 Accuracy: -m40
Conclusion: CDDA 100%
Signature: 85F45BDFDBE67ECDEDCA02E2C664BA14360F7769
FILE: 03 - Stereo Indigo.flac
Size: 29379911 Hash: 753AB2412801E0A6C464BA57D42D9F6D Accuracy: -m40
Conclusion: CDDA 100%
Signature: B3DE85922947F53F43EA5030CF6A86DF33FD638D
FILE: 02 - Morgenwelt.flac
Size: 28633489 Hash: 7A5EDF2E7188C1E014FED14F7785EAAC Accuracy: -m40
Conclusion: CDDA 100%
Signature: C905EE4E38CCBF6ED1A7AA00B6DBA6A6FB042BCD
FILE: 01 - Sfr.flac
Size: 51026727 Hash: 23CA71132B810E55D4D1236B3F48BAD5 Accuracy: -m40
Conclusion: CDDA 100%
Signature: B26CB940218F105CD752163D9E0EEB81E7327073

admin

Post 13-May-2022 12:38

[Quote]

Название: Dissolution
Исполнитель: The Pineapple Thief
Год: 2018
Жанр: Progressive-Rock
Страна: United Kingdom
Продолжительность: 01:13:12
Формат/Кодек: FLAC
Тип рипа: Image+.cue
Битрейт аудио: Lossless
Носитель: CD

Трек-лист

CD 1:
01. Not Naming Any Names
02. Try As I Might
03. Threatening War
04. Uncovering Your Tracks
05. All That You've Got
06. Far Below
07. Pillar Of Salt
08. White Mist
09. Shed A Light
CD 2:
01. Try As I Might (Alt)
02. Threatening War (Alt)
03. Far Below (Alt)
04. Not Naming Any Names (Alt)
05. White Mist (Alt)
06. Shed A Light (Alt)
07. Am I Better Now?

admin

Post 13-May-2022 12:37

[Quote]

Название: Nothing But The Truth
Исполнитель: The Pineapple Thief
Год: 2021
Жанр: Progressive-Rock
Страна: United Kingdom
Продолжительность: 01:30:57
Формат/Кодек: FLAC
Тип рипа: Tracks
Битрейт аудио: Lossless

Трек-лист

01. Versions of the Truth (5:40)
02. In Exile (5:00)
03. Warm Seas (4:01)
04. Our Mire (7:19)
05. Build a World (3:42)
06. Demons (4:30)
07. Driving Like Maniacs (3:30)
08. Someone Pull Me Out (4:02)
09. Uncovering Your Tracks (4:28)
10. Break It All (4:18)
11. White Mist (9:48)
12. Out of Line (3:58)
13. Wretched Soul (5:24)
14. Far Below (4:35)
15. Threatening War (6:38)
16. The Swell (4:18)
17. The Final Thing on My Mind (9:46)

Лог проверки качества
-----------------------
DON'T MODIFY THIS FILE
-----------------------
PERFORMER: auCDtect Task Manager, ver. 1.6.0 RC1 build 1.6.0.1
Copyright (c) 2008-2010 y-soft. All rights reserved
http://y-soft.org
ANALYZER: auCDtect: CD records authenticity detector, version 0.8.2
Copyright (c) 2004 Oleg Berngardt. All rights reserved.
Copyright (c) 2004 Alexander Djourik. All rights reserved.
FILE: 17. The Pineapple Thief - The Final Thing on My Mind (Nothing But The Truth).flac
Size: 60319720 Hash: 05D91E1F526B77495325A7A8FF871545 Accuracy: -m0
Conclusion: CDDA 99%
Signature: 14E3A8252E9CC2C40521D0E72BFB54C7D62F928F
FILE: 16. The Pineapple Thief - The Swell (Nothing But The Truth).flac
Size: 27179443 Hash: F6F0A863BF99B00889841B20E8A84819 Accuracy: -m0
Conclusion: CDDA 99%
Signature: E6AA851ADDAF87A7965E5B678C21043F32572137
FILE: 15. The Pineapple Thief - Threatening War (Nothing But The Truth).flac
Size: 43498958 Hash: 1A252D249A04528C80B2DDE0FF120BF1 Accuracy: -m0
Conclusion: CDDA 100%
Signature: 9E79BB6AC55A7001E65BF3503D9152CFDEC50F4E
FILE: 14. The Pineapple Thief - Far Below (Nothing But The Truth).flac
Size: 31173237 Hash: D3FEEF10F4598732AEA47AC3093F18E7 Accuracy: -m0
Conclusion: CDDA 100%
Signature: 3CBAD567405F20E2FC4456FBB90149AF0592BD23
FILE: 13. The Pineapple Thief - Wretched Soul (Nothing But The Truth).flac
Size: 36422439 Hash: 7069A0D30BB95558FF235810B10EB393 Accuracy: -m0
Conclusion: CDDA 100%
Signature: ABB1D88D568F10E8D455E6A7C57A4181CEAE190D
FILE: 12. The Pineapple Thief - Out of Line (Nothing But The Truth).flac
Size: 24460495 Hash: F4FE93E95BC130F9402BE8EEEE1BDD01 Accuracy: -m0
Conclusion: CDDA 100%
Signature: F9BBF23A7077643E1BB0B03C810F309EDAA8443A
FILE: 11. The Pineapple Thief - White Mist (Nothing But The Truth).flac
Size: 65312628 Hash: 6C1B6287F7D505B0BD0DAEE6A9143983 Accuracy: -m0
Conclusion: CDDA 100%
Signature: 2327EBB4714D76C1D084C45DA3BF4BAA6BC177E5
FILE: 10. The Pineapple Thief - Break It All (Nothing But The Truth).flac
Size: 29687965 Hash: 117137591C6E895967A23358E32345E5 Accuracy: -m0
Conclusion: CDDA 100%
Signature: 86FCE14CE1A8333C533D8C521BE3E68D96763E10
FILE: 09. The Pineapple Thief - Uncovering Your Tracks (Nothing But The Truth).flac
Size: 30641901 Hash: B4B65EF3F6BE9E7DC68F4F45F4A0E5E0 Accuracy: -m0
Conclusion: CDDA 100%
Signature: EB556C5979A885AB6C721B43CAB1A37CA325548A
FILE: 08. The Pineapple Thief - Someone Pull Me Out (Nothing But The Truth).flac
Size: 24677608 Hash: DEC55EB70263A09B47A0290A61499D17 Accuracy: -m0
Conclusion: CDDA 100%
Signature: 5C5B81EC72D97364AFC0506AA6A2B228D8B62983
FILE: 07. The Pineapple Thief - Driving Like Maniacs (Nothing But The Truth).flac
Size: 20434919 Hash: 3A8EDD16A099191A5CB31A282420005C Accuracy: -m0
Conclusion: CDDA 100%
Signature: E3A86003D17A03E69B62F47EF73E6C95BD3303DD
FILE: 06. The Pineapple Thief - Demons (Nothing But The Truth).flac
Size: 28500671 Hash: B324E5524263F635BA84FF16730B15CE Accuracy: -m0
Conclusion: CDDA 100%
Signature: 4B83ABC1B91F5AA9B43C560A45B2B91DE2359971
FILE: 05. The Pineapple Thief - Build a World (Nothing But The Truth).flac
Size: 22095520 Hash: 34A0DA7902AA3DCCC73EE0E142A489A1 Accuracy: -m0
Conclusion: CDDA 100%
Signature: 6D2934355EB7F35D62E0097EA3F7593190F865EB
FILE: 04. The Pineapple Thief - Our Mire (Nothing But The Truth).flac
Size: 48684341 Hash: ED3219A87275F38A44C23CE2BE33BF67 Accuracy: -m0
Conclusion: CDDA 100%
Signature: 42B77E33A0E581AF2A2C3B6B90BEFACD1DF6EE67
FILE: 03. The Pineapple Thief - Warm Seas (Nothing But The Truth).flac
Size: 24929548 Hash: 350584068D4285F31887DD338004FFDD Accuracy: -m0
Conclusion: CDDA 100%
Signature: 99C84C71FCB52EE8BD812E40120C9EAEBD25019B
FILE: 02. The Pineapple Thief - In Exile (Nothing But The Truth).flac
Size: 33468965 Hash: D90FEC8EAC8A81F67CBCF2B9790CC221 Accuracy: -m0
Conclusion: CDDA 100%
Signature: F9361D0E00F5BDD957DDDCEED28DFA11D349D359
FILE: 01. The Pineapple Thief - Versions of the Truth (Nothing But The Truth).flac
Size: 34068847 Hash: 0FAA97E640B5AB54EA8C9E338B2D914A Accuracy: -m0
Conclusion: CDDA 99%
Signature: 4915D4261B86AC6EB4DB2554A50E898E6777B1B3

admin

Post 13-May-2022 12:31

[Quote]

Название: Give It Back
Исполнитель: The Pineapple Thief
Год: 2022
Жанр: Progressive-Rock
Страна: United Kingdom
Продолжительность: 00:54:05
Формат/Кодек: FLAC
Тип рипа: Tracks
Битрейт аудио: Lossless
Разрядность: 24 Bit/96 kHz
Носитель: WEB

Трек-лист

01. Wretched Soul (5:27)
02. Dead in the Water (4:45)
03. Give It Back (6:20)
04. Build a World (3:43)
05. Start Your Descent (4:23)
06. 137 (5:05)
07. Shoot First (3:44)
08. Boxing Day (3:27)
09. Warm Seas (4:00)
10. Someone Pull Me Out (4:01)
11. Last Man Standing (5:17)
12. Little Man (3:53)

DRM
foobar2000 1.6.9 / Dynamic Range Meter 1.1.1
--------------------------------------------------------------------------------
Analyzed: The Pineapple Thief / Give It Back (Rewired)
--------------------------------------------------------------------------------
DR Peak RMS Duration Track
--------------------------------------------------------------------------------
DR9 -1.00 dB -12.75 dB 5:27 01-Wretched Soul
DR10 -1.00 dB -14.29 dB 4:45 02-Dead in the Water
DR9 -1.00 dB -12.70 dB 6:20 03-Give It Back
DR11 -1.00 dB -15.17 dB 3:43 04-Build a World
DR11 -1.00 dB -14.17 dB 4:23 05-Start Your Descent
DR10 -1.00 dB -13.62 dB 5:05 06-137
DR9 -1.00 dB -13.43 dB 3:44 07-Shoot First
DR11 -1.00 dB -14.48 dB 3:27 08-Boxing Day
DR10 -1.00 dB -13.94 dB 4:00 09-Warm Seas
DR9 -1.00 dB -13.98 dB 4:01 10-Someone Pull Me Out
DR9 -1.00 dB -14.72 dB 5:17 11-Last Man Standing
DR11 -1.00 dB -16.06 dB 3:53 12-Little Man
--------------------------------------------------------------------------------
Number of tracks: 12
Official DR value: DR10
Samplerate: 96000 Hz
Channels: 2
Bits per sample: 24
Bitrate: 2516 kbps
Codec: FLAC
================================================================================
 

Current time is: 28-Jun 16:21

All times are UTC + 3