Search found 57 matches

Author Message

admin

Post 07-May-2022 01:38

[Quote]

Название: We
Исполнитель: Arcade Fire
Год: 2022
Жанр: Folk-Rock, Dance-Pop
Страна: Canada
Продолжительность: 00:40:18
Формат/Кодек: FLAC
Тип рипа: Tracks
Битрейт аудио: Lossless
Разрядность: 24 Bit/96 kHz
Носитель: WEB

Трек-лист

01. Age of Anxiety I (5:27)
02. Age of Anxiety II (Rabbit Hole) (6:41)
03. Prelude (0:30)
04. End of The Empire I-III (5:23)
05. End of the Empire IV (Sagittarius A*) (3:54)
06. The Lightning I (3:01)
07. The Lightning II (2:35)
08. Unconditional I (Lookout Kid) (4:34)
09. Unconditional II (Race and Religion) (4:21)
10. WE (3:52)

DRM
foobar2000 1.6.9 / Dynamic Range Meter 1.1.1
--------------------------------------------------------------------------------
Analyzed: Arcade Fire / WE
--------------------------------------------------------------------------------
DR Peak RMS Duration Track
--------------------------------------------------------------------------------
DR8 -0.15 dB -12.29 dB 5:27 01-Age of Anxiety I
DR8 -0.15 dB -10.32 dB 6:41 02-Age of Anxiety II (Rabbit Hole)
DR13 -5.32 dB -23.80 dB 0:30 03-Prelude
DR8 -0.15 dB -10.97 dB 5:23 04-End of The Empire I-III
DR10 -0.15 dB -13.64 dB 3:54 05-End of the Empire IV (Sagittarius A*)
DR10 -0.35 dB -12.86 dB 3:01 06-The Lightning I
DR7 -0.35 dB -8.90 dB 2:35 07-The Lightning II
DR9 -0.15 dB -11.30 dB 4:34 08-Unconditional I (Lookout Kid)
DR9 -0.15 dB -11.13 dB 4:21 09-Unconditional II (Race and Religion)
DR9 -0.15 dB -13.62 dB 3:52 10-WE
--------------------------------------------------------------------------------
Number of tracks: 10
Official DR value: DR9
Samplerate: 96000 Hz
Channels: 2
Bits per sample: 24
Bitrate: 2604 kbps
Codec: FLAC
================================================================================

admin

Post 30-Apr-2022 01:32

[Quote]

Название: Marchen & Mythen
Исполнитель: Faun
Год: 2019
Жанр: Folk Rock
Страна: Germany
Продолжительность: 01:04:17
Формат/Кодек: FLAC
Битрейт аудио: Lossless|WEB-DL

Трек-лист

01 - Es war einmal
02 - Rosenrot
03 - Seemann
04 - Hagazussa
05 - Sieben Raben
06 - Aschenbrödel
07 - Die weisse Dame
08 - Jorinde
09 - Spieglein, Spieglein
10 - Drei Wanderer (feat. Versengold)
11 - Holla
12 - The Lily
13 - Falada
14 - Thalia
15 - Sieben Raben (Acoustic)

admin

Post 30-Apr-2022 01:31

[Quote]

Название: Midgard
Исполнитель: Faun
Год: 2016
Жанр: Folk Rock
Страна: Germany [We Love Music - 06025 5701218]
Продолжительность: 01:06:55
Формат/Кодек: FLAC
Битрейт аудио: Lossless / tracks + .cue

Трек-лист

01. Midgard Prolog
02. Federkleid
03. Sonnenreigen (Lughnasad)
04. Alba II Intro
05. Alba II
06. Nacht des Nordens
07. MacBeth
08. Gold und Seide
09. Brandan
10. Odin
11. Rabenballade
12. Lange Schatten
13. Aufbruch
14. Alswinn
15. Räven

EAC

Exact Audio Copy V1.3 from 2. September 2016
EAC extraction logfile from 27. August 2018, 11:59
Faun / Midgard
Used drive : TSSTcorpCDDVDW SE-208DB Adapter: 1 ID: 1
Read mode : Secure
Utilize accurate stream : Yes
Defeat audio cache : Yes
Make use of C2 pointers : No
Read offset correction : 6
Overread into Lead-In and Lead-Out : No
Fill up missing offset samples with silence : Yes
Delete leading and trailing silent blocks : No
Null samples used in CRC calculations : Yes
Used interface : Native Win32 interface for Win NT & 2000
Gap handling : Appended to previous track
Used output format : User Defined Encoder
Selected bitrate : 1024 kBit/s
Quality : High
Add ID3 tag : No
Command line compressor : E:BibliothèquesMusicCodecsflac-1.3.2-winwin64flac.exe
Additional command line options : -8 -V -T "ARTIST=%artist%" -T "TITLE=%title%" -T "ALBUM=%albumtitle%" -T "DATE=%year%" -T "TRACKNUMBER=%tracknr%" -T "GENRE=%genre%" -T "PERFORMER=%albuminterpret%" -T "COMPOSER=%composer%" %haslyrics%--tag-from-file=LYRICS="%lyricsfile%"%haslyrics% -T "ALBUMARTIST=%albumartist%" -T "DISCNUMBER=%cdnumber%" -T "TOTALDISCS=%totalcds%" -T "TOTALTRACKS=%numtracks%" -T "COMMENT=%comment%" %source% -o %dest%
TOC of the extracted CD
Track | Start | Length | Start sector | End sector
---------------------------------------------------------
1 | 0:00.00 | 0:50.59 | 0 | 3808
2 | 0:50.59 | 4:42.57 | 3809 | 25015
3 | 5:33.41 | 3:54.13 | 25016 | 42578
4 | 9:27.54 | 1:50.13 | 42579 | 50841
5 | 11:17.67 | 6:11.27 | 50842 | 78693
6 | 17:29.19 | 5:34.56 | 78694 | 103799
7 | 23:04.00 | 5:56.72 | 103800 | 130571
8 | 29:00.72 | 4:35.24 | 130572 | 151220
9 | 33:36.21 | 3:58.08 | 151221 | 169078
10 | 37:34.29 | 5:58.05 | 169079 | 195933
11 | 43:32.34 | 5:03.55 | 195934 | 218713
12 | 48:36.14 | 3:33.33 | 218714 | 234721
13 | 52:09.47 | 4:54.01 | 234722 | 256772
14 | 57:03.48 | 3:47.04 | 256773 | 273801
15 | 60:50.52 | 6:04.41 | 273802 | 301142
Track 1
Filename E:BibliothèquesMusicMusiqueFaun2016 - Midgard - FLAC�1. Midgard Prolog.wav
Pre-gap length 0:00:02.00
Peak level 93.1 %
Extraction speed 1.0 X
Track quality 99.7 %
Test CRC 6D7A7C2D
Copy CRC 6D7A7C2D
Accurately ripped (confidence 26) [3B516B26] (AR v2)
Copy OK
Track 2
Filename E:BibliothèquesMusicMusiqueFaun2016 - Midgard - FLAC�2. Federkleid.wav
Peak level 95.1 %
Extraction speed 2.8 X
Track quality 100.0 %
Test CRC 9E704A80
Copy CRC 9E704A80
Accurately ripped (confidence 26) [EA14BA2B] (AR v2)
Copy OK
Track 3
Filename E:BibliothèquesMusicMusiqueFaun2016 - Midgard - FLAC�3. Sonnenreigen (Lughnasad).wav
Peak level 95.1 %
Extraction speed 3.0 X
Track quality 100.0 %
Test CRC E21F6F8F
Copy CRC E21F6F8F
Accurately ripped (confidence 26) [72119EA9] (AR v2)
Copy OK
Track 4
Filename E:BibliothèquesMusicMusiqueFaun2016 - Midgard - FLAC�4. Alba II Intro.wav
Peak level 40.1 %
Extraction speed 2.7 X
Track quality 100.0 %
Test CRC 8632710A
Copy CRC 8632710A
Accurately ripped (confidence 26) [7AA2F749] (AR v2)
Copy OK
Track 5
Filename E:BibliothèquesMusicMusiqueFaun2016 - Midgard - FLAC�5. Alba II.wav
Peak level 95.1 %
Extraction speed 3.6 X
Track quality 100.0 %
Test CRC 8BAABD52
Copy CRC 8BAABD52
Accurately ripped (confidence 26) [76580F2C] (AR v2)
Copy OK
Track 6
Filename E:BibliothèquesMusicMusiqueFaun2016 - Midgard - FLAC�6. Nacht des Nordens.wav
Peak level 95.1 %
Extraction speed 3.9 X
Track quality 100.0 %
Test CRC 363B767D
Copy CRC 363B767D
Accurately ripped (confidence 26) [52B1EB01] (AR v2)
Copy OK
Track 7
Filename E:BibliothèquesMusicMusiqueFaun2016 - Midgard - FLAC�7. Mac Beth.wav
Peak level 95.1 %
Extraction speed 4.2 X
Track quality 100.0 %
Test CRC 4F3D2DDE
Copy CRC 4F3D2DDE
Accurately ripped (confidence 26) [4C1301EE] (AR v2)
Copy OK
Track 8
Filename E:BibliothèquesMusicMusiqueFaun2016 - Midgard - FLAC�8. Gold & Seide.wav
Peak level 95.1 %
Extraction speed 4.3 X
Track quality 100.0 %
Test CRC E94E31BC
Copy CRC E94E31BC
Accurately ripped (confidence 26) [E0E3D59D] (AR v2)
Copy OK
Track 9
Filename E:BibliothèquesMusicMusiqueFaun2016 - Midgard - FLAC�9. Brandan.wav
Peak level 95.1 %
Extraction speed 4.4 X
Track quality 100.0 %
Test CRC 34ED3A59
Copy CRC 34ED3A59
Accurately ripped (confidence 26) [19D99995] (AR v2)
Copy OK
Track 10
Filename E:BibliothèquesMusicMusiqueFaun2016 - Midgard - FLAC10. Odin.wav
Peak level 95.1 %
Extraction speed 4.7 X
Track quality 100.0 %
Test CRC C0112361
Copy CRC C0112361
Accurately ripped (confidence 26) [AC48B66D] (AR v2)
Copy OK
Track 11
Filename E:BibliothèquesMusicMusiqueFaun2016 - Midgard - FLAC11. Rabenballade.wav
Peak level 95.1 %
Extraction speed 4.8 X
Track quality 100.0 %
Test CRC BE889501
Copy CRC BE889501
Accurately ripped (confidence 26) [684802E8] (AR v2)
Copy OK
Track 12
Filename E:BibliothèquesMusicMusiqueFaun2016 - Midgard - FLAC12. Lange Schatten.wav
Peak level 95.1 %
Extraction speed 3.7 X
Track quality 99.9 %
Test CRC F1FAF4DC
Copy CRC F1FAF4DC
Accurately ripped (confidence 26) [EB87C44F] (AR v2)
Copy OK
Track 13
Filename E:BibliothèquesMusicMusiqueFaun2016 - Midgard - FLAC13. Aufbruch.wav
Peak level 94.4 %
Extraction speed 5.1 X
Track quality 100.0 %
Test CRC 9B8AF1A8
Copy CRC 9B8AF1A8
Accurately ripped (confidence 26) [650241E8] (AR v2)
Copy OK
Track 14
Filename E:BibliothèquesMusicMusiqueFaun2016 - Midgard - FLAC14. Alswinn.wav
Peak level 94.6 %
Extraction speed 4.0 X
Track quality 99.9 %
Test CRC FA9FEFE5
Copy CRC FA9FEFE5
Accurately ripped (confidence 26) [7FFDFAD0] (AR v2)
Copy OK
Track 15
Filename E:BibliothèquesMusicMusiqueFaun2016 - Midgard - FLAC15. Raven.wav
Peak level 94.8 %
Extraction speed 4.7 X
Track quality 99.9 %
Test CRC B87F404A
Copy CRC B87F404A
Accurately ripped (confidence 26) [2CDAB779] (AR v2)
Copy OK
All tracks accurately ripped
No errors occurred
End of status report
---- CUETools DB Plugin V2.1.6
[CTDB TOCID: heNdMRdFjzQ0J4aCJCEhHMt3gnY-] found
Submit result: heNdMRdFjzQ0J4aCJCEhHMt3gnY- has been confirmed
Track | CTDB Status
1 | (140/140) Accurately ripped
2 | (140/140) Accurately ripped
3 | (140/140) Accurately ripped
4 | (140/140) Accurately ripped
5 | (140/140) Accurately ripped
6 | (140/140) Accurately ripped
7 | (140/140) Accurately ripped
8 | (140/140) Accurately ripped
9 | (140/140) Accurately ripped
10 | (139/140) Accurately ripped
11 | (140/140) Accurately ripped
12 | (140/140) Accurately ripped
13 | (140/140) Accurately ripped
14 | (140/140) Accurately ripped
15 | (140/140) Accurately ripped
==== Log checksum 7DC61A21534475808D378C7BAC1FF9F86042F33CAC3CD7B6D8EC2B7E84AA10CB ====

admin

Post 30-Apr-2022 01:29

[Quote]

Название: Pagan
Исполнитель: Faun
Год: 2022
Жанр: Folk Rock
Страна: Germany
Продолжительность: 01:01:17
Формат/Кодек: FLAC
Битрейт аудио: Lossless|WEB-DL

Трек-лист

01. Galdra (6:10)
02. Halloween (3:54)
03. Gwydion (3:59)
04. Wainamoinen (4:02)
05. Tamlin (5:50)
06. Neun Welten (4:13)
07. Lord Randal (2:13)
08. Innisfree (4:27)
09. Ran (4:38)
10. Baldur (3:38)
11. Caer (4:08)
12. Willow Tree (4:08)
13. Zeit der Raben (3:36)
14. Anagin (2:07)
15. Liam (4:14)

admin

Post 08-Apr-2022 04:02

[Quote]

Название: Alluvion
Исполнитель: Emily Jane White
Год: 2022
Жанр: Neo-Folk, Indie-Pop
Страна: USA
Лейбл: TALITRES
Продолжительность: 00:43:42
Формат/Кодек: FLAC
Битрейт аудио: Lossless

Трек-лист

01 - Show Me the War (00:03:45)
02 - Crepuscule (00:04:55)
03 - Heresy (00:03:42)
04 - Poisoned (00:03:52)
05 - Body Against the Gun (00:04:17)
06 - The Hands Above Me (00:03:43)
07 - Mute Swan (00:04:26)
08 - Hold Them Alive (00:04:06)
09 - Hollow Hearth (00:03:50)
10 - I Spent the Years Frozen (00:03:17)
11 - Battle Call (00:03:43)

Log

DON'T MODIFY THIS FILE
-----------------------
PERFORMER: auCDtect Task Manager, ver. 1.6.0 RC1 build 1.6.0.1
Copyright (c) 2008-2010 y-soft. All rights reserved
http://y-soft.org
ANALYZER: auCDtect: CD records authenticity detector, version 0.8.2
Copyright (c) 2004 Oleg Berngardt. All rights reserved.
Copyright (c) 2004 Alexander Djourik. All rights reserved.
FILE: 11 - Battle Call.flac
Size: 24289774 Hash: CAFDC35181C4A75F9D9420BD6C3C39EE Accuracy: -m40
Conclusion: CDDA 100%
Signature: C568CB003CECFCC07B025F1E1C2926D4396C8DFC
FILE: 10 - I Spent the Years Frozen.flac
Size: 23466552 Hash: D4B60A36E4AD37EE04CAFF776552B50D Accuracy: -m40
Conclusion: CDDA 100%
Signature: C78324BA0A5E54998965608A6C050CE8E5C600B4
FILE: 09 - Hollow Hearth.flac
Size: 24875489 Hash: 4046DA71B9E5C2B82EB779F62EB77150 Accuracy: -m40
Conclusion: CDDA 100%
Signature: C8E2A3B081A1D4D4617780A9299548F6B6F206FD
FILE: 08 - Hold Them Alive.flac
Size: 25927114 Hash: 4AABF8771FFA824E403455A23E81770C Accuracy: -m40
Conclusion: CDDA 100%
Signature: 6B25B2CAD829068F4EF33B62315C2AB8F65A57A8
FILE: 07 - Mute Swan.flac
Size: 30414779 Hash: BEBC62888C6B959695FA648CC41887B6 Accuracy: -m40
Conclusion: CDDA 100%
Signature: 0B3C50623D8365B92230EF92BC741EF2DC8B130D
FILE: 06 - The Hands Above Me.flac
Size: 25683076 Hash: 2FEB04DF00E0C320DB9F0CA50DD71FB5 Accuracy: -m40
Conclusion: CDDA 100%
Signature: BCD3F80DCB6CE005290AAEAB1821465F0DDA10B6
FILE: 05 - Body Against the Gun.flac
Size: 28483794 Hash: 4A5D1162D5CE36D1997A3F951D82D2E5 Accuracy: -m40
Conclusion: CDDA 100%
Signature: 64953BB46B5C998F7F073CCB8CC82112CD1E6845
FILE: 04 - Poisoned.flac
Size: 25834261 Hash: 69084D6E184B0A1D5C2C8FB9FBE5A097 Accuracy: -m40
Conclusion: CDDA 100%
Signature: E24D4967049E5EE75663F42DD33317F221130434
FILE: 03 - Heresy.flac
Size: 22237947 Hash: B9702A6A5117D285C7D8721EE8F0E026 Accuracy: -m40
Conclusion: CDDA 100%
Signature: 7838C3EBA2B115BDF528F1B3D2E27B573AE1CF09
FILE: 02 - Crepuscule.flac
Size: 34909224 Hash: 0BFCDF6F6C1DA873345C913388FF3178 Accuracy: -m40
Conclusion: CDDA 100%
Signature: 938309D3586B28A6EE31C19A20E3C871E67DD7A2
FILE: 01 - Show Me the War.flac
Size: 25030814 Hash: 0F409CB911665F5EFB71C479AEBE8821 Accuracy: -m40
Conclusion: CDDA 100%
Signature: 07411832818E2589C09631EEE20EF1FFDA99FF56

admin

Post 07-Apr-2022 05:55

[Quote]

Название: The Times They Are A-Changin'
Исполнитель: Bob Dylan
Год: 1964/2015
Жанр: Folk-Rock
Страна: USA
Продолжительность: 00:45:41
Формат/Кодек: FLAC
Тип рипа: Tracks
Битрейт аудио: Lossless
Разрядность: 24 Bit/192 kHz | Mono
Носитель: WEB

Трек-лист

01. The Times They Are A-Changin' (03:17)
02. Ballad of Hollis Brown (05:07)
03. With God on Our Side (07:09)
04. One Too Many Mornings (02:42)
05. North Country Blues (04:36)
06. Only a Pawn in Their Game (03:32)
07. Boots of Spanish Leather (04:40)
08. When the Ship Comes In (03:18)
09. The Lonesome Death of Hattie Carroll (05:48)
10. Restless Farewell (05:32)

DRM
foobar2000 1.4.6 / Dynamic Range Meter 1.1.1
--------------------------------------------------------------------------------
Analyzed: Bob Dylan / The Times They Are A-Changin'
--------------------------------------------------------------------------------
DR Peak RMS Duration Track
--------------------------------------------------------------------------------
DR10 -0.25 dB -13.01 dB 3:17 01-The Times They Are A-Changin'
DR10 -0.25 dB -14.27 dB 5:07 02-Ballad of Hollis Brown
DR11 -0.36 dB -13.93 dB 7:10 03-With God on Our Side
DR14 -1.11 dB -18.08 dB 2:42 04-One Too Many Mornings
DR10 -0.91 dB -14.70 dB 4:37 05-North Country Blues
DR11 -0.25 dB -13.87 dB 3:33 06-Only a Pawn in Their Game
DR11 -1.12 dB -16.35 dB 4:40 07-Boots of Spanish Leather
DR11 -0.54 dB -14.15 dB 3:18 08-When the Ship Comes In
DR13 -0.25 dB -15.86 dB 5:49 09-The Lonesome Death of Hattie Carroll
DR12 -0.79 dB -16.26 dB 5:33 10-Restless Farewell
--------------------------------------------------------------------------------
Number of tracks: 10
Official DR value: DR11
Samplerate: 192000 Hz
Channels: 2
Bits per sample: 24
Bitrate: 6963 kbps
Codec: FLAC
================================================================================

admin

Post 28-Mar-2022 03:29

[Quote]

Название: Jan Juc Moon
Исполнитель: Xavier Rudd
Год: 2022
Жанр: Folk-Rock
Страна: Australia
Продолжительность: 01:09:48
Формат/Кодек: MP3
Битрейт аудио: 320 kbps

Трек-лист

01 I Am Eagle [00:04:53]
02 Jan Juc Moon [00:04:46]
03 Stoney Creek [00:04:37]
04 Great Divine [00:05:45]
05 Ball And Chain (feat. J-Milla) [00:04:54]
06 We Deserve To Dream [00:05:17]
07 The Window [00:05:44]
08 Slidin Down A Rainbow [00:04:28]
09 Dawn To Dusk [00:10:39]
10 Magic [00:04:28]
11 Angel At War [00:03:11]
12 The Calling [00:06:31]
13 Joanna [00:04:29]

admin

Post 17-Mar-2022 05:01

[Quote]

Название: VIII
Исполнитель: John Illsley
Год: 2022
Жанр: Folk-Rock
Страна: United Kingdom
Продолжительность: 00:42:18
Формат/Кодек: FLAC
Тип рипа: Tracks
Битрейт аудио: Lossless
Разрядность: 24 Bit/48 kHz
Носитель: WEB

Трек-лист

01. It's a Long Way Back (5:50)
02. I Love You Still (4:11)
03. 21st Century (5:21)
04. Market Town (4:56)
05. The Mission Song (5:01)
06. Wondering (4:25)
07. Which Way is Up (3:47)
08. None of This Was Planned (4:48)
09. I'm Only Sleeping (3:59)

DRM
foobar2000 1.6.9 / Dynamic Range Meter 1.1.1
--------------------------------------------------------------------------------
Analyzed: John Illsley / VIII
--------------------------------------------------------------------------------
DR Peak RMS Duration Track
--------------------------------------------------------------------------------
DR9 -1.00 dB -11.59 dB 5:50 01-It's a Long Way Back
DR10 -1.00 dB -12.66 dB 4:11 02-I Love You Still
DR11 -1.00 dB -13.81 dB 5:21 03-21st Century
DR10 -1.00 dB -13.43 dB 4:56 04-Market Town
DR10 -1.00 dB -12.10 dB 5:01 05-The Mission Song
DR11 -1.00 dB -13.30 dB 4:25 06-Wondering
DR10 -1.00 dB -12.76 dB 3:47 07-Which Way is Up
DR8 -1.00 dB -11.47 dB 4:48 08-None of This Was Planned
DR11 -1.00 dB -13.52 dB 3:59 09-I'm Only Sleeping
--------------------------------------------------------------------------------
Number of tracks: 9
Official DR value: DR10
Samplerate: 48000 Hz
Channels: 2
Bits per sample: 24
Bitrate: 1529 kbps
Codec: FLAC
================================================================================

admin

Post 05-Feb-2022 03:26

[Quote]

Название: In The Aftermath
Исполнитель: Hollis Brown
Год: 2022
Жанр: Roots-Rock, Folk
Страна: USA
Лейбл: Cool Green Recordings
Продолжительность: 00:39:59
Формат/Кодек: MP3
Битрейт аудио: 320 kbps

Трек-лист

01. Paint It Black [00:03:45]
02. Stupid Girl [00:02:54]
03. Lady Jane [00:04:09]
04. Under My Thumb [00:03:40]
05. Doncha Bother Me [00:02:34]
06. Think [00:03:17]
07. Flight 505 [00:03:00]
08. High and Dry [00:03:10]
09. It's Not Easy [00:03:07]
10. I Am Waiting [00:03:10]
11. Goin' Home [00:07:08]

admin

Post 17-Jan-2022 03:45

[Quote]

Название: Sentinel
Исполнитель: Syr
Год: 2022
Жанр: Folk, Celtic-Rock
Страна: USA
Лейбл: SYR
Продолжительность: 00:54:45
Формат/Кодек: MP3
Битрейт аудио: 320 kbps

Трек-лист

01. Isolation
02. Revenant
03. Tir N'aill
04. Specters
05. Sentinel
06. The Painted Ones
07. Baobhan Sith
08. Lay of the Ashes
09. Idistaviso
10. Oran Na Gaillinn
11. Albion II
12. Legacy
13. To Avalon

admin

Post 31-Aug-2021 23:03

[Quote]

Название: Forget~Me~Nots
Исполнитель: Dikajee
Год: 2021
Жанр: Progressive-Rock, Prog-Folk, Female-Vocal
Страна: Saint Petersburg, Russia
Продолжительность: 00:54:44
Формат/Кодек: MP3
Битрейт аудио: 320 Kbps

Трек-лист

01 - Forest [00:05:07]
02 - Lily Of The Valley (feat. Joao Filipe) [00:05:57]
03 - Millions Of Flashes [00:06:38]
04 - River Rite [00:07:13]
05 - Dead Garden (feat. Guillaume Bernard) [00:04:10]
06 - Misery [00:02:32]
07 - writer [00:03:11]
08 - Glorious Beautiful Magical [00:05:40]
09 - Gloomy Flowers Blooming (feat. Fiona Rüggeberg) [00:08:16]
10 - Something Mystique (to R.S.) [feat. Andreas Ulvo] [00:05:55]

admin

Post 15-Aug-2021 00:53

[Quote]

Название: The Changer And The Changed
Исполнитель: Cris Williamson
Год выпуска: 1993
Жанр: Folk Rock
Продолжительность: 00:43:05
О музыке: The Changer and the Changed - это не просто самый продаваемый альбом на лейбле Olivia Records и классика поджанра "женской музыки". Это блестящий альбом певицы и автора песен 70-х Крис Уильямсон. Простые, но богатые аранжировки противопоставляют великолепный голос и фортепиано Уильямсон струнным, флейте и безладовой бас-гитаре Жаклин Роббинс с нотками джаза, придавая альбому вневременной звук и полностью сосредотачиваясь на песнях и их элегантно-страстном исполнении Уильямсон.

Треклист

01. Waterfall
02. Hurts Like the Devil
03. Wild Things
04. Sweet Woman
05. Song of the Soul
06. Shooting Star
07. Dream Child
08. One of the Light
09. Having Been Touched (Tender Lady)
10. Sister
Формат: FLAC
Тип рипа: Tracks
Битрейт аудио: Lossless

admin

Post 13-Jul-2021 02:42

[Quote]

Название: Across The Great Divide. Getting It Together In The Country 1968-74 [3 CD]
Исполнитель: VA
Год: 2019
Жанр: Folk Rock
Продолжительность: 03:55:59
Формат/Кодек: MP3
Битрейт аудио: 320kbps

Трек-лист

CD1 Teatime On The Trail
01. Heads Hands & Feet - Warming Up The Band
02. Fairport Convention - Cajun Woman
03. Mott The Hoople - Home Is Where I Want To Be
04. Mighty Baby - Devils Whisper
05. Chilli Willi & The Red Hot Peppers - Desert Island Woman
06. Shape Of The Rain - Willowing Trees
07. Tony Hazzard - Abbot Of The Vale
08. The Hollies - Louisiana Man
09. Mason - Fading
10. Unicorn - Sleep Song
11. Open Road - Boy Youve Got The Sun In Your Eyes
12. The Marmalade - Cousin Norman
13. Richmond - Clifftop
14. Starry Eyed And Laughing - Lady Came From The South
15. Stray - Oil Fumes And Sea Air
16. Rare Bird - Redman
17. The Sutherland Brothers Band - The Pie
18. Matthews' Southern Comfort - Touch Her If You Can
19. Quicksand - Empty Street Empty Heart
20. Faces - Ooh La La
CD2 Before The Goldrush
01. Brinsley Schwarz - Country Girl
02. McGuinness Flint - When Im Dead And Gone
03. Traffic - Forty Thousand Headmen
04. Bronco - New Day Avenue
05. Tranquility - Try Again
06. Cochise - Velvet Mountain
07. Procol Harum - A Souvenir Of London
08. The Deep Set - Cinnamon Girl
09. Stephen Jameson - Day The World Ran Away
10. Byzantium - I ll Just Take My Time
11. High Broom - Its A Way To Pass The Time
12. Holy Mackerel - Going To The Country
13. Montage - Liquor Man
14. Shelagh McDonald - Jesus Is Just Alright
15. Grannys Intentions - We Both Need To Know
16. Heron - Bye And Bye
17. Timebox - Country Dan And City Lil
18. The Searchers - And A Button
19. The Orange Bicycle - Take Me To The Pilot
20. Natural Gas - The Jailer
21. Curtiss Maldoon - So Nice
22. Jawbone - Million Times Before
CD3 Urban Cowdoys
01. Carolanne Pegg - Open The Door
02. Rod Stewart - Country Comfort
03. Northwind - Home For Frozen Roses
04. Bridget St John - Nice
05. The Pretty Things - Country Road
06. Andy Roberts - Home Grown
07. Edwards Hand - Sheriff Myras Lincoln
08. Marian Segal - Circle Round The Sun
09. The Parlour Band - Pretty Haired Girl
10. The Tremeloes - Hello Buddy
11. Greasy Bear - Tallawaya
12. Man - My Name Is Jesus Smith
13. Keith Christmas - Metropolis
14. Deep Feeling - Country Heir
15. Prelude - Johnson Boy
16. Paul Bretts Sage - Cottage Made For Two
17. Dave Cousins & Dave Lambert - See How They Run
18. Mother Nature - Clear Blue Sky
19. Idle Race - Dancing Flower
20. The Illusions - Wheel Of Fortune
21. Gordon Ellis & Steel - My Little One
22. Plainsong - I ll Fly Away (Demo Version)
Издатель (лейбл): Grapefruit Records
Номер по каталогу: CRSEGBOX061

admin

Post 05-Jun-2021 23:17

[Quote]

Название: Csatazaj
Исполнитель: Karpatia
Битрейт аудио: lossless
Формат/Кодек: FLAC
Год: 2021
Продолжительность: 00:28:39
Страна: Hungary
Жанр:
Folk-Rock

Треклист

01 - Harcoljatok
02 - Hopehely
03 - Páncélos menetinduló
04 - A köddel jövök
05 - Barát vagy ellenség
06 - Vadvirágok
07 - Csillagbökös ég tetején
08 - Tüzér
09 - Ihaj-csuhaj
10 - Vasakarat

admin

Post 18-Apr-2021 21:13

[Quote]

Воплі Відоплясова
Название: Коллекция [2 Albums, 9 Singles]
Исполнитель: Воплі Відоплясова
Год: 2008-2021
Жанр: Rock, Folk-Rock
Страна: European Union, Україна
Продолжительность: 01:25:06
Формат/Кодек: MP3
Битрейт аудио: 320 Kbps
Albums
Продолжительность: 2 CD, 00:48:56

01 - Закустика (Remastered 2020)

Дата выпуска: 1995//2020-1995//2020-09 :
Продолжительность: 00:21:17

Треклист:
01. Leo [00:03:01]
02. Шалена зірка [00:02:38]
03. Дитинство [00:01:56]
04. Підманула [00:02:22]
05. Розпрягайте, хлопці, коней [00:02:04]
06. Червоні коні [00:01:50]
07. Їхали козаки [00:01:51]
08. На вулиці скрипка грає [00:01:16]
09. Колись [00:02:17]
10. Несе Галя воду [00:01:57]

02 - Remixed by Amarilyo

Дата выпуска: 2018-2018-03 :
Продолжительность: 00:27:39

Треклист:
01. Були на селі (Amarilyo Remix) [00:04:22]
02. Мана (Amarilyo Radio Edit) [00:04:03]
03. Танці (Amarilyo Remix) [00:03:37]
04. Весна (Amarilyo & O'Skrypka Remix) [00:05:46]
05. Диво (Amarilyo & O'Skrypka & Usaty Remix) [00:04:03]
06. Мана (Amarilyo Club Mix) [00:05:46]
Singles
Продолжительность: 9 CD, 00:32:09

01 - Гімн-Славень України

Дата выпуска: 2008-2008-08 :
Продолжительность: 00:04:48

Треклист:
01. Гімн України «Ще не вмерла Україна…» [00:03:08]
02. Славень України «Квітне рідна Україна…» [00:01:39]

02 - Несе Галя

Дата выпуска: 2017-2017-09 :
Продолжительность: 00:03:03

Треклист:
01. Несе Галя [00:03:03]

03 - Дібрівонька

Дата выпуска: 2018-2018-07 :
Продолжительность: 00:04:18

Треклист:
01. Дібрівонька [00:04:18]

04 - Кобіта

Дата выпуска: 2018-2018-09 :
Продолжительность: 00:02:36

Треклист:
01. Кобіта [00:02:36]

05 - А-я-я-й

Дата выпуска: 2019-2019-05 :
Продолжительность: 00:03:23

Треклист:
01. А-я-я-й [00:03:23]

06 - Лазня

Дата выпуска: 2019-2019-01 :
Продолжительность: 00:02:43

Треклист:
01. Лазня [00:02:43]

07 - Добрий вечір

Дата выпуска: 2020-2020-12 :
Продолжительность: 00:03:20

Треклист:
01. Добрий вечір [00:03:20]

08 - Купалочка

Дата выпуска: 2020-2020-07 :
Продолжительность: 00:04:04

Треклист:
01. Купалочка [00:04:04]

09 - Ми Ростем (Single)

Дата выпуска: 2021-2021-04 :
Продолжительность: 00:03:50

Треклист:
01. Ми Ростем (Single) [00:03:50]
 

Current time is: 20-May 13:37

All times are UTC + 3