Search found 134 matches

Author Message

admin

Post 10-May-2022 01:28

[Quote]

Название: Tim
Исполнитель: Tim
Год: 1983/2021
Жанр: Melodic-Hard-Rock, AOR
Страна: USA
Продолжительность: 00:44:39
Формат/Кодек: FLAC
Тип рипа: image+.cue
Битрейт аудио: Lossless

Трек-лист

01.Somethings Coming
02.Never Let You Get Away
03.Maybe It's Better
04.Astral Games
05.Think Back
06.Whatcha Gonna Do
07.One Dark Night
08.Victim Of Love
09.Lovers Never Cry
10.Kiss And Tell
11.Mary Anna

Состав

Thom Griffin (ex-Trillion, Mecca, Pride Of Lions) - Vocals, Guitars
Bruce Gaitsch (ex-Richard Marx, Fergie Frederiksen, Jim Peterik) - Guitars
Bob Lizik (ex-Pride Of Lions, Dennis DeYoung) - Bass
Terry Tossing Esq - Keyboards
Tom Radtke and Jim Hines (ex-Dennis DeYoung, Cyndi Lauper) - Drums
Просьба к скачавшим поддерживать раздачу!

admin

Post 04-May-2022 01:36

[Quote]

Название: Something's Got To Give
Исполнитель: Mick White
Год: 2022
Жанр: Melodic, Hard-Rock
Страна: UK
Продолжительность: 00:51:20
Формат/Кодек: MP3
Битрейт аудио: 320 kbps

Трек-лист

01 - Burning In The Night [00:03:42]
02 - Something's Got To Give [00:04:27]
03 - Without You [00:04:48]
04 - Emergency On Planet Earth [00:04:53]
05 - Ordinary Girl [00:05:29]
06 - Altar Of Desire [00:03:28]
07 - Sometime Superman [00:05:21]
08 - Hold Tight [00:06:38]
09 - You Poisoned My Love [00:03:04]
10 - Don't Close Your Eyes [00:04:28]
11 - Better Be Strong [00:04:57]

admin

Post 04-May-2022 01:10

[Quote]

Название: The Endgame
Исполнитель: Treat
Год: 2022
Жанр: Melodic-Hard-Rock
Страна: Sweden
Продолжительность: 00:59:22
Формат/Кодек: MP3
Битрейт аудио: 320 kbps

Трек-лист

01.Freudian Slip
02.Rabbit Hole
03.Sinbiosis
04.Home Of The Brave
05.Both Ends Burning
06.My Parade
07.Wake Me When It’s Over
08.Jesus From Hollywood
09.Magic
10.Carolina Reaper
11.Dark To Light
12.To The End Of Love
Bonus Track:
13.Magic (Acoustic)

Состав

Robert Ernlund - Lead Vocals
Anders "Gary" Wikström - Guitars, Backing vocals
Nalle Påhlsson - Bass, Backing vocals
Patrick Appelgren - Keyboards, Backing vocals
Jamie Borger - Drums, Percussion

admin

Post 20-Apr-2022 02:15

[Quote]

Название: Raised On Radio: Cover Album
Исполнитель: Ronnie Romero
Год: 2022
Жанр: Melodic-Hard-Rock
Страна: Chile
Продолжительность: 00:49:03
Формат/Кодек: FLAC
Тип рипа: Tracks
Битрейт аудио: Lossless
Разрядность: 24 Bit//44,1 kHz
Носитель: WEB

Трек-лист

01. Sin's A Good Man's Brother (Grand Funk Railroad) (4:30)
02. Backstreet Love Affair (Survivor) (3:59)
03. No Smoke Without A Fire (Bad Company) (4:22)
04. I Was Born To Love You (Queen) (3:43)
05. Play The Game Tonight (Kansas) (3:31)
06. Carolina County Ball (Elf) (4:59)
07. Girl On The Moon (Foreigner) (3:57)
08. Gypsy (Uriah Heep) (4:31)
09. Voices (Russ Ballard) (4:52)
10. All Along The Watchtower (Bob Dylan) (3:19)
11. Since I've Been Loving You (Led Zeppelin) (7:20)

DRM
foobar2000 1.6.9 / Dynamic Range Meter 1.1.1
--------------------------------------------------------------------------------
Analyzed: Ronnie Romero / Raised On Radio
--------------------------------------------------------------------------------
DR Peak RMS Duration Track
--------------------------------------------------------------------------------
DR8 -0.31 dB -9.58 dB 4:30 01-Sin's A Good Man's Brother (Grand Funk Railroad)
DR8 -0.31 dB -9.30 dB 3:59 02-Backstreet Love Affair (Survivor)
DR9 -0.31 dB -10.15 dB 4:22 03-No Smoke Without A Fire (Bad Company)
DR8 -0.31 dB -9.22 dB 3:43 04-I Was Born To Love You (Queen)
DR8 -0.31 dB -9.91 dB 3:31 05-Play The Game Tonight (Kansas)
DR8 -0.31 dB -9.45 dB 4:59 06-Carolina County Ball (Elf)
DR8 -0.31 dB -9.48 dB 3:57 07-Girl On The Moon (Foreigner)
DR8 -0.31 dB -10.14 dB 4:31 08-Gypsy (Uriah Heep)
DR8 -0.31 dB -9.20 dB 4:52 09-Voices (Russ Ballard)
DR8 -0.31 dB -9.08 dB 3:19 10-All Along The Watchtower (Bob Dylan)
DR9 -0.31 dB -10.30 dB 7:20 11-Since I've Been Loving You (Led Zeppelin)
--------------------------------------------------------------------------------
Number of tracks: 11
Official DR value: DR8
Samplerate: 44100 Hz
Channels: 2
Bits per sample: 24
Bitrate: 1629 kbps
Codec: FLAC
================================================================================

admin

Post 12-Apr-2022 17:22

[Quote]

Название: The Endgame
Исполнитель: Treat
Год: 2022
Жанр: Melodic, Hard-Rock
Страна: Sweden
Продолжительность: 00:55:17
Формат/Кодек: FLAC
Битрейт аудио: Lossless

Трек-лист

01 - Freudian Slip (00:04:02)
02 - Rabbit Hole (00:04:04)
03 - Sinbiosis (00:04:40)
04 - Home of the Brave (00:04:10)
05 - Both Ends Burning (00:05:59)
06 - My Parade (00:04:28)
07 - Wake Me When It's Over (00:04:17)
08 - Jesus from Hollywood (00:04:44)
09 - Magic (00:04:10)
10 - Carolina Reaper (00:03:50)
11 - Dark to Light (00:04:31)
12 - To the End of Love (00:06:17)

Log

DON'T MODIFY THIS FILE
-----------------------
PERFORMER: auCDtect Task Manager, ver. 1.6.0 RC1 build 1.6.0.1
Copyright (c) 2008-2010 y-soft. All rights reserved
http://y-soft.org
ANALYZER: auCDtect: CD records authenticity detector, version 0.8.2
Copyright (c) 2004 Oleg Berngardt. All rights reserved.
Copyright (c) 2004 Alexander Djourik. All rights reserved.
FILE: 12 - To the End of Love.flac
Size: 48780039 Hash: 9501F1A9B4AFF08CAA054CB3A075FA32 Accuracy: -m40
Conclusion: CDDA 100%
Signature: 33A5598FA69C81F438E11B8EFC5BEF5195C895D5
FILE: 11 - Dark to Light.flac
Size: 36680611 Hash: 4E58CCFC9432950DE95E8B71C5BD4A78 Accuracy: -m40
Conclusion: CDDA 100%
Signature: 7EA662EBFAB12D4E35F82AB0B0E83DBDA249ABE9
FILE: 10 - Carolina Reaper.flac
Size: 32946170 Hash: 9F342B9C67EB3B23EFFA4DA1DAB89AA7 Accuracy: -m40
Conclusion: CDDA 100%
Signature: 2D0F614E6979250755BB828BFA0C4D6DFBBC7844
FILE: 09 - Magic.flac
Size: 33192737 Hash: FFD82C7153A0A6E6E96E9EDF408F3144 Accuracy: -m40
Conclusion: CDDA 100%
Signature: 8274F5ACABDD7BD3DC0736A76D8F2FDF9D710909
FILE: 08 - Jesus from Hollywood.flac
Size: 39723239 Hash: 744B3D9C1284E674DEDF3B16AAAFBCCE Accuracy: -m40
Conclusion: CDDA 100%
Signature: 15495676BCB2133B89238BA03C8B9729B44F659D
FILE: 07 - Wake Me When It's Over.flac
Size: 34188989 Hash: DA27E2F6791DF92B78E44011412AD1D1 Accuracy: -m40
Conclusion: CDDA 100%
Signature: 61091938B5051EA7D8499B9D6080D6BC2ADC0952
FILE: 06 - My Parade.flac
Size: 36509269 Hash: 89B5FDCFFA98221CE752A3160F42DEC9 Accuracy: -m40
Conclusion: CDDA 100%
Signature: DDA7A6DD98C20258389BAAD9485B52DBEB483DC5
FILE: 05 - Both Ends Burning.flac
Size: 47495356 Hash: 5A24257E774F7245CBDCE32EB472CBBA Accuracy: -m40
Conclusion: CDDA 99%
Signature: 5E2369867C8EC3AD85B7ED36CDE7532F8DC64502
FILE: 04 - Home of the Brave.flac
Size: 34018968 Hash: 677AACC4C00063E65EF0FE275300E1A7 Accuracy: -m40
Conclusion: CDDA 100%
Signature: 4CF34D5F852C0E310CE131894506965AA9A3A709
FILE: 03 - Sinbiosis.flac
Size: 38810787 Hash: 5C208251027D68EF2C1C9291D3C4AD16 Accuracy: -m40
Conclusion: MPEG 95%
Signature: 1D5E89FC824D493EE3ADFE0D7585FC099026E2BF
FILE: 02 - Rabbit Hole.flac
Size: 33734311 Hash: 63E81EC47C6DB1E5E9FEDDFBDFA9846B Accuracy: -m40
Conclusion: CDDA 100%
Signature: EB6A11C1C7D2BD43AEA49F0D3201DF7CCB2C2A76
FILE: 01 - Freudian Slip.flac
Size: 35214333 Hash: 71CD2D39D4ABA30BA421FC539F06C25C Accuracy: -m40
Conclusion: CDDA 100%
Signature: E347B2642381DB863224DEA000DB3BDA6E5B5189

admin

Post 09-Apr-2022 05:14

[Quote]

Название: Level Ground
Исполнитель: Fortune
Год: 2022
Жанр: Melodic-Rock
Страна: USA
Лейбл: Frontiers Records s.r.l.
Продолжительность: 00:46:53
Формат/Кодек: FLAC
Битрейт аудио: Lossless

Трек-лист

01. Silence Of The Heart
02. Judgement Day
03. Dangerous Things
04. I Will Hold You Up
05. Riot In The Heartland
06. Orphaned In The Storm
07. I Should Have Known You'd Be Trouble
08. Hand In Hand
09. Level Ground
10. Lunacy Of Love

Log

DON'T MODIFY THIS FILE
-----------------------
PERFORMER: auCDtect Task Manager, ver. 1.6.0 RC1 build 1.6.0.1
Copyright (c) 2008-2010 y-soft. All rights reserved
http://y-soft.org
ANALYZER: auCDtect: CD records authenticity detector, version 0.8.2
Copyright (c) 2004 Oleg Berngardt. All rights reserved.
Copyright (c) 2004 Alexander Djourik. All rights reserved.
FILE: 10 - Lunacy of Love.flac
Size: 42767721 Hash: 684D2A5FFD160287D13A941B2EC00887 Accuracy: -m40
Conclusion: CDDA 100%
Signature: 2E91357A8BD0A19C45DAE8AFAC95B9D5FC2D571F
FILE: 09 - Level Ground.flac
Size: 28622266 Hash: D89C24357C84B6D0609AF6E7C36484AC Accuracy: -m40
Conclusion: CDDA 100%
Signature: 979E45019DC5C81A7F312372BD7701E6F29A5E78
FILE: 08 - Hand in Hand.flac
Size: 37266132 Hash: 71D5345EB414575F13CF09176EFCD17F Accuracy: -m40
Conclusion: CDDA 99%
Signature: B6277A2641C28EE373FD9DA5633515D8A3B46EF1
FILE: 07 - I Should Have Known You'd Be Trouble.flac
Size: 38713970 Hash: 64991E7C992AAFDEAE1FF71B56023F07 Accuracy: -m40
Conclusion: CDDA 100%
Signature: 234B3E015A2C506D77147B7FF3A1F5CE1A258F54
FILE: 06 - Orphaned in the Storm.flac
Size: 36040739 Hash: CA24891EBD6F8C8B40BD520C4536EB4B Accuracy: -m40
Conclusion: CDDA 100%
Signature: 87DD26F3BC71489B549D36E350F4FC9E1770EDCE
FILE: 05 - Riot in the Heartland.flac
Size: 38842119 Hash: B55010114696F95AC9596B3C01500A6F Accuracy: -m40
Conclusion: CDDA 99%
Signature: D17F42824783589FA039CDC45D84EA153C970763
FILE: 04 - I Will Hold You Up.flac
Size: 33637082 Hash: 9498B0F3CC53659DE8EE16382D916238 Accuracy: -m40
Conclusion: CDDA 100%
Signature: 375837366E90CC0ECA656E5D37B7FFB957868102
FILE: 03 - Dangerous Things.flac
Size: 38145825 Hash: C4DCF0F044B3C6E32B4B2FABCA4DA5B4 Accuracy: -m40
Conclusion: CDDA 100%
Signature: 3995777EE9FC1C33FCAFD28CB315982B74652303
FILE: 02 - Judgement Day.flac
Size: 33124705 Hash: D3BA876192264B8A324264F2EA0089F9 Accuracy: -m40
Conclusion: CDDA 100%
Signature: FDFD530DE7B248161AE557F0F64904A3C0AF1D08
FILE: 01 - Silence of the Heart.flac
Size: 30798864 Hash: C8F5B62FD6B0599EACCD5BCF72559952 Accuracy: -m40
Conclusion: CDDA 100%
Signature: 2AE30005CDA93492CD83F4EAFBE881A39210597E

admin

Post 02-Apr-2022 03:56

[Quote]

Название: The Life and Times of Eddie Gage [24-Bit, Hi-Res, A Rock Opera]
Исполнитель: Aldo Nova
Год: 2022
Жанр: Melodic-Hard-Rock, Rock-Opera
Продолжительность: 00:51:27
Формат/Кодек: FLAC
Битрейт аудио: Lossless|WEB-DL [24-Bit / 44.1 kHz] track 10 - [16 Bit / 44.1 kHz]

Трек-лист

01. Hey Ladi Dadi (5:27)
02. Free Your Mind (4:49)
03. Follow the Road (4:04)
04. King of Deceit (6:39)
05. The Bitch in Black (3:41)
06. On The Way To The Psycho Ward (4:19)
07. When All is Said and Done (4:42)
08. Say a Little Prayer (8:37)
09. Burn Like the Sun (4:46)
10. Les Anges (4:23)

Dynamic Range Meter

foobar2000 1.6.9 / Dynamic Range Meter 1.1.1
--------------------------------------------------------------------------------
Analyzed: Aldo Nova / The Life and Times of Eddie Gage
--------------------------------------------------------------------------------
DR Peak RMS Duration Track
--------------------------------------------------------------------------------
DR6 -0.10 dB -7.25 dB 5:27 01-Hey Ladi Dadi
DR3 -0.10 dB -4.73 dB 4:49 02-Free Your Mind
DR6 -0.10 dB -8.46 dB 4:04 03-Follow the Road
DR4 0.00 dB -7.06 dB 6:39 04-King of Deceit
DR8 -0.10 dB -9.04 dB 3:41 05-The Bitch in Black
DR5 0.00 dB -6.75 dB 4:19 06-On The Way To The Psycho Ward
DR5 -0.10 dB -5.48 dB 4:42 07-When All is Said and Done
DR7 -0.10 dB -9.59 dB 8:37 08-Say a Little Prayer
DR6 -0.60 dB -8.61 dB 4:46 09-Burn Like the Sun
--------------------------------------------------------------------------------
Number of tracks: 9
Official DR value: DR6
Samplerate: 44100 Hz
Channels: 2
Bits per sample: 24
Bitrate: 1779 kbps
Codec: FLAC
================================================================================
--------------------------------------------------------------------------------
Statistics for: 10-Les Anges
Number of samples: 11577720
Duration: 4:23
--------------------------------------------------------------------------------
Left Right
Peak Value: 0.00 dB --- -0.10 dB
Avg RMS: -10.51 dB --- -11.29 dB
DR channel: 5.82 dB --- 6.08 dB
--------------------------------------------------------------------------------
Official DR Value: DR6
Samplerate: 44100 Hz
Channels: 2
Bits per sample: 16
Bitrate: 780 kbps
Codec: FLAC
================================================================================

admin

Post 01-Apr-2022 04:01

[Quote]

Название: Singles Collection
Исполнитель: Europe
Год: 1988-2004
Жанр: Melodic-Hard-Rock
Страна: Sweden
Продолжительность: 01:50:46
Формат/Кодек: FLAC
Тип рипа: Image+.cue
Битрейт аудио: Lossless
Носитель: CD

Трек-лист

1988 - Superstitious
01. Superstitious (4:37)
02. Lights & Shadows (4:04)
03. Tower's Callin' (3:49)
1988 - Open Your Heart
01. Open Your Heart (4:04)
02. Just The Beginning (4:33)
03. Rock The Night (4:05)
04. Lyin' Eyes (3:47)
1991 - I'll Cry For You
01. I'll Cry For You (Edit) (4:14)
02. I'll Cry For You (Acoustic Version) (4:00)
03. Break Free (4:07)
04. Prisoners in Paradise (5:37)
1992 - I'll Cry For You
01. I'll Cry For You (Edit) (04:14)
02. I'll Cry For You (Acoustic Version) (04:00)
03. Sweet Love Child (05:20)
04. Long Time Comin' (03:55)
1999 - The Final Countdown 2000
01. The Final Countdown 2000 (Edit) (3:49)
02. The Final Countdown 2000 (5:48)
03. The Final Countdown (Original Radio Edit) (4:03)
2004 - Got To Have Faith
01. Got To Have Faith (3:10)
02. Settle For Love (3:50)
2004 - Hero
01. Hero (Radio Mix) (3:53)
02. Hero (Album Version) (4:17)
03. Reason (4:37)

admin

Post 26-Mar-2022 05:05

[Quote]

Название: The Golden Cage
Исполнитель: Saints Trade
Год: 2022
Жанр: Modern, Hard-Rock
Страна: Italy
Продолжительность: 00:42:28
Формат/Кодек: MP3
Битрейт аудио: 320 kbps

Трек-лист

01. Neverland
02. Break The Chain
03. Casino Royale
04. That’s What I Know
05. Stay With Me
06. Lockdown Blues
07. Mirror Of Myself
08. Once And For All
09. Together We Stand
10. Double Trouble
11. Born To Do (What I Want)

admin

Post 19-Mar-2022 05:55

[Quote]

Название: Back To Eden
Исполнитель: Sign X
Год: 2022
Жанр: Melodic, Hard-Rock
Страна: Germany
Лейбл: Pride & Joy Music
Продолжительность: 00:45:43
Формат/Кодек: FLAC
Битрейт аудио: Lossless

Трек-лист

01. Back To Eden (06:17)
02. Frozen Hell (03:36)
03. Forever King (feat. Ronnie Munroe) (05:21)
04. 3 Seconds (04:14)
05. History Will Tell (04:11)
06. Life Goes On (04:43)
07. Into The Unknown (03:07)
08. Afterlife (03:42)
09. World On Fire (03:12)
10. Jump 'n' Run (04:05)
11. 3 Seconds (Piano Version) (03:11)

Log

DON'T MODIFY THIS FILE
-----------------------
PERFORMER: auCDtect Task Manager, ver. 1.6.0 RC1 build 1.6.0.1
Copyright (c) 2008-2010 y-soft. All rights reserved
http://y-soft.org
ANALYZER: auCDtect: CD records authenticity detector, version 0.8.2
Copyright (c) 2004 Oleg Berngardt. All rights reserved.
Copyright (c) 2004 Alexander Djourik. All rights reserved.
FILE: 11 - Sign X - 3 Seconds (Piano Version).flac
Size: 20642443 Hash: 4778E715FC3B83AABBEACCF12EF77340 Accuracy: -m0
Conclusion: CDDA 100%
Signature: EC50C21DBFCDBCF01DB4D27B19708A1D8BFDA2EE
FILE: 10 - Sign X - Jump 'n' Run.flac
Size: 31733477 Hash: 80FEB2D8D864B2A2F105BCB8E955BD4D Accuracy: -m0
Conclusion: CDDA 100%
Signature: 5397691AC60DA683FFD92BD9229F9D41C609DCB0
FILE: 09 - Sign X - World On Fire.flac
Size: 26200747 Hash: D6FA13791324DD10948A5F6F89101230 Accuracy: -m0
Conclusion: CDDA 100%
Signature: 2039C8A0BF8377EB4F6A1C0459F6CDD7AA5504AF
FILE: 08 - Sign X - Afterlife.flac
Size: 29583235 Hash: B7D7E95C24CF58FB731D20D71E5BF4B7 Accuracy: -m0
Conclusion: CDDA 100%
Signature: 83B91BD3BC0718F689ABD2C7D35DA33804B4317F
FILE: 07 - Sign X - Into The Unknown.flac
Size: 22706646 Hash: 5AF7E82888B948D29C20A3999AD389B8 Accuracy: -m0
Conclusion: CDDA 100%
Signature: 8F324C0B4DEE070EE895B498B2651E7DF513196E
FILE: 06 - Sign X - Life Goes On.flac
Size: 37609838 Hash: D8BD565194CF9A597202DD8500765C9A Accuracy: -m0
Conclusion: CDDA 100%
Signature: 69D43DF242984751C9C19E2BEF6D2794B9600688
FILE: 05 - Sign X - History Will Tell.flac
Size: 32989530 Hash: F2455CB0DC8E99C02DEDE0825015D44A Accuracy: -m0
Conclusion: CDDA 99%
Signature: 3B28A64EAF464C6F278092D3B5FCF1ADFCB3283A
FILE: 04 - Sign X - 3 Seconds.flac
Size: 30904795 Hash: CEFD2DF85C3B33E0C1F5B274B7A35185 Accuracy: -m0
Conclusion: CDDA 100%
Signature: 51F753B7F230113B98EB9CED2835C3141A453BF5
FILE: 03 - Sign X - Forever King.flac
Size: 42623137 Hash: 96ACB27B8180C2854D6B24F48243F08D Accuracy: -m0
Conclusion: CDDA 100%
Signature: 2D57F715DB450BF62BBD1C461F82EBBB29C6275E
FILE: 02 - Sign X - Frozen Hell.flac
Size: 28664637 Hash: FBF8F055986CF5A3C2FB7DB8B2D8F3A0 Accuracy: -m0
Conclusion: CDDA 100%
Signature: 28A08B208D60D9C3281AFDFEBA1F502D9670F845
FILE: 01 - Sign X - Back To Eden.flac
Size: 49606329 Hash: 6991E5C4B2DFBFFF6361A424896877CB Accuracy: -m0
Conclusion: CDDA 100%
Signature: 52322E71272289EBE8A9D506F89D8ED9D94764DD

admin

Post 19-Mar-2022 04:56

[Quote]

Название: Thirteen
Исполнитель: FM
Год: 2022
Жанр: Melodic-Rock, AOR
Страна: UK
Лейбл: Frontiers Records s.r.l.
Продолжительность: 00:53:52
Формат/Кодек: MP3
Битрейт аудио: 320 kbps

Трек-лист

01. Shaking The Tree [00:05:22]
02. Waiting On Love [00:04:51]
03. Talk Is Cheap [00:03:45]
04. Turn This Car Around [00:04:43]
05. Love And War [00:05:13]
06. Long Road Home [00:05:56]
07. Be Lucky [00:05:22]
08. Every Man Needs A Woman [00:04:01]
09. Just Got Started [00:04:38]
10. Fight Fire With Fire [00:05:26]
11. Be True To Yourself [00:04:31]

admin

Post 14-Mar-2022 05:04

[Quote]

Название: L.A. Suspicion
Исполнитель: AOR
Год: 2022
Жанр: Melodic-Rock, AOR
Страна: France
Продолжительность: 00:47:16
Формат/Кодек: MP3
Битрейт аудио: 320 kbps

Трек-лист

01. A Smile in My Heart (04:34)
02. The Girl You Won't Leave Behind (05:11)
03. Cold Logic (04:44)
04. Stronger Than Desire (04:34)
05. Arrow Thru' My Heart (05:08)
06. Scene of the Crime (04:21)
07. Street of Illusions (04:52)
08. Hold Back Tomorrow (04:15)
09. Lost in Cold Heaven (05:07)
10. A Broken Heart in Tokyo (04:25)

admin

Post 14-Mar-2022 04:24

[Quote]

Название: Neptune Blue
Исполнитель: Lana Lane
Год: 2022
Жанр: Melodic-Rock, Prog-Related
Страна: USA
Продолжительность: 01:02:28
Формат/Кодек: FLAC
Тип рипа: Tracks
Битрейт аудио: Lossless
Разрядность: 24 Bit/44.1 kHz
Носитель: WEB

Трек-лист


01. Remember Me (5:15)
02. Under the Big Sky (5:20)
03. Really Actually (5:34)
04. Come Lift Me Up (6:27)
05. Bring It on Home (5:10)
06. Dont Disturb the Occupants (3:11)
07. Lady Mondegreen (5:07)
08. Miss California (4:16)
09. Someone Like You (4:17)
10. Far from Home (5:01)
11. Neptune Blue (8:28)

DRM
foobar2000 1.6.9 / Dynamic Range Meter 1.1.1
--------------------------------------------------------------------------------
Analyzed: Lana Lane / Neptune Blue
--------------------------------------------------------------------------------
DR Peak RMS Duration Track
--------------------------------------------------------------------------------
DR6 -0.30 dB -8.04 dB 5:15 01-Remember Me
DR7 -0.30 dB -9.27 dB 5:20 02-Under the Big Sky
DR7 -0.30 dB -8.71 dB 5:34 03-Really Actually
DR7 -0.30 dB -9.02 dB 6:27 04-Come Lift Me Up
DR7 -0.30 dB -8.80 dB 5:10 05-Bring It on Home
DR9 -0.30 dB -10.69 dB 3:11 06-Dont Disturb the Occupants
DR7 -0.30 dB -7.88 dB 5:07 07-Lady Mondegreen
DR6 -0.30 dB -7.06 dB 4:16 08-Miss California
DR6 -0.30 dB -7.78 dB 4:17 09-Someone Like You
DR6 -0.30 dB -7.43 dB 5:01 10-Far from Home
DR8 -0.30 dB -10.42 dB 8:28 11-Neptune Blue
--------------------------------------------------------------------------------
Number of tracks: 11
Official DR value: DR7
Samplerate: 44100 Hz
Channels: 2
Bits per sample: 24
Bitrate: 1625 kbps
Codec: FLAC
================================================================================

admin

Post 14-Mar-2022 04:08

[Quote]

Название: Lightning in a Bottle
Исполнитель: Find Me
Год: 2022
Жанр: Melodic-Rock, AOR
Страна: Sweden/USA
Лейбл: Frontiers Records S.R.L.
Продолжительность: 00:44:52
Формат/Кодек: FLAC
Битрейт аудио: Lossless

Трек-лист

01. Survive (04:10)
02. Far from Over (feat. Vince DiCola) (04:13)
03. Sail Away (03:53)
04. Back to You (04:19)
05. Diana (03:38)
06. Distant Echoes (03:34)
07. Remember (It's Me) (03:31)
08. You and I (05:00)
09. Under a Bad Sign (04:38)
10. Give My Heart (03:16)
11. On the Run (04:35)

Log

DON'T MODIFY THIS FILE
-----------------------
PERFORMER: auCDtect Task Manager, ver. 1.6.0 RC1 build 1.6.0.1
Copyright (c) 2008-2010 y-soft. All rights reserved
http://y-soft.org
ANALYZER: auCDtect: CD records authenticity detector, version 0.8.2
Copyright (c) 2004 Oleg Berngardt. All rights reserved.
Copyright (c) 2004 Alexander Djourik. All rights reserved.
FILE: 11 - Find Me - On the Run.flac
Size: 35375069 Hash: 9BDEF07ACE64E5D62CE8DFA27EB4BD62 Accuracy: -m0
Conclusion: CDDA 100%
Signature: 957F151C95B4894F1BAA133A7E5D31B49E4A366D
FILE: 10 - Find Me - Give My Heart.flac
Size: 26676996 Hash: 6EA6626CF8D6F95F7FDDB4E52D059CE8 Accuracy: -m0
Conclusion: CDDA 100%
Signature: 54BCDF694D473C4E49ED02F9BDC8A5E452DE785A
FILE: 09 - Find Me - Under a Bad Sign.flac
Size: 36729514 Hash: 586519899F8E6EBDD7A601EBB825D4E2 Accuracy: -m0
Conclusion: CDDA 99%
Signature: BFCC70ACBFDCD47045CCE7BFA896600EC74F028D
FILE: 08 - Find Me - You and I.flac
Size: 38361463 Hash: D4D8D44BB833445C236D5B3156B8527A Accuracy: -m0
Conclusion: CDDA 100%
Signature: 3A235222A42AFE010AD8899381E3FC1D0282CCA8
FILE: 07 - Find Me - Remember (It's Me).flac
Size: 28297356 Hash: CB73B57AE27839E8A00E77EAB198D46E Accuracy: -m0
Conclusion: CDDA 100%
Signature: F31EACBEBFC57113A8A03087340BA723FA56F1B1
FILE: 06 - Find Me - Distant Echoes.flac
Size: 27633753 Hash: FDE0D469BD520F9D04E292C14AAF7814 Accuracy: -m0
Conclusion: CDDA 99%
Signature: 31926C71E72753F15CB44BDA7BBB90C21078EECA
FILE: 05 - Find Me - Diana.flac
Size: 27891871 Hash: 0D1A97E8BDAC9486E0E59621DD074614 Accuracy: -m0
Conclusion: CDDA 100%
Signature: 6298974C58B39A51480BFCFCBD6F7749A9456877
FILE: 04 - Find Me - Back to You.flac
Size: 33388171 Hash: D8F84686778F2EC08EBB7A49EA144529 Accuracy: -m0
Conclusion: CDDA 100%
Signature: E1C6E98BCBD27DDB5F3AD7FDBB7F93287DC22318
FILE: 03 - Find Me - Sail Away.flac
Size: 31953375 Hash: 4FC2F3C306AE8309A4EA754C6113123D Accuracy: -m0
Conclusion: CDDA 100%
Signature: 1E92708F12BB052F7A4F3C1B8F6D8E2F4C917629
FILE: 02 - Find Me - Far from Over.flac
Size: 34602852 Hash: D20DA76F7F8E524BAC7C8CF8C5F742F7 Accuracy: -m0
Conclusion: CDDA 100%
Signature: CA02076C0228F8328B6F14B3E05571CEE4362A8E
FILE: 01 - Find Me - Survive.flac
Size: 33192450 Hash: 547806829AEB9093CCC47B59814C93D1 Accuracy: -m0
Conclusion: CDDA 100%
Signature: 04750E9BC251074515FA6F20E2D2AA684D559050

admin

Post 14-Mar-2022 04:05

[Quote]

Название: X.X.X.
Исполнитель: Radioactive
Год: 2022
Жанр: Melodic, Hard-Rock
Страна: Sweden
Лейбл: Frontiers Records S.R.L.
Продолжительность: 00:44:49
Формат/Кодек: FLAC
Битрейт аудио: Lossless

Трек-лист

01. Monkey on Our Backs (feat. Jerome Mazza) (04:27)
02. The Deed is Done (feat. Robin McAuley) (03:40)
03. Remember the Ghosts (feat. Robbie LaBlanc) (03:53)
04. Written in the Scars (feat. Christian Ingebrigtsen) (04:49)
05. If Today Was Your Last Day Alive (feat. Jerome Mazza) (04:28)
06. Move It (feat. Robin McAuley) (03:56)
07. Youman Unkind (feat. Robbie LaBlanc) (03:32)
08. I Have a Dream (feat. Jerome Mazza) (03:56)
09. Voodoo Queen (feat. Robbie LaBlanc) (04:21)
10. Drag Me Through the Mud (feat. Daniel Byrne) (03:53)
11. California Ways (feat. Clif Magness) (03:48)

Log

DON'T MODIFY THIS FILE
-----------------------
PERFORMER: auCDtect Task Manager, ver. 1.6.0 RC1 build 1.6.0.1
Copyright (c) 2008-2010 y-soft. All rights reserved
http://y-soft.org
ANALYZER: auCDtect: CD records authenticity detector, version 0.8.2
Copyright (c) 2004 Oleg Berngardt. All rights reserved.
Copyright (c) 2004 Alexander Djourik. All rights reserved.
FILE: 11 - Radioactive - California Ways.flac
Size: 30922343 Hash: EB3C53E8274AABA0FB42C9831DAC5138 Accuracy: -m0
Conclusion: CDDA 100%
Signature: AA971E3D0468C159D44C6D1275F6B2F9BBC23363
FILE: 10 - Radioactive - Drag Me Through the Mud.flac
Size: 32340160 Hash: 525A08792943BA7AE802572DF373B847 Accuracy: -m0
Conclusion: CDDA 100%
Signature: 87C7573D8542D0006BCCAFFBC2178B98389A9FB8
FILE: 09 - Radioactive - Voodoo Queen.flac
Size: 33116311 Hash: 89957D6EBD9B6606100C92B2F45F5690 Accuracy: -m0
Conclusion: CDDA 100%
Signature: 9E6250E339CA1F42D76A664A6EF71B9DB4BD2D9A
FILE: 08 - Radioactive - I Have a Dream.flac
Size: 31138430 Hash: 48A707CBF134CF647A441725FD798FEA Accuracy: -m0
Conclusion: CDDA 100%
Signature: A7643AEB20273E52DBFE285D1C46B7995CF820BA
FILE: 07 - Radioactive - Youman Unkind.flac
Size: 28250113 Hash: 601443C671E1E7980CB555407EB65060 Accuracy: -m0
Conclusion: CDDA 100%
Signature: BD67FFAB42F3ED2411C65504FA32CDA791EB1477
FILE: 06 - Radioactive - Move It.flac
Size: 31372402 Hash: 2282473F8444BC0375E204D7481449B0 Accuracy: -m0
Conclusion: CDDA 100%
Signature: A863991086D6B75A0CD59C6D3C1C721A890F04A9
FILE: 05 - Radioactive - If Today Was Your Last Day Alive.flac
Size: 33581738 Hash: 03FAEDE80823F765B596A12598B6D381 Accuracy: -m0
Conclusion: CDDA 100%
Signature: 290E1598EAAB3446DB37C9371FFD7FAB3A1262C2
FILE: 04 - Radioactive - Written in the Scars.flac
Size: 34693552 Hash: 975F174F0AB098DEBD7FA0304C20FFFF Accuracy: -m0
Conclusion: CDDA 100%
Signature: FE4C7AED19DE8A43C9EBCDF14987E53D98907A9F
FILE: 03 - Radioactive - Remember the Ghosts.flac
Size: 30558897 Hash: B6BD3A392EE784270D7BD0D2AF3175A0 Accuracy: -m0
Conclusion: CDDA 100%
Signature: 5F7AACCB5F200D2FFCA49460A4CE30932E37C6F7
FILE: 02 - Radioactive - The Deed is Done.flac
Size: 28450331 Hash: 4D4D106AC1670D00D5B500EF7C9DAA19 Accuracy: -m0
Conclusion: CDDA 100%
Signature: 754B8BEF4711EDACF0EA878E5BF5B84C6FDCE8A9
FILE: 01 - Radioactive - Monkey on Our Backs.flac
Size: 32876438 Hash: 59614F94038CCF33824F8C0CF7FFE47A Accuracy: -m0
Conclusion: CDDA 100%
Signature: 0EEB8265F6BA13AABD5392CC436D90C5C38341BA
 

Current time is: 26-May 09:00

All times are UTC + 3