Search found 1 matches

Author Message

admin

Post 21-Nov-2018 02:39

[Quote]

Название: Caro Emerald in Concert
Исполнитель: Caro Emerald
Год выпуска: 2013
Жанр: Jazz, Swing, Pop
Выпущено: США, Eagle Rock Entertainment
Продолжительность: 01:29:55
Концерт нидерландской джазовой певицы Каролины Эсмеральды ван дер Леу, более известной как Каро Эмеральд (Caro Emerald). В данном концерте вы услышите композиции из альбомов "Deleted Scenes from the Cutting Room Floor" и "The Shocking Miss Emerald". Музыкальное сопровождение обеспечивает Grandmono Orchestra.
Сэмпл: скачать здесь
Файл
Качество: BDRip
Видео: AVC; 1920х1080p (16:9); 60 fps; 16 mbps
Звук-1: Eng; Flac; 2 ch; 48 KHz; 915 Kbps
Звук-2: Eng; DTS; 6 ch; 48 KHz; 1509 Kbps

Треклист

01. Just One Dance
02. You Don't Love Me
03. Riviera Life
04. Pack Up the Louie
05. Black Valentine
06. Back It Up
07. Liquid Lunch
08. Completely
09. Paris
10. Dr. Wanna Do
11. I Belong To You
12. That Man
13. The Other Woman
14. Mad About the Boy
15. My 2 Cents
16. Tangled Up
17. A Night Like This
18. Stuck

Медиаинфо

Общее
Уникальный идентификатор : 241485304867267341558288400782639820616 (0xB5AC60C31F64D5C424A2176EE448EF48)
Полное имя : D:/Хранилище/Видео/Caro Emerald/Caro.Emerald.in.Concert.2013.mkv
Формат : Matroska
Версия формата : Version 4
Размер файла : 11,6 Гбайт
Продолжительность : 1 ч. 29 м.
Режим общего битрейта : Переменный
Общий поток : 18,4 Мбит/сек
Дата кодирования : UTC 2018-11-19 06:04:05
Программа кодирования : mkvmerge v28.2.0 ('The Awakening') 64-bit
Библиотека кодирования : libebml v1.3.6 + libmatroska v1.4.9
Обложка : Yes
Attachments : cover.jpg
Видео
Идентификатор : 1
Формат : AVC
Формат/Информация : Advanced Video Codec
Профиль формата : High@L5
Настройки формата : CABAC / 12 Ref Frames
Параметр CABAC формата : Да
Параметр RefFrames формата : 12 кадров
Идентификатор кодека : V_MPEG4/ISO/AVC
Продолжительность : 1 ч. 29 м.
Битрейт : 16,0 Мбит/сек
Ширина : 1920 пикселей
Высота : 1080 пикселей
Соотношение сторон : 16:9
Режим частоты кадров : Постоянный
Частота кадров : 60,000 кадров/сек
Цветовое пространство : YUV
Субдискретизация насыщенности : 4:2:0
Битовая глубина : 8 бит
Тип развёртки : Прогрессивная
Бит/(Пиксели*Кадры) : 0.129
Размер потока : 10,1 Гбайт (87%)
Библиотека кодирования : x264 core 155 r2901 7d0ff22
Настройки программы : cabac=1 / ref=12 / deblock=1:-3:-3 / analyse=0x3:0x133 / me=esa / subme=11 / psy=1 / psy_rd=1.00:0.00 / mixed_ref=1 / me_range=32 / chroma_me=1 / trellis=2 / 8x8dct=1 / cqm=0 / deadzone=21,11 / fast_pskip=0 / chroma_qp_offset=-2 / threads=18 / lookahead_threads=2 / sliced_threads=0 / nr=0 / decimate=1 / interlaced=0 / bluray_compat=0 / constrained_intra=0 / bframes=4 / b_pyramid=2 / b_adapt=2 / b_bias=0 / direct=3 / weightb=1 / open_gop=0 / weightp=2 / keyint=600 / keyint_min=30 / scenecut=40 / intra_refresh=0 / rc_lookahead=150 / rc=2pass / mbtree=1 / bitrate=16000 / ratetol=4.0 / qcomp=0.70 / qpmin=0 / qpmax=51 / qpstep=4 / cplxblur=20.0 / qblur=0.5 / vbv_maxrate=168750 / vbv_bufsize=168750 / nal_hrd=none / filler=0 / ip_ratio=1.40 / aq=1:0.90
Default : Да
Forced : Нет
Аудио #1
Идентификатор : 2
Формат : FLAC
Формат/Информация : Free Lossless Audio Codec
Идентификатор кодека : A_FLAC
Продолжительность : 1 ч. 29 м.
Вид битрейта : Переменный
Битрейт : 915 Кбит/сек
Каналы : 2 канала
Channel layout : L R
Частота : 48,0 КГц
Частота кадров : 10,417 кадров/сек (4608 SPF)
Битовая глубина : 16 бит
Метод сжатия : Без потерь
Размер потока : 588 Мбайт (5%)
Библиотека кодирования : Lavf58.17.100
Язык : English
Default : Да
Forced : Нет
Аудио #2
Идентификатор : 3
Формат : DTS
Формат/Информация : Digital Theater Systems
Идентификатор кодека : A_DTS
Продолжительность : 1 ч. 29 м.
Вид битрейта : Постоянный
Битрейт : 1509 Кбит/сек
Каналы : 6 каналов
Channel layout : C L R Ls Rs LFE
Частота : 48,0 КГц
Частота кадров : 93,750 кадра/сек (512 SPF)
Битовая глубина : 16 бит
Метод сжатия : С потерями
Размер потока : 972 Мбайт (8%)
Язык : English
Default : Нет
Forced : Нет
Меню
00:00:00.000 : :01. Just One Dance
00:05:06.233 : :02. You Don't Love Me
00:09:17.467 : :03. Riviera Life
00:13:37.533 : :04. Pack Up the Louie
00:18:05.667 : :05. Black Valentine
00:23:33.733 : :06. Back It Up
00:30:31.800 : :07. Liquid Lunch
00:34:53.783 : :08. Completely
00:37:21.200 : :09. Paris
00:43:51.400 : :10. Dr. Wanna Do
00:50:07.633 : :11. I Belong To You
00:54:30.700 : :12. That Man
00:59:52.633 : :13. The Other Woman
01:06:05.633 : :14. Mad About the Boy
01:09:16.233 : :15. My 2 Cents
01:14:17.967 : :16. Tangled Up
01:17:25.533 : :17. A Night Like This
01:24:02.000 : :18. Stuck

Скриншоты



 

Current time is: 13-Dec 16:36

All times are UTC + 3