Search found 7 matches

Author Message

admin

Post 24-Jan-2019 04:03

[Quote]

Название: Музыка - всё!
Исполнитель: Серебряная Свадьба
Год: 2015
Жанр: Jaaz, Nursery Rhymes, Rock, Pop, Electronic, Children's
Страна: Беларусь
Продолжительность: 00:33:01
Формат/Кодек: FLAC (image+.cue)
Битрейт аудио: lossless

Трек-лист

1. В гараже у дяди Вити
2. Казекулы
3. Природа чемодана
4. К морю
5. Прекрасная коллекция
6. Дождик
7. Курсы вождения для привидений
8. У меня есть котик
9. Оркестр маленьких жучков
10. Музыка - всё!
Дополнительная информация: Серебряная свадьба - белорусский музыкальный коллектив, кабаре-бэнд. Кабаре-бэнд «Серебряная свадьба» появился в 2005 году. Музыкальный стиль включает элементы шансона, диксиленда, кантри, латиноамериканской и русской народной музыки. «Серебряная свадьба» использует множество музыкальных инструментов, а также широкий набор реквизита.
В сентябре 2015 года вышел альбом «Музыка - всё!». В рецензии на альбом Сергей Мезенов с Colta.ru отметил: «Исполняя песни про котиков и привидений, детские рисунки и семейные поездки к морю, „Свадьба“ выступает в качестве самого бодрого на свете мультипликационного оркестра - их музыка топорщится, бежит вприпрыжку и бодро звякает разными звенелками, гомерическая духовая секция догоняет банджо и поющую пилу, терменвокс забрасывает на закорки музыкальную шкатулку, всем ужасно весело. Слушать это без ежепесенной улыбки до ушей, честно говоря, совершенно невозможно».
В программу «Музыка - всё!» вошли песни, которые будут интересны и детям, и взрослым. А точнее, детям и взрослым, которые придут на концерт вместе. Под эти песни можно (и нужно!) плясать, прыгать, хохотать, пускать мыльные пузыри, греметь в тазы и кастрюли... Тем более, что исполняться они будут на совершенно необычных инструментах, созданных самими музыкантами из подручных средств - швабробасе, трубофоне, шлангофоне, мензуркофоне. А еще на сентябрьских концертах «Серебряной Свадьбы» будут звучать пила, банки, пластиковые канистры, жестяные ведерки, бидоны, воздушные шарики, садовые лейки, чайники, миски и чашки, шахматная доска, коробка из под печенья и многое-многое другое.

admin

Post 01-Sep-2018 17:12

[Quote]

Название: Пыль на ботинках
Исполнитель: Вежливый отказ
Год: 1987 / 2017
Жанр: Jazz-Rock
Страна: Россия (СССР)
Продолжительность: 00:43:19
Формат/Кодек: FLAC (image+.cue)
Битрейт аудио: lossless

Трек-лист

1. Летаргический сон
2. Помощник
3. Голодная песня
4. В чужих озёрах сна
5. Эй!
6. Прощание
7. Рыба
Дополнительная информация: «Пыль на ботинках» - второй студийный релиз Вежливого отказа - был признан культовым фэнзином «УрЛайт» лучшим московским рок-альбомом 1987 года. С материалом из этой работы группа участвовала в фестивале «Рок-панорама-87», телемостах и передаче «Музыкальный ринг».
Популярность команды росла, в том числе и благодаря оригинальному перформансу Аркадия Семёнова и Гора Оганисяна – поэтов, написавших большинство текстов для альбома. Семёнов ярко и напористо читал стихи, а Оганисян во время исполнения «Голодной песни» размахивал куском сырого мяса и «играл» этим мясом на скрипке и мелодике. Альбом оказался переломным в эстетике и стилистике Вежливого отказа. Основным вокалистом стал гитарист Роман Суслов, с тех пор занимающий место у микрофона уже постоянно. Дмитрий Шумилов, не оставляя полностью вокал, переместился на позицию клавишника. В записи «Пыли на ботинках» также принимали участие: Владимир Давыдов – саксофон, Михаил Верещагин – бас, Михаил Митин – ударные.
«Музыка новой программы, являющаяся плодом оригинального музыкального чувствования руководителя группы Романа Суслова, оказалась не поддающейся ни стилевому, ни жанровому определению» – так описывал творчество Вежливого отказа того времени пресс-релиз. Анализ продолжает самиздат: «В наш исторический переломный момент, когда весь советский пипл начинает торчать в свете гласности под рок-н-ролл, ОТКАЗ со своими джазовыми заморочками остается непобежденной территорией «непонятного для масс искусства» (УрЛайт). «В этот период музыка ОТКАЗА резко окрасилась элементами джаза» (РИО).

admin

Post 03-Aug-2018 08:02

[Quote]

Аркадий Шилклопер (Arkady Shilkloper), Вадим Неселовский (Vadim Neselovskyi) / Последний снег (Last Snow)
Жанр: Jazz, ЕСМ, modern chamber music
Носитель: CD
Страна-производитель диска: Россия
Год издания: 2013
Издатель (лейбл): ArtBeat Music
Номер по каталогу: AB–CD–06–2013–052
Страна: Россия
Аудиокодек: FLAC (*.flac)
Тип рипа: image+.cue
Битрейт аудио: lossless
Продолжительность: 00:56:21
Источник (релизер): собственный CD
Наличие сканов в содержимом раздачи: да (600 dpi, jpg)
Треклист:
1. Восход поздней ночью
2. Дуэт для одного
3. Песня весны
4. Русская песня
5. Прелюдия для виброфона
6. Интрада
7. Последний снег
8. Постлюдия
9. Дуэт для одного

Лог создания рипа

Exact Audio Copy V1.0 beta 3 from 29. August 2011Отчёт EAC об извлечении, выполненном 30. декабря 2013, 22:02Аркадий Шилклопер и Вадим Неселовский / Последний снегДисковод: ASUS DRW-1814BLT Adapter: 1 ID: 0Режим чтения : ДостоверностьИспользование точного потока : ДаОтключение кэша аудио : ДаИспользование указателей C2 : НетКоррекция смещения при чтении : 6Способность читать области Lead-in и Lead-out : НетЗаполнение пропущенных сэмплов тишиной : ДаУдаление блоков с тишиной в начале и конце : НетПри вычислениях CRC использовались нулевые сэмплы : ДаИнтерфейс : Встроенный Win32-интерфейс для Win NT/2000Выходной формат : Пользовательский кодировщикВыбранный битрейт : 128 kBit/sКачество : ВысокийДобавление ID3-тега : НетУтилита сжатия : C:\Program Files (x86)\Exact Audio Copy\Flac\flac.exeДополнительные параметры : -V -8 -T "Date=%year%" -T "Genre=%genre%" %source%TOC извлечённого CD Трек | Старт | Длительность | Начальный сектор | Конечный сектор --------------------------------------------------------------------- 1 | 0:00.00 | 8:25.58 | 0 | 37932 2 | 8:25.58 | 4:19.57 | 37933 | 57414 3 | 12:45.40 | 6:44.53 | 57415 | 87767 4 | 19:30.18 | 6:22.51 | 87768 | 116468 5 | 25:52.69 | 6:02.50 | 116469 | 143668 6 | 31:55.44 | 9:01.65 | 143669 | 184308 7 | 40:57.34 | 8:37.22 | 184309 | 223105 8 | 49:34.56 | 3:12.62 | 223106 | 237567 9 | 52:47.43 | 3:33.29 | 237568 | 253571Характеристики диапазона извлечения и сообщения об ошибкахВыбранный диапазон Имя файла D:\Desktop\Последний снег\Аркадий Шилклопер и Вадим Неселовский - Последний снег.wav Пиковый уровень 98.6 % Скорость извлечения 9.4 X Качество диапазона 100.0 % CRC теста CB3364FF CRC копии CB3364FF Копирование... OKОшибок не произошлоAccurateRip: сводкаТрек 1 отсутствует в базе данныхТрек 2 отсутствует в базе данныхТрек 3 отсутствует в базе данныхТрек 4 отсутствует в базе данныхТрек 5 отсутствует в базе данныхТрек 6 отсутствует в базе данныхТрек 7 отсутствует в базе данныхТрек 8 отсутствует в базе данныхТрек 9 отсутствует в базе данныхНи одного трека нет в базе AccurateRipКонец отчёта==== Контрольная сумма отчёта 5E23ECFE3BF337D7332849BFDAED898A7861943D5C8F313EEC772B8A7BBDE605 ====

Об исполнителе (группе)

Новый альбом абсолютно уникального (!) дуэта – прославленного в России и за рубежом валторниста и молодого, но стремительно набирающего славу пианиста.

Об альбоме (сборнике)

Подарочное издание, диджибук, 8-стр. буклет, слипкейс.
Ограниченный тираж - 200 пронумерованных копий.Аркадий Шилклопер об альбоме «Last Snow»:
«В конце декабря прошлого года редактор «Радио Россия» Людмила Осипова предложила мне принять участие в «Svetozar Stracina International Competition of Folk Music Recordings», который проходит каждые два года в Братиславе. Я согласился, и мы с ней выбрали для записи мою композицию «Дуэт для одного»... В это же время в Москве оказался Вадим – просто прилетел в столицу встретить Новый Год! Я решил воспользоваться ситуацией и пригласил его для записи хотя бы части альбома, что мы и сделали в 5-й студии ДЗЗ благодаря звукоинженеру Дмитрию Житомирскому, Людмиле Осиповой и «Радио Россия». Дописывали альбом уже в Нью-Йорке, а мастер сделали в Кёльне!
…Альбом полностью авторский. Композиции мои и Вадима – деликатное и очень пластичное сплетение фортепиано и валторны! Приятное дополнение – флюгельгорн. Он звучит в композиции «Russian Song» и в бонусной пьесе альбома.
…В альбоме три сквозных темы. Первая – русская. Вторая – современная академическая импровизационная музыка. Третья тема непосредственно связана с джазом. А главной задачей всей этой музыкальной истории мы поставили эстетическое единство и цельность ее общей драматургии.
В целом, получилось, как мне кажется, весьма органично и лаконично, ничего лишнего».

Состав

Аркадий Шилклопер – валторна, флюгельгорн, corno da caccia;
Вадим Неселовский – фортепиано.Авторы музыки:
Аркадий Шилклопер (2,6,8,9) GEMA;
Вадим Неселовский (1,3-5,7) ASCAP.

admin

Post 03-Aug-2018 07:48

[Quote]

Андрей Макаревич и Ильдар Казаханов - Андрей и Ильдар в Машине
Жанр: Mainstream Jazz, Swing
Носитель: CD
Страна-производитель диска: Россия
Год издания: 2014
Издатель (лейбл): Sintez Records
Номер по каталогу: SRCD 00114
Аудиокодек: FLAC (*.flac)
Тип рипа: image+.cue
Битрейт аудио: lossless
Продолжительность: 33:19
Rip by Chemp
Наличие сканов в содержимом раздачи: да
Треклист:
01. Скачки (4:11)
02. Кого ты хотел удивить (2:53)
03. Снег (1:54)
04. Старый корабль (4:56)
05. Марионетки (4:23)
06. Синяя птица (3:50)
07. Картонные крылья любви (2:48)
08. Наш дом (5:12)
09. Поворот (3:12)
 

Лог создания рипа

Exact Audio Copy V1.0 beta 3 from 29. August 2011EAC extraction logfile from 21. March 2014, 15:23Андрей Макаревич и Ильдар Казаханов / Ильдар и Андрей в МашинеUsed drive : hp DVDRAM GT31L Adapter: 0 ID: 1Read mode : SecureUtilize accurate stream : YesDefeat audio cache : YesMake use of C2 pointers : NoRead offset correction : 103Overread into Lead-In and Lead-Out : NoFill up missing offset samples with silence : YesDelete leading and trailing silent blocks : NoNull samples used in CRC calculations : YesUsed interface : Native Win32 interface for Win NT & 2000Used output format : User Defined EncoderSelected bitrate : 896 kBit/sQuality : HighAdd ID3 tag : NoCommand line compressor : C:\Program Files (x86)\Exact Audio Copy\wavpack.exeAdditional command line options : -hlm %source%TOC of the extracted CD Track | Start | Length | Start sector | End sector --------------------------------------------------------- 1 | 0:00.00 | 4:10.74 | 0 | 18823 2 | 4:10.74 | 2:53.37 | 18824 | 31835 3 | 7:04.36 | 1:54.24 | 31836 | 40409 4 | 8:58.60 | 4:56.25 | 40410 | 62634 5 | 13:55.10 | 4:22.38 | 62635 | 82322 6 | 18:17.48 | 3:49.51 | 82323 | 99548 7 | 22:07.24 | 2:48.12 | 99549 | 112160 8 | 24:55.36 | 5:11.68 | 112161 | 135553 9 | 30:07.29 | 3:11.41 | 135554 | 149919Range status and errorsSelected range Filename C:\Users\Alexander\Desktop\New folder\Андрей Макаревич и Ильдар Казаханов - Ильдар и Андрей в Машине.wav Peak level 100.0 % Extraction speed 1.1 X Range quality 100.0 % Test CRC 0B2ED084 Copy CRC 0B2ED084 Copy OKNo errors occurredAccurateRip summaryTrack 1 not present in databaseTrack 2 not present in databaseTrack 3 not present in databaseTrack 4 not present in databaseTrack 5 not present in databaseTrack 6 not present in databaseTrack 7 not present in databaseTrack 8 not present in databaseTrack 9 not present in databaseNone of the tracks are present in the AccurateRip databaseEnd of status report---- CUETools DB Plugin V2.1.3[CTDB TOCID: 9NsuimO7qOLH_hVbQDn9zYBCgBw-] disk not present in database, Submit result: 9NsuimO7qOLH_hVbQDn9zYBCgBw- has been uploaded

Содержание индексной карты (.CUE)

REM GENRE "Rock"REM DATE 2014REM DISCID 7B07CE09REM COMMENT "ExactAudioCopy v1.0b3"PERFORMER "Андрей Макаревич и Ильдар Казаханов"TITLE "Ильдар и Андрей в Машине"FILE "Андрей Макаревич и Ильдар Казаханов - Ильдар и Андрей в Машине.flac" WAVE TRACK 01 AUDIO TITLE "Скачки" PERFORMER "Андрей Макаревич и Ильдар Казаханов" INDEX 01 00:00:00 TRACK 02 AUDIO TITLE "Кого ты хотел удивить" PERFORMER "Андрей Макаревич и Ильдар Казаханов" INDEX 00 04:08:74 INDEX 01 04:10:74 TRACK 03 AUDIO TITLE "Снег" PERFORMER "Андрей Макаревич и Ильдар Казаханов" INDEX 00 07:02:36 INDEX 01 07:04:36 TRACK 04 AUDIO TITLE "Старый корабль" PERFORMER "Андрей Макаревич и Ильдар Казаханов" INDEX 00 08:56:60 INDEX 01 08:58:60 TRACK 05 AUDIO TITLE "Марионетки" PERFORMER "Андрей Макаревич и Ильдар Казаханов" INDEX 00 13:53:10 INDEX 01 13:55:10 TRACK 06 AUDIO TITLE "Синяя птица" PERFORMER "Андрей Макаревич и Ильдар Казаханов" INDEX 00 18:15:48 INDEX 01 18:17:48 TRACK 07 AUDIO TITLE "Картонные крылья любви" PERFORMER "Андрей Макаревич и Ильдар Казаханов" INDEX 00 22:05:24 INDEX 01 22:07:24 TRACK 08 AUDIO TITLE "Наш дом" PERFORMER "Андрей Макаревич и Ильдар Казаханов" INDEX 00 24:53:36 INDEX 01 24:55:36 TRACK 09 AUDIO TITLE "Поворот" PERFORMER "Андрей Макаревич и Ильдар Казаханов" INDEX 00 30:05:29 INDEX 01 30:07:29

admin

Post 03-Aug-2018 07:35

[Quote]

Эдди Рознер: Шмаляем джаз, холера ясна!
Жанр: Swing, Retro Swing
Страна-производитель диска: Россия
Год издания диска: 2011
Издатель (лейбл): Деком
Номер по каталогу: б/№
Страна: СССР
Аудиокодек: FLAC (*.flac)
Тип рипа: tracks+.cue
Битрейт аудио: lossless
Продолжительность: 69'40"
Источник (релизер): Собственный рип
Наличие сканов в содержимом раздачи: да (вкладыш скомпилирован из сканированных фрагментов обложки и заднего форзаца книги в стандартном размере 24×12 см)
Треклист: 1. Караван / Caravan (Хуан Тизол / Juan Tizol, обр. Ф. Кандрикса)
— Ади Рознер и его оркестр / Ady Rosner & His Orchestra; Ади Рознер (труба). (1938) — 2:52
2. Для меня ты хороша / Bei mir bist du shön (Шолом Секунда / Sholom Secunda)
— Лотар Лямпель / Lothar Lampel, солисты Ади Рознер и его оркестра / Ady Rosner & His Orchestra; Ади Рознер (труба). (1938) — 2:42
3. Джозеф / Joseph (Сэмми Кан, Нелли Ксаман, Сол Чаплин, Сэмюэл Стайнберг / Sammy Cahn, Nellie Kasman, Saul Chaplin, Samuel Steinberg)
— Лотар Лямпель / Lothar Lampel, Ади Рознер и его оркестр / Ady Rosner & His Orchestra (1937–1939) — 2:40
4. 1001 такт в ритме джаза (Эдди Рознер )
— Государственнцй джаз-оркестр Белорусской ССР п/у Эдди Рознера (1945) — 3:13
5. Очи чёрные (обр. Эдди Рознера, Тофика Кулиева)
— Государственнцй джаз-оркестр Белорусской ССР п/у Эдди Рознера; Эдди Рознер (труба). (1945) — 3:07
6. Прощай, любовь, танго (Эдди Рознер)
— Эстрадный оркестр п/у Эдди Рознера (1954) — 3:03
7. Тиха вода / Ticha woda (Эдди Рознер — Людвик Ежи Керн / Ludwuk Jerzy Kern)
— Павел Гофман, Эстрадный оркестр п/у Эдди Рознера (1954) — 3:03
8. Голубой прелюд / Blue Prelude (Джо Бишоп, Гордон Дженкинс / Joe Bishop, Gordon Jenkins, обр. Вадима Людвиковского)
— Эстрадный оркестр п/у Эдди Рознера; Эдди Рознер (труба). (1955) — 2:24
9. Сент-Луис блюз / Saint Louis Blues (Уильям Кристофер Хенди / William Christopher Handy, обр. Юрия Саульского)
— Эстрадный оркестр п/у Эдди Рознера; Эдди Рознер (труба). (1956) — 3:51
10. Я иду искать (Эдди Рознер — Михаил Пляцковский)
— Нина Бродская, Эстрадный оркестр п/у Эдди Рознера (1965) — 4:00
11. Ты — как песня (Эдди Рознер — Михаил Пляцковский)
— Нина Бродская, Эстрадный оркестр п/у Эдди Рознера (1965) — 4:05
12. Импровизация на тему песни «Парень-паренёк» («Тиха вода») (Эдди Рознер, аранж. Виталия Долгова)
— Эстрадный оркестр п/у Эдди Рознера (1966) — 3:16
13. Рождение оркестра (Виталий Долгов)
— Эстрадный оркестр п/у Эдди Рознера (1966) — 4:09
14. Соул босса-нова / Soul Bossa Nova (Куинси Джонс / Quincy Jones)
— Эстрадный оркестр п/у Эдди Рознера (1966) — 3:04
15. Джанго (Реквием) / Django (Джон Льюис / John Lewis, обр. Виталия Долгова)
— Эстрадный оркестр п/у Эдди Рознера (1967) — 7:23
16. Попурри на темы песен Э. Рознера (фрагмент) (аранж. Николая Левиновского)
— Эстрадный оркестр п/у Эдди Рознера, солистка Евгения Завьялова (1970) — 4:35
17. Я никогда не улыбнусь снова / I’ll Never Smile Again (Фредерик Лоу / Frederick Loewe, обр. Виталия Долгова)
— Эстрадный оркестр п/у Эдди Рознера (1967) — 3:26
18. Тум-балалайка / Tum Balalaika (еврейская песня)
— Нина Бродская (1995) — 2:51
19. Ветер лета (Эдди Рознер, обр. Дмитрия Драгилёва)
— Ансамбль «The Swinging Partisans» п/ у Дмитрия Драгилёва: С. Балицкий (труба), Дмитрий Драгилёв (ф-п.), У. Мергенсен (контрабас), В. Уникаускас (ударные) (2010) — 3:00
20. Караван / Caravan (Хуан Тизол / Juan Tizol, обр. Х. Нагеля)
— Государственнцй джаз-оркестр Белорусской ССР п/у Эдди Рознера; Эдди Рознер (труба). (1944) — 3:03 Фонограммы из коллекций В. М. Гилевича, Н. А. Бродской и семьи Драгилёвых. Среди них — уникальные записи с концертов, а также грамзаписи «Columbia Records».

Лог создания рипа

Exact Audio Copy V1.0 beta 2 from 29. April 2011Отчёт EAC об извлечении, выполненном 3. октября 2011, 22:28- / Do Playing Jazz Cholera JasnaДисковод: PLEXTOR CD-R PX-W1210S Adapter: 6 ID: 4Режим чтения : ДостоверностьИспользование точного потока : ДаОтключение кэша аудио : ДаИспользование указателей C2 : НетКоррекция смещения при чтении : 98Способность читать области Lead-in и Lead-out : НетЗаполнение пропущенных сэмплов тишиной : ДаУдаление блоков с тишиной в начале и конце : НетПри вычислениях CRC использовались нулевые сэмплы : ДаИнтерфейс : Встроенный Win32-интерфейс для WinNT/2000Обработка зазоров : Добавлено к предыдущему трекуВыходной формат : Пользовательский кодировщикВыбранный битрейт : 1024 kBit/sКачество : ВысокийДобавление ID3-тега : НетУтилита сжатия : C:\Program Files\Exact Audio Copy 1.0\Flac\flac.exeДополнительные параметры : -V -8 -T "Genre=%genre%" -T "Artist=%artist%" -T "Title=%title%" -T "Album=%albumtitle%" -T "Date=%year%" -T "Tracknumber=%tracknr%" -T "Comment=%comment%" %source%TOC извлечённого CD Трек | Старт | Длительность | Начальный сектор | Конечный сектор --------------------------------------------------------------------- 1 | 0:00.00 | 2:53.39 | 0 | 13013 2 | 2:53.39 | 2:44.67 | 13014 | 25380 3 | 5:38.31 | 2:43.19 | 25381 | 37624 4 | 8:21.50 | 3:13.04 | 37625 | 52103 5 | 11:34.54 | 3:10.29 | 52104 | 66382 6 | 14:45.08 | 3:06.18 | 66383 | 80350 7 | 17:51.26 | 2:52.02 | 80351 | 93252 8 | 20:43.28 | 2:27.12 | 93253 | 104289 9 | 23:10.40 | 3:53.60 | 104290 | 121824 10 | 27:04.25 | 4:03.65 | 121825 | 140114 11 | 31:08.15 | 4:04.49 | 140115 | 158463 12 | 35:12.64 | 3:18.72 | 158464 | 173385 13 | 38:31.61 | 4:11.39 | 173386 | 192249 14 | 42:43.25 | 3:07.31 | 192250 | 206305 15 | 45:50.56 | 7:27.36 | 206306 | 239866 16 | 53:18.17 | 4:38.47 | 239867 | 260763 17 | 57:56.64 | 3:28.60 | 260764 | 276423 18 | 61:25.49 | 2:56.06 | 276424 | 289629 19 | 64:21.55 | 3:01.05 | 289630 | 303209 20 | 67:22.60 | 3:04.74 | 303210 | 317083Трек 1 Имя файла D:\+DVD Projects\_SAMPLE\01 Ady Rosner & His Orchestra Caravan.wav Длина предзазора 0:00:02.00 Пиковый уровень 100.0 % Скорость извлечения 1.8 X Качество трека 100.0 % CRC теста 41793D4D CRC копии 41793D4D Копирование... OKТрек 2 Имя файла D:\+DVD Projects\_SAMPLE\02 Ady Rosner & His Orchestra Bei mir bist dushon.wav Длина предзазора 0:00:02.00 Пиковый уровень 100.0 % Скорость извлечения 1.8 X Качество трека 100.0 % CRC теста 64498BE7 CRC копии 64498BE7 Копирование... OKТрек 3 Имя файла D:\+DVD Projects\_SAMPLE\03 Ady Rosner & His Orchestra Joseph.wav Длина предзазора 0:00:02.00 Пиковый уровень 72.3 % Скорость извлечения 1.8 X Качество трека 100.0 % CRC теста D8ADF759 CRC копии D8ADF759 Копирование... OKТрек 4 Имя файла D:\+DVD Projects\_SAMPLE\04 State Jazz Orhestra of Byelorussian SSR 1001Bars in Jazz Rhythm.wav Длина предзазора 0:00:02.00 Пиковый уровень 97.5 % Скорость извлечения 1.8 X Качество трека 100.0 % CRC теста F9926042 CRC копии F9926042 Копирование... OKТрек 5 Имя файла D:\+DVD Projects\_SAMPLE\05 State Jazz Orhestra of Byelorussian SSR OchiChornyie.wav Длина предзазора 0:00:02.00 Пиковый уровень 98.2 % Скорость извлечения 1.8 X Качество трека 100.0 % CRC теста D0CEB987 CRC копии D0CEB987 Копирование... OKТрек 6 Имя файла D:\+DVD Projects\_SAMPLE\06 State Jazz Orhestra of Byelorussian SSR GoodBye Love.wav Длина предзазора 0:00:02.00 Пиковый уровень 100.0 % Скорость извлечения 1.7 X Качество трека 99.9 % CRC теста 158001DF CRC копии 158001DF Копирование... OKТрек 7 Имя файла D:\+DVD Projects\_SAMPLE\07 Variety Orhestra lea by Eddie Rosner Tichawoda.wav Длина предзазора 0:00:02.00 Пиковый уровень 98.3 % Скорость извлечения 1.8 X Качество трека 100.0 % CRC теста C70B114D CRC копии C70B114D Копирование... OKТрек 8 Имя файла D:\+DVD Projects\_SAMPLE\08 Variety Orhestra led by Eddie Rosner BluePrelude.wav Длина предзазора 0:00:02.00 Пиковый уровень 100.0 % Скорость извлечения 1.8 X Качество трека 100.0 % CRC теста 1D982197 CRC копии 1D982197 Копирование... OKТрек 9 Имя файла D:\+DVD Projects\_SAMPLE\09 Variety Orhestra led by Eddie Rosner SaintLouis Blues.wav Длина предзазора 0:00:02.00 Пиковый уровень 99.8 % Скорость извлечения 1.8 X Качество трека 100.0 % CRC теста A98CBB56 CRC копии A98CBB56 Копирование... OKТрек 10 Имя файла D:\+DVD Projects\_SAMPLE\10 Nina Brodskaya, Variety Orhestra led by EddieRosner Ya idu iskat.wav Длина предзазора 0:00:02.00 Пиковый уровень 100.0 % Скорость извлечения 1.8 X Качество трека 100.0 % CRC теста D0F4D1C5 CRC копии D0F4D1C5 Копирование... OKТрек 11 Имя файла D:\+DVD Projects\_SAMPLE\11 Nina Brodskaya, Variety Orhestra led by EddieRosner Ty - kak pesnya.wav Длина предзазора 0:00:02.00 Пиковый уровень 78.8 % Скорость извлечения 1.8 X Качество трека 99.9 % CRC теста BFC77075 CRC копии BFC77075 Копирование... OKТрек 12 Имя файла D:\+DVD Projects\_SAMPLE\12 Variety Orhestra led by Eddie RosnerImprovisation (Paren-parenyok).wav Длина предзазора 0:00:02.00 Пиковый уровень 100.0 % Скорость извлечения 1.8 X Качество трека 100.0 % CRC теста 39096D61 CRC копии 39096D61 Копирование... OKТрек 13 Имя файла D:\+DVD Projects\_SAMPLE\13 Variety Orhestra led by Eddie Rosner Birth ofthe Orchestra.wav Длина предзазора 0:00:02.00 Пиковый уровень 100.0 % Скорость извлечения 1.8 X Качество трека 100.0 % CRC теста D3159CCD CRC копии D3159CCD Копирование... OKТрек 14 Имя файла D:\+DVD Projects\_SAMPLE\14 Variety Orhestra led by Eddie Rosner Soul BossaNova.wav Длина предзазора 0:00:02.00 Пиковый уровень 78.6 % Скорость извлечения 1.8 X Качество трека 100.0 % CRC теста 6AE09EA6 CRC копии 6AE09EA6 Копирование... OKТрек 15 Имя файла D:\+DVD Projects\_SAMPLE\15 Variety Orhestra led by Eddie Rosner Django(Requiem).wav Длина предзазора 0:00:02.00 Пиковый уровень 100.0 % Скорость извлечения 1.9 X Качество трека 100.0 % CRC теста AE877BDF CRC копии AE877BDF Копирование... OKТрек 16 Имя файла D:\+DVD Projects\_SAMPLE\16 Variety Orhestra led by Eddie RosnerPotpourri.wav Длина предзазора 0:00:02.00 Пиковый уровень 100.0 % Скорость извлечения 1.8 X Качество трека 100.0 % CRC теста A54C4893 CRC копии A54C4893 Копирование... OKТрек 17 Имя файла D:\+DVD Projects\_SAMPLE\17 Variety Orhestra led by Eddie Rosner I'll NeverSmile Again.wav Длина предзазора 0:00:02.00 Пиковый уровень 100.0 % Скорость извлечения 1.8 X Качество трека 99.9 % CRC теста 970C00F6 CRC копии 970C00F6 Копирование... OKТрек 18 Имя файла D:\+DVD Projects\_SAMPLE\18 Nina Brodskaya Tum Balalaika.wav Длина предзазора 0:00:02.00 Пиковый уровень 98.4 % Скорость извлечения 1.8 X Качество трека 100.0 % CRC теста E38D1284 CRC копии E38D1284 Копирование... OKТрек 19 Имя файла D:\+DVD Projects\_SAMPLE\19 The Swinging Partisans Summer Wind.wav Длина предзазора 0:00:02.00 Пиковый уровень 98.4 % Скорость извлечения 1.8 X Качество трека 100.0 % CRC теста 46AFC6B5 CRC копии 46AFC6B5 Копирование... OKТрек 20 Имя файла D:\+DVD Projects\_SAMPLE\20 State Jazz Orhestra of Byelorussian SSRCaravan.wav Длина предзазора 0:00:02.00 Пиковый уровень 100.0 % Скорость извлечения 1.8 X Качество трека 100.0 % CRC теста AA55705D CRC копии AA55705D Копирование... OKОшибок не произошлоКонец отчёта==== Контрольная сумма отчёта 9D2567F9AE1EF35F8CCD7139C2117406C5161345BE317DCCA5F09EB6091E01A2 ====

Содержание индексной карты (.CUE)

REM GENRE VarietyREM DATE 2011REM DISCID 16108314REM COMMENT "ExactAudioCopy v1.0b2"PERFORMER "Eddie Rosner"TITLE "Do Playing Jazz Cholera Jasna"FILE "01 Ady Rosner & His Orchestra Caravan.wav" WAVE TRACK 01 AUDIO TITLE "Caravan" PERFORMER "Ady Rosner & His Orchestra" FLAGS DCP INDEX 01 00:00:00 TRACK 02 AUDIO TITLE "Bei mir bist du shon" PERFORMER "Ady Rosner & His Orchestra" FLAGS DCP INDEX 00 02:51:39FILE "02 Ady Rosner & His Orchestra Bei mir bist du shon.wav" WAVE INDEX 01 00:00:00 TRACK 03 AUDIO TITLE "Joseph" PERFORMER "Ady Rosner & His Orchestra" FLAGS DCP INDEX 00 02:42:67FILE "03 Ady Rosner & His Orchestra Joseph.wav" WAVE INDEX 01 00:00:00 TRACK 04 AUDIO TITLE "1001 Bars in Jazz Rhythm" PERFORMER "State Jazz Orhestra of Byelorussian SSR" FLAGS DCP INDEX 00 02:41:19FILE "04 State Jazz Orhestra of Byelorussian SSR 1001 Bars in Jazz Rhythm.wav" WAVE INDEX 01 00:00:00 TRACK 05 AUDIO TITLE "Ochi Chornyie" PERFORMER "State Jazz Orhestra of Byelorussian SSR" FLAGS DCP INDEX 00 03:11:04FILE "05 State Jazz Orhestra of Byelorussian SSR Ochi Chornyie.wav" WAVE INDEX 01 00:00:00 TRACK 06 AUDIO TITLE "Good Bye Love" PERFORMER "State Jazz Orhestra of Byelorussian SSR" FLAGS DCP INDEX 00 03:08:29FILE "06 State Jazz Orhestra of Byelorussian SSR Good Bye Love.wav" WAVE INDEX 01 00:00:00 TRACK 07 AUDIO TITLE "Ticha woda" PERFORMER "Variety Orhestra led by Eddie Rosner" FLAGS DCP INDEX 00 03:04:18FILE "07 Variety Orhestra led by Eddie Rosner Ticha woda.wav" WAVE INDEX 01 00:00:00 TRACK 08 AUDIO TITLE "Blue Prelude" PERFORMER "Variety Orhestra led by Eddie Rosner" FLAGS DCP INDEX 00 02:50:02FILE "08 Variety Orhestra led by Eddie Rosner Blue Prelude.wav" WAVE INDEX 01 00:00:00 TRACK 09 AUDIO TITLE "Saint Louis Blues" PERFORMER "Variety Orhestra led by Eddie Rosner" FLAGS DCP INDEX 00 02:25:12FILE "09 Variety Orhestra led by Eddie Rosner Saint Louis Blues.wav" WAVE INDEX 01 00:00:00 TRACK 10 AUDIO TITLE "Ya idu iskat" PERFORMER "Nina Brodskaya, Variety Orhestra led by Eddie Rosner" FLAGS DCP INDEX 00 03:51:60FILE "10 Nina Brodskaya, Variety Orhestra led by Eddie Rosner Ya idu iskat.wav" WAVE INDEX 01 00:00:00 TRACK 11 AUDIO TITLE "Ty - kak pesnya" PERFORMER "Nina Brodskaya, Variety Orhestra led by Eddie Rosner" FLAGS DCP INDEX 00 04:01:65FILE "11 Nina Brodskaya, Variety Orhestra led by Eddie Rosner Ty - kak pesnya.wav" WAVE INDEX 01 00:00:00 TRACK 12 AUDIO TITLE "Improvisation (Paren-parenyok)" PERFORMER "Variety Orhestra led by Eddie Rosner" FLAGS DCP INDEX 00 04:02:49FILE "12 Variety Orhestra led by Eddie Rosner Improvisation (Paren-parenyok).wav" WAVE INDEX 01 00:00:00 TRACK 13 AUDIO TITLE "Birth of the Orchestra" PERFORMER "Variety Orhestra led by Eddie Rosner" FLAGS DCP INDEX 00 03:16:72FILE "13 Variety Orhestra led by Eddie Rosner Birth of the Orchestra.wav" WAVE INDEX 01 00:00:00 TRACK 14 AUDIO TITLE "Soul Bossa Nova" PERFORMER "Variety Orhestra led by Eddie Rosner" FLAGS DCP INDEX 00 04:09:39FILE "14 Variety Orhestra led by Eddie Rosner Soul Bossa Nova.wav" WAVE INDEX 01 00:00:00 TRACK 15 AUDIO TITLE "Django (Requiem)" PERFORMER "Variety Orhestra led by Eddie Rosner" FLAGS DCP INDEX 00 03:05:31FILE "15 Variety Orhestra led by Eddie Rosner Django (Requiem).wav" WAVE INDEX 01 00:00:00 TRACK 16 AUDIO TITLE "Potpourri" PERFORMER "Variety Orhestra led by Eddie Rosner" FLAGS DCP INDEX 00 07:25:36FILE "16 Variety Orhestra led by Eddie Rosner Potpourri.wav" WAVE INDEX 01 00:00:00 TRACK 17 AUDIO TITLE "I'll Never Smile Again" PERFORMER "Variety Orhestra led by Eddie Rosner" FLAGS DCP INDEX 00 04:36:47FILE "17 Variety Orhestra led by Eddie Rosner I'll Never Smile Again.wav" WAVE INDEX 01 00:00:00 TRACK 18 AUDIO TITLE "Tum Balalaika" PERFORMER "Nina Brodskaya" FLAGS DCP INDEX 00 03:26:60FILE "18 Nina Brodskaya Tum Balalaika.wav" WAVE INDEX 01 00:00:00 TRACK 19 AUDIO TITLE "Summer Wind" PERFORMER "The Swinging Partisans" FLAGS DCP INDEX 00 02:54:06FILE "19 The Swinging Partisans Summer Wind.wav" WAVE INDEX 01 00:00:00 TRACK 20 AUDIO TITLE "Caravan" PERFORMER "State Jazz Orhestra of Byelorussian SSR" FLAGS DCP INDEX 00 02:59:05FILE "20 State Jazz Orhestra of Byelorussian SSR Caravan.wav" WAVE INDEX 01 00:00:00
Доп. информация: Диск является дополнением к книге: Драгилёв Дмитрий. Эдди Рознер: Шмаляем джаз, холера ясна! Документальный роман.— Нижний Новгород: ДЕКОМ. — 2011. — 360 с. (серия «Имена»): В него включены музыкальные произведения разных жанров, отражающие все грани музыкального таланта Эдди Рознера — виртуозного трубача, композитора и аранжировщика, руководителя оркестра. Наряду с широко известными, а также полузабытыми произведениями, мы предоставляем нашим читателям эксклюзивную возможность познакомиться с музыкальными композициями оркестра Э. Рознера, которые почти полвека считались не существующими. Композиция «Ветер лета» (начало 1970-х гг.) воссоздана по нотам и аудиозаписям, обнаруженным автором книги в архиве В. Владимировой-Рознер.
Выражаем глубокую благодарность Андрею Прозоровскому за бескорыстную помощь в создании диска и реставрацию старых записей.

admin

Post 03-Aug-2018 07:06

[Quote]

Dmitry Ilugdin Trio (Дмитрий Илугдин Трио) / Reflection (Отражение)
Жанр: Jazz
Носитель: WEB
Страна-производитель релиза: Russia
Год издания: 2017
Издатель (лейбл): ArtBeat music
Страна исполнителя (группы): Russia
Аудиокодек: FLAC (*.flac)
Тип рипа: tracks
Битрейт аудио: lossless
Продолжительность: 00:58:24
Источник: qobuz.com
Наличие сканов в содержимом раздачи: нет
Треклист:
1. Transformability
2. Nocturne
3. Prelude #4
4. Reflection
5. Old Town
6. Aura
7. Prelude #3

Лог проверки качества

-----------------------DON'T MODIFY THIS FILE-----------------------PERFORMER: auCDtect Task Manager, ver. 1.6.0 RC1 build 1.6.0.1Copyright (c) 2008-2010 y-soft. All rights reservedhttp://y-soft.orgANALYZER: auCDtect: CD records authenticity detector, version 0.8.2Copyright (c) 2004 Oleg Berngardt. All rights reserved.Copyright (c) 2004 Alexander Djourik. All rights reserved.FILE: 7. Prelude #3.flac Size: 22137352 Hash: 1AB6A6DE327BE2D558678F9FD74417B3 Accuracy: -m0 Conclusion: CDDA 100% Signature: 926387BF0C356FEC8B497727F83E7AD00A4B8EFCFILE: 6. Aura.flac Size: 57433220 Hash: CBEB5CFCDFA09370692E92B57A8FF61C Accuracy: -m0 Conclusion: CDDA 100% Signature: 1084D121B3A00F74FEF1C42847D1D7BE15A214DDFILE: 5. Old Town.flac Size: 31243200 Hash: 4710CD6AFC72BD81F7A4689FB69FF9BB Accuracy: -m0 Conclusion: CDDA 100% Signature: E8B86FA3F795A35DBE07F5EDF78B80E0EB1514D3FILE: 4. Reflection.flac Size: 54216019 Hash: F63AE316ACAA95AA5155D3DD6AB37569 Accuracy: -m0 Conclusion: CDDA 100% Signature: 20FFFCD97ED11B86AD5B8D18BC277591CCA6258BFILE: 3. Prelude #4.flac Size: 39569557 Hash: D1C806F9C2F7D41472856D5C90F79137 Accuracy: -m0 Conclusion: CDDA 100% Signature: 736BC7902D3AF88F99BCE97204B44D7D492143FDFILE: 2. Nocturne.flac Size: 29206739 Hash: E1F01FCC5CEC53F26865A2CB48A1DC74 Accuracy: -m0 Conclusion: CDDA 99% Signature: CFCCBC041115789A66600355E50D3B1A71E9AB4FFILE: 1. Transformability.flac Size: 59196212 Hash: 9493B1317A31245351F74CF1906B1C2B Accuracy: -m0 Conclusion: CDDA 100% Signature: E7867AC77C2A3B462053CA537E59E7D5989E05F8

Состав

Дмитрий Илугдин - пианино
Виктор Шестак - контрабас
Пётр Ившин - барабаны

admin

Post 03-Aug-2018 06:59

[Quote]

Арсенал / Связь времён
Жанр: fusion
Страна-производитель диска: Россия
Год издания диска: 2010
Издатель (лейбл): ООО"Брильянт Джаз Клуб"
Страна: Россия
Аудио кодек: FLAC (*.flac)
Тип рипа: image+.cue
Битрейт аудио: lossless
Продолжительность: 0:56:47
Источник (релизер): Брильянт Джаз Клуб
Наличие сканов в содержимом раздачи: да
Треклист:
1-Ленивый везунчик(А.Козлов)
2-Бессонница(А.Козлов)
3-Связь времён(А.Козлов)
4-Воздушный замок(А.Козлов)
5-Траффл-Шафлл(А.Козлов)
6-Летняя элегия(А.Козлов)
7-Скоморох(А.Козлов)
8-Добрый знак(А.Козлов)
9-Прелестное создание(Денис Бриль)
10-Вечный Монк(А.Козлов)

Лог создания рипа

[pre]Exact Audio Copy V0.99 prebeta 5 from 4. May 2009Отчёт EAC об извлечении, выполненном 22. февраля 2011, 19:48Арсенал / Связь времёнДисковод: TSSTcorpCD/DVDW TS-L632D Adapter: 1 ID: 0Режим чтения : Достоверность
Использование точного потока : Да
Отключение кэша аудио : Да
Использование указателей C2 : НетКоррекция смещения при чтении : 6
Способность читать области Lead-in и Lead-out : Нет
Заполнение пропущенных сэмплов тишиной : Да
Удаление блоков с тишиной в начале и конце : Нет
При вычислениях CRC использовались нулевые сэмплы : Нет
Интерфейс : Установленный внешний ASPI-интерфейсВыходной формат : Пользовательский кодировщик
Выбранный битрейт : 768 kBit/s
Качество : Высокий
Добавление ID3-тэга : Нет
Утилита сжатия : D:\Программы\Аудио\Exact Audio Copy\FLAC\FLAC.EXE
Дополнительные параметры : -8 -V %sTOC извлечённого CD Трек | Старт | Длительность | Начальный сектор | Конечный сектор
---------------------------------------------------------------------
1 | 0:00.00 | 5:22.48 | 0 | 24197
2 | 5:22.48 | 6:04.06 | 24198 | 51503
3 | 11:26.54 | 7:12.62 | 51504 | 83965
4 | 18:39.41 | 5:02.70 | 83966 | 106685
5 | 23:42.36 | 6:33.20 | 106686 | 136180
6 | 30:15.56 | 4:39.50 | 136181 | 157155
7 | 34:55.31 | 5:02.11 | 157156 | 179816
8 | 39:57.42 | 5:37.64 | 179817 | 205155
9 | 45:35.31 | 5:37.23 | 205156 | 230453
10 | 51:12.54 | 5:34.35 | 230454 | 255538Характеристики диапазона извлечения и сообщения об ошибкахВыбранный диапазон Имя файла C:\Users\Slap\Music\Арсенал - Связь времён.wav Пиковый уровень 99.8 %
Качество диапазона 100.0 %
CRC копии EA174659
Копирование... OKОшибок не произошлоКонец отчёта

Об исполнителе (группе)

Новая пластинка восьмого по счёту состава ансамбля Арсенал.

Состав

В записи альбома принимали участие:
Алексей Козлов-саксофон
Сергей Слободин-бас-гитара
Эдуард Петрухин-ударные инструменты
Алексей Самарин-клавишные инсрументыСпециальный гость:
Игорь Бриль(клавишные инструменты)
в композиции "Прелестное создание"
 

Current time is: 05-Jul 22:10

All times are UTC + 3