Search found 63 matches

Author Message

admin

Post 10-May-2022 00:50

[Quote]

Название: Corde a Colori
Исполнитель: Massimo Sorrentino
Год: 2022
Жанр: Jazz
Страна: Italy
Продолжительность: 00:58:42
Формат/Кодек: FLAC
Битрейт аудио: Lossless

Трек-лист

01 - Bianco Acustico (00:02:21)
02 - In Fuga (00:04:03)
03 - Blackbird (00:02:39)
04 - Verde In Tre (00:05:08)
05 - Mi Colori (00:04:36)
06 - Over The Rainbow (00:03:25)
07 - Rosso Orchestrale (00:03:33)
08 - Gratitudine (00:06:19)
09 - Whit Me (00:07:27)
10 - Blu Elettrico (00:05:16)
11 - Sogno Interstellare (00:08:03)
12 - From The Sea To The Sky (00:05:48)

Log

DON'T MODIFY THIS FILE
-----------------------
PERFORMER: auCDtect Task Manager, ver. 1.6.0 RC1 build 1.6.0.1
Copyright (c) 2008-2010 y-soft. All rights reserved
http://y-soft.org
ANALYZER: auCDtect: CD records authenticity detector, version 0.8.2
Copyright (c) 2004 Oleg Berngardt. All rights reserved.
Copyright (c) 2004 Alexander Djourik. All rights reserved.
FILE: 12 - From The Sea To The Sky.flac
Size: 34197654 Hash: EE235C54C504FC3C26899D4F6970EA8C Accuracy: -m40
Conclusion: CDDA 100%
Signature: 768D0A73E278A5081A7268BA02A27762F107EFE9
FILE: 11 - Sogno Interstellare.flac
Size: 45611439 Hash: 70652BF08826C243A20C9BF98BFDDAC9 Accuracy: -m40
Conclusion: CDDA 100%
Signature: 8AA575FC9C5DEB740B34AD2985AA4009C7EA164E
FILE: 10 - Blu Elettrico.flac
Size: 26167926 Hash: ACE661523639DB9AA520229D1D1C6C0D Accuracy: -m40
Conclusion: CDDA 100%
Signature: 579DBF657F25699DF47ACBF9F8308EB9F946BD71
FILE: 09 - Whit Me.flac
Size: 43322916 Hash: F5C8B4AE91D20AB3801E941886E6D59D Accuracy: -m40
Conclusion: CDDA 100%
Signature: A3F2E32F400D6A47303E6E03CF34DC01BD452CE0
FILE: 08 - Gratitudine.flac
Size: 32167183 Hash: 53BE6713C9E93DCE9129187206DB0918 Accuracy: -m40
Conclusion: CDDA 100%
Signature: 48F894C6DF20D51785F8143C0EDFAE8C9FA06847
FILE: 07 - Rosso Orchestrale.flac
Size: 21271348 Hash: 00B95A0B7BAAA8A4019D1B6969A85F5E Accuracy: -m40
Conclusion: CDDA 100%
Signature: D817DD733BB09F2437458865A6342667A5640A49
FILE: 06 - Over The Rainbow.flac
Size: 7973579 Hash: CC8CF20042BC96666A0A55ED78DF7C4D Accuracy: -m40
Conclusion: MPEG 90%
Signature: A9CBE5A06C5E339F5F27954750446BDF3BE8903C
FILE: 05 - Mi Colori.flac
Size: 24233498 Hash: A840124DF88C9D7704961E75D7164887 Accuracy: -m40
Conclusion: CDDA 100%
Signature: 554FB2EE4519248F85C2E6206F845CA8F265C4B3
FILE: 04 - Verde In Tre.flac
Size: 25762678 Hash: 894CB12EB519CBD79595A19AB09795AB Accuracy: -m40
Conclusion: CDDA 100%
Signature: 5558CC0961FEB14DBCC4A09D3F55594844643839
FILE: 03 - Blackbird.flac
Size: 10749457 Hash: B7BB715FDA2F94059DFED8B6B7EF32AE Accuracy: -m40
Conclusion: CDDA 100%
Signature: 5DDC97F22BAF4CDBB8490B4F003AD0C8AEB1F839
FILE: 02 - In Fuga.flac
Size: 22091156 Hash: FF1B4A9A04ECCC44343DBE6CF0FD33EF Accuracy: -m40
Conclusion: CDDA 100%
Signature: 64A74D608FB3FE917BE3F39BA5F432A91CB06A8F
FILE: 01 - Bianco Acustico.flac
Size: 12529529 Hash: 21E6D582A1892CBB3F4859FC493810AE Accuracy: -m40
Conclusion: CDDA 100%
Signature: 6AA32FE93CB78D399ED9B0C1EB4D850D6A6F5292

admin

Post 09-May-2022 01:17

[Quote]

Название: Solo Suites
Исполнитель: Bireli Lagrene
Год: 2022
Жанр: Jazz
Страна: France
Продолжительность: 00:57:37
Формат/Кодек: FLAC
Тип рипа: Tracks
Битрейт аудио: Lossless
Разрядность: 24 Bit/96 kHz
Носитель: WEB

Трек-лист

01. Memories (04:26)
02. Nature Boy (05:08)
03. Little Melody (06:13)
04. A suivre... (02:02)
05. Question réponse (01:34)
06. Caravan (02:58)
07. My Foolish Hearth (02:59)
08. Put Your Dreams Away (03:14)
09. Fifty Five Reasons (04:32)
10. Bagi (03:53)
11. Green Light (02:34)
12. Buster Keaton (03:51)
13. Un certain groove (03:01)
14. 12.15 (02:18)
15. Blue Blues (02:43)
16. No Signal (00:48)
17. Angel for Montgomery (05:23)

DRM
foobar2000 1.4.3 / Dynamic Range Meter 1.1.1
--------------------------------------------------------------------------------
Analyzed: Biréli Lagrène / Solo Suites
--------------------------------------------------------------------------------
DR Peak RMS Duration Track
--------------------------------------------------------------------------------
DR10 -1.62 dB -14.53 dB 4:26 01-Memories
DR11 -1.00 dB -14.73 dB 5:09 02-Nature Boy
DR14 -0.01 dB -16.46 dB 6:14 03-Little Melody
DR10 -0.21 dB -13.52 dB 2:03 04-A suivre...
DR11 -2.40 dB -14.95 dB 1:34 05-Question réponse
DR12 -0.01 dB -14.32 dB 2:59 06-Caravan
DR12 -0.01 dB -15.36 dB 2:59 07-My Foolish Hearth
DR10 -0.55 dB -13.13 dB 3:14 08-Put Your Dreams Away
DR11 -0.01 dB -14.24 dB 4:32 09-Fifty Five Reasons
DR11 -1.11 dB -14.47 dB 3:53 10-Bagi
DR12 -0.01 dB -14.59 dB 2:34 11-Green Light
DR13 -1.10 dB -17.08 dB 3:51 12-Buster Keaton
DR12 -0.01 dB -14.57 dB 3:01 13-Un certain groove
DR8 -2.98 dB -14.96 dB 2:19 14-12.15
DR12 -0.01 dB -14.60 dB 2:44 15-Blue Blues
DR12 -5.50 dB -22.21 dB 0:48 16-No Signal
DR11 -0.01 dB -13.36 dB 5:23 17-Angel for Montgomery
--------------------------------------------------------------------------------
Number of tracks: 17
Official DR value: DR11
Samplerate: 96000 Hz
Channels: 2
Bits per sample: 24
Bitrate: 2667 kbps
Codec: FLAC
================================================================================

admin

Post 08-May-2022 01:27

[Quote]

Название: Mingus. The Lost Album From Ronnie Scott's
Исполнитель: Charles Mingus
Год: 2022
Жанр: Jazz
Страна: USA
Продолжительность: 02:23:46
Формат/Кодек: FLAC
Тип рипа: Tracks
Битрейт аудио: Lossless
Разрядность: 24 Bit/192 kHz
Носитель: WEB

Трек-лист

01. Orange Was the Color of Her Dress, Then Silk Blues (30:44)
02. Noddin' Ya Head Blues (19:54)
03. Mind-reader's Concention in Milano (29:59)
04. Fables of Faubus (35:02)
05. Pops (Aka When the Saints Go Marching In) (07:33)
06. The Man Who Never Sleeps (18:35)
07. Air Mail Special (02:03)

DRM
foobar2000 1.6.6 / Dynamic Range Meter 1.1.1
--------------------------------------------------------------------------------
Analyzed: Charles Mingus / MIngus, The Lost Album From Ronnie Scott's
--------------------------------------------------------------------------------
DR Peak RMS Duration Track
--------------------------------------------------------------------------------
DR11 -5.35 dB -20.07 dB 30:44 01-Orange Was the Color of Her Dress, Then Silk Blues
DR12 -5.41 dB -20.91 dB 19:54 02-Noddin' Ya Head Blues
DR11 -5.12 dB -19.26 dB 29:59 03-Mind-reader's Concention in Milano
DR13 -4.54 dB -21.36 dB 35:02 04-Fables of Faubus
DR11 -4.98 dB -19.63 dB 7:33 05-Pops (Aka When the Saints Go Marching In)
DR11 -4.87 dB -19.35 dB 18:35 06-The Man Who Never Sleeps
DR10 -5.24 dB -18.44 dB 2:03 07-Air Mail Special
--------------------------------------------------------------------------------
Number of tracks: 7
Official DR value: DR11
Samplerate: 192000 Hz
Channels: 2
Bits per sample: 24
Bitrate: 4863 kbps
Codec: FLAC
================================================================================

admin

Post 04-May-2022 01:31

[Quote]

Название: Jazz Sabbath - 1970
Исполнитель: Jazz Sabbath
Год: 2020
Жанр: Contemporary-Jazz
Страна: UK
Продолжительность: 00:43:47
Формат/Кодек: FLAC
Битрейт аудио: Lossless

Трек-лист

01. Fairies Wear Boots 6:05
02. Evil Woman 5:38
03. Rat Salad 4:29
04. Iron Man 7:15
05. Hand Of Doom 7:14
06. Changes 5:33
07. Children Of The Grave 7:12

Log

Exact Audio Copy V1.3 from 2. September 2016
Отчёт EAC об извлечении, выполненном 9. июня 2020, 15:51
Jazz Sabbath / Jazz Sabbath
Дисковод: ATAPI iHAS122 F Adapter: 1 ID: 0
Режим чтения : Достоверность
Использование точного потока : Да
Отключение кэша аудио : Да
Использование указателей C2 : Нет
Коррекция смещения при чтении : 6
Способность читать области Lead-in и Lead-out : Нет
Заполнение пропущенных сэмплов тишиной : Да
Удаление блоков с тишиной в начале и конце : Нет
При вычислениях CRC использовались нулевые сэмплы : Да
Интерфейс : Встроенный Win32-интерфейс для Win NT/2000
Выходной формат : Пользовательский кодировщик
Выбранный битрейт : 1024 kBit/s
Качество : Высокий
Добавление ID3-тега : Нет
Утилита сжатия : C:Program Files (x86)Exact Audio CopyFlacflac.exe
Дополнительные параметры : -V -8 -T "Date=%year%" -T "Genre=%genre%" %source%
TOC извлечённого CD
Трек | Старт | Длительность | Начальный сектор | Конечный сектор
---------------------------------------------------------------------
1 | 0:00.00 | 6:05.30 | 0 | 27404
2 | 6:05.30 | 5:38.01 | 27405 | 52755
3 | 11:43.31 | 4:29.16 | 52756 | 72946
4 | 16:12.47 | 7:14.42 | 72947 | 105538
5 | 23:27.14 | 7:14.25 | 105539 | 138113
6 | 30:41.39 | 5:53.24 | 138114 | 164612
7 | 36:34.63 | 7:12.06 | 164613 | 197018
Характеристики диапазона извлечения и сообщения об ошибках
Выбранный диапазон
Имя файла E:Torrents-seedJazz Sabbath - 2020Jazz Sabbath - Jazz Sabbath.wav
Пиковый уровень 98.1 %
Скорость извлечения 3.0 X
Качество диапазона 99.7 %
CRC теста 9324E540
CRC копии 9324E540
Копирование... OK
Ошибок не произошло
AccurateRip: сводка
Трек 1 : извлечено точно (доверие 1) [5713D777] (AR v2)
Трек 2 : извлечено точно (доверие 1) [3F58C2ED] (AR v2)
Трек 3 : извлечено точно (доверие 1) [BD77C273] (AR v2)
Трек 4 : извлечено точно (доверие 1) [5EA7FD28] (AR v2)
Трек 5 : извлечено точно (доверие 1) [C64EE0C0] (AR v2)
Трек 6 : извлечено точно (доверие 1) [C55D06B3] (AR v2)
Трек 7 : извлечено точно (доверие 1) [D43887A2] (AR v2)
Все треки извлечены точно
Конец отчёта
==== Контрольная сумма отчёта 1D815EC042274F22ED17BDA4D269E333444C5DC6B1E524A387A14536CFCCBEA5 ====

admin

Post 04-May-2022 01:18

[Quote]

Название: Vol. 2
Исполнитель: Jazz Sabbath
Год: 2022
Жанр: Jazz-Rock
Страна: UK
Лейбл: Blacklake
Продолжительность: 00:41:49
Формат/Кодек: FLAC
Битрейт аудио: Lossless

Трек-лист

1. Paranoid (7:58)
2. Snowblind (6:10)
3. Behind the Wall of Sleep (6:28)
4. Sabbra Cadabra (4:52)
5. Symptom of the Universe (4:38)
6. N.I.B. (5:47)
7. Black Sabbath (5:56)

Log

DON'T MODIFY THIS FILE
-----------------------
PERFORMER: auCDtect Task Manager, ver. 1.6.0 RC1 build 1.6.0.1
Copyright (c) 2008-2010 y-soft. All rights reserved
http://y-soft.org
ANALYZER: auCDtect: CD records authenticity detector, version 0.8.2
Copyright (c) 2004 Oleg Berngardt. All rights reserved.
Copyright (c) 2004 Alexander Djourik. All rights reserved.
FILE: 07 - Black Sabbath.flac
Size: 33959564 Hash: F094A817332FE91BDFCE1CA2C288CB56 Accuracy: -m40
Conclusion: CDDA 99%
Signature: 63FD4E80D6FE2FF262CD2DE233EED6ED498D4FF1
FILE: 06 - N.I.B.flac
Size: 39413479 Hash: F01795B46FA5EADFD1E1BE1F6D107C5C Accuracy: -m40
Conclusion: CDDA 100%
Signature: A8F5A05859D6878A56D69DFF3A3BE7B6035A45A7
FILE: 05 - Symptom of the Universe.flac
Size: 26598081 Hash: 56708DD69FB14E10923C9B70E85B1A1E Accuracy: -m40
Conclusion: CDDA 100%
Signature: 1EED251A397065145C78DD82C1012240995F106F
FILE: 04 - Sabbra Cadabra.flac
Size: 28972814 Hash: 4D16234B9E552195A68B7177552E2DEF Accuracy: -m40
Conclusion: CDDA 100%
Signature: 0D65E5BF0453E79EA185F81EE7C4699038B9ABFF
FILE: 03 - Behind the Wall of Sleep.flac
Size: 37454315 Hash: 4C87DDB2A27092EB38523B72FF957054 Accuracy: -m40
Conclusion: CDDA 100%
Signature: 8E5926296EB43B910A0F0287EC1E7AB80A6D2C1C
FILE: 02 - Snowblind.flac
Size: 39820847 Hash: 318DFD60F80699F837CDB01CAF9B7149 Accuracy: -m40
Conclusion: CDDA 99%
Signature: D3F1DAB06B25FC5861E67D343409B8B502F48A7D
FILE: 01 - Paranoid.flac
Size: 44500288 Hash: 4B9EDDA142A4DEE5D188ADE7296DE26C Accuracy: -m40
Conclusion: CDDA 100%
Signature: 701FEFE6F4A9A2DB87D52FF468541364A66ACA3D

admin

Post 12-Apr-2022 17:06

[Quote]

Название: The Ground
Исполнитель: Tord Gustavsen Trio
Год: 2004
Жанр: Contemporary-Jazz
Страна: Norway
Продолжительность: 01:00:11
Формат/Кодек: FLAC
Тип рипа: Tracks
Битрейт аудио: Lossless
Разрядность: 24 Bit/96 kHz

Трек-лист

01. Tears Transforming
02. Being There
03. Twins
04. Curtains Aside
05. Colours of Mercy
06. Sentiment
07. Kneeling Down
08. Reach Out and Touch It
09. Edges of Happiness
10. Interlude
11. Token of Tango
12. The Ground

DRM
foobar2000 1.5.5 / Замер динамического диапазона (DR) 1.1.1
--------------------------------------------------------------------------------
Анализ: Tord Gustavsen Trio / The Ground (24Bit)
--------------------------------------------------------------------------------
DR Пики RMS Продолжительность трека
--------------------------------------------------------------------------------
DR15 -0.84 дБ -22.59 дБ 5:34 01-Tears Transforming
DR15 -5.30 дБ -25.95 дБ 4:17 02-Being There
DR14 -1.84 дБ -20.84 дБ 4:58 03-Twins
DR14 -0.54 дБ -19.08 дБ 5:15 04-Curtains Aside
DR16 -1.68 дБ -24.33 дБ 6:10 05-Colours of Mercy
DR16 -3.62 дБ -25.71 дБ 5:35 06-Sentiment
DR16 0.00 дБ -21.32 дБ 5:49 07-Kneeling Down
DR17 -4.06 дБ -26.95 дБ 5:49 08-Reach Out and Touch It
DR14 -0.42 дБ -22.78 дБ 3:08 09-Edges of Happiness
DR14 -0.52 дБ -21.89 дБ 2:04 10-Interlude
DR17 -2.61 дБ -25.87 дБ 4:12 11-Token of Tango
DR15 -0.42 дБ -20.43 дБ 7:17 12-The Ground
--------------------------------------------------------------------------------
Количество треков: 12
Реальные значения DR: DR15
Частота: 96000 Гц
Каналов: 2
Разрядность: 24
Битрейт: 2734 кбит/с
Кодек: FLAC
================================================================================

admin

Post 10-Apr-2022 04:21

[Quote]

Название: The Lights Are Always On
Исполнитель: Lynne Arriale Trio
Год: 2022
Жанр: Contemporary-Jazz, Jazz
Страна: USA
Продолжительность: 00:44:03
Формат/Кодек: FLAC
Тип рипа: Tracks
Битрейт аудио: Lossless
Разрядность: 24 Bit/96 kHz
Носитель: WEB

Трек-лист

01. March On (04:55)
02. The Lights Are Always On (03:22)
03. Sisters (05:14)
04. Honor (Dedicated to Lt. Colonel Alexander Vindman) (04:25)
05. Loved Ones (03:27)
06. Sounds Like America (04:43)
07. The Notorious Rbg (Dedicated to Ruth Bader Ginsburg) (04:46)
08. Into the Breach (04:36)
09. Walk in My Shoes (Dedicated to John Lewis) (04:23)
10. Heroes (04:16)

DRM
foobar2000 1.6.6 / Dynamic Range Meter 1.1.1
--------------------------------------------------------------------------------
Analyzed: Lynne Arriale Trio / The Lights Are Always On
--------------------------------------------------------------------------------
DR Peak RMS Duration Track
--------------------------------------------------------------------------------
DR10 -0.09 dB -12.47 dB 4:55 01-March On
DR12 -0.09 dB -15.01 dB 3:22 02-The Lights Are Always On
DR11 -0.09 dB -13.13 dB 5:14 03-Sisters
DR12 -0.09 dB -14.32 dB 4:25 04-Honor (Dedicated to Lt. Colonel Alexander Vindman)
DR12 -0.09 dB -13.57 dB 3:27 05-Loved Ones
DR10 -0.09 dB -12.48 dB 4:43 06-Sounds Like America
DR10 -0.09 dB -12.74 dB 4:46 07-The Notorious Rbg (Dedicated to Ruth Bader Ginsburg)
DR11 -0.09 dB -13.35 dB 4:36 08-Into the Breach
DR11 -0.09 dB -13.45 dB 4:23 09-Walk in My Shoes (Dedicated to John Lewis)
DR12 -0.13 dB -14.97 dB 4:16 10-Heroes
--------------------------------------------------------------------------------
Number of tracks: 10
Official DR value: DR11
Samplerate: 96000 Hz
Channels: 2
Bits per sample: 24
Bitrate: 2781 kbps
Codec: FLAC
================================================================================

admin

Post 10-Apr-2022 04:13

[Quote]

Название: Opening
Исполнитель: Tord Gustavsen Trio
Год: 2022
Жанр: Contemporary-Jazz
Страна: Norway
Продолжительность: 00:48:41
Формат/Кодек: FLAC
Тип рипа: Tracks
Битрейт аудио: Lossless
Разрядность: 24 Bit/96 kHz
Носитель: WEB

Трек-лист

01. The Circle (3:57)
02. Findings / Visa från Rättvik (3:23)
03. Opening (3:25)
04. The Longing (2:36)
05. Shepherd Song (5:42)
06. Helensburgh Tango (4:20)
07. Re-Opening (5:27)
08. Findings II (2:03)
09. Stream (7:04)
10. Ritual (3:57)
11. Fløytelåt / The Flute (3:44)
12. Vær sterk, min sjel (3:03)

DRM
foobar2000 1.6.9 / Dynamic Range Meter 1.1.1
--------------------------------------------------------------------------------
Analyzed: Tord Gustavsen Trio / Opening
--------------------------------------------------------------------------------
DR Peak RMS Duration Track
--------------------------------------------------------------------------------
DR15 -3.32 dB -22.62 dB 3:57 01-The Circle
DR15 -0.76 dB -21.02 dB 3:23 02-Findings / Visa från Rättvik
DR16 -2.22 dB -24.90 dB 3:25 03-Opening
DR14 -7.11 dB -26.64 dB 2:36 04-The Longing
DR15 -2.96 dB -25.98 dB 5:42 05-Shepherd Song
DR14 -4.31 dB -25.47 dB 4:20 06-Helensburgh Tango
DR15 -2.07 dB -21.88 dB 5:27 07-Re-Opening
DR14 -3.11 dB -26.38 dB 2:03 08-Findings II
DR16 -3.40 dB -25.01 dB 7:04 09-Stream
DR15 -0.50 dB -19.49 dB 3:57 10-Ritual
DR14 -0.50 dB -22.83 dB 3:44 11-Fløytelåt / The Flute
DR16 -7.47 dB -28.09 dB 3:03 12-Vær sterk, min sjel
--------------------------------------------------------------------------------
Number of tracks: 12
Official DR value: DR15
Samplerate: 96000 Hz
Channels: 2
Bits per sample: 24
Bitrate: 2198 kbps
Codec: FLAC
================================================================================

admin

Post 07-Apr-2022 05:52

[Quote]

Название: Perpetual Pendulum
Исполнитель: Larry Goldings, Peter Bernstein, Bill Stewart
Год: 2022
Жанр: Jazz, Contemporary-Jazz
Страна: USA
Продолжительность: 01:04:54
Формат/Кодек: FLAC
Тип рипа: Tracks
Битрейт аудио: Lossless
Разрядность: 24 Bit/96 kHz
Носитель: WEB

Трек-лист

01. United (06:08)
02. Let's Get Lots (07:07)
03. Libra (05:03)
04. Prelude (05:29)
05. FU Donald (05:06)
06. Come Rain or Come Shine (05:21)
07. Little Green Men (05:54)
08. Reflections in D (05:36)
09. Perpetual Pendulum (06:06)
10. Lurkers (05:26)
11. Django (07:43)

DRM
foobar2000 1.6.6 / Dynamic Range Meter 1.1.1
--------------------------------------------------------------------------------
Analyzed: Larry Goldings, Peter Bernstein, Bill Stewart / Perpetual Pendulum
--------------------------------------------------------------------------------
DR Peak RMS Duration Track
--------------------------------------------------------------------------------
DR6 -1.45 dB -9.67 dB 6:08 01-United
DR6 -1.45 dB -9.65 dB 7:07 02-Let's Get Lots
DR7 -1.45 dB -9.80 dB 5:03 03-Libra
DR9 -1.45 dB -13.19 dB 5:29 04-Prelude
DR7 -1.45 dB -11.26 dB 5:06 05-FU Donald
DR10 -1.45 dB -14.26 dB 5:21 06-Come Rain or Come Shine
DR8 -1.65 dB -10.89 dB 5:54 07-Little Green Men
DR9 -1.45 dB -13.53 dB 5:36 08-Reflections in D
DR7 -1.45 dB -9.67 dB 6:06 09-Perpetual Pendulum
DR6 -1.45 dB -8.84 dB 5:26 10-Lurkers
DR8 -1.45 dB -11.51 dB 7:43 11-Django
--------------------------------------------------------------------------------
Number of tracks: 11
Official DR value: DR7
Samplerate: 96000 Hz
Channels: 2
Bits per sample: 24
Bitrate: 2830 kbps
Codec: FLAC
=================================================================================

admin

Post 07-Apr-2022 05:46

[Quote]

Название: Genesis Of Genius: The Contemporary Recordings
Исполнитель: Ornette Coleman
Год: 2022
Жанр: Jazz, Free-Jazz
Страна: USA
Продолжительность: 01:24:16
Формат/Кодек: FLAC
Тип рипа: Tracks
Битрейт аудио: Lossless
Разрядность: 24 Bit/192kHz
Носитель: WEB

Трек-лист

01. Invisible (4:12)
02. The Blessing (4:43)
03. Jayne (7:17)
04. Chippie (5:36)
05. The Disguise (2:47)
06. Angel Voice (4:18)
07. Alpha (4:10)
08. When Will The Blues Leave? (4:57)
09. The Sphinx (4:15)
10. Tomorrow Is The Question! (3:08)
11. Tears Inside (4:59)
12. Mind And Time (3:07)
13. Compassion (4:35)
14. Giggin' (3:18)
15. Rejoicing (4:00)
16. Lorraine (5:54)
17. Turnaround (7:53)
18. Endless (5:16)

DRM
foobar2000 1.6.6 / Dynamic Range Meter 1.1.1
--------------------------------------------------------------------------------
Analyzed: Ornette Coleman / Genesis of Genius: The Contemporary Recordings
--------------------------------------------------------------------------------
DR Peak RMS Duration Track
--------------------------------------------------------------------------------
DR12 -0.84 dB -16.47 dB 4:12 01-Invisible
DR14 -0.21 dB -17.95 dB 4:43 02-The Blessing
DR15 -0.20 dB -19.45 dB 7:17 03-Jayne
DR14 -1.02 dB -18.01 dB 5:36 04-Chippie
DR13 -0.20 dB -16.03 dB 2:47 05-The Disguise
DR14 -0.20 dB -16.38 dB 4:18 06-Angel Voice
DR14 -0.20 dB -16.81 dB 4:10 07-Alpha
DR13 -0.20 dB -16.55 dB 4:57 08-When Will The Blues Leave?
DR14 -0.20 dB -17.05 dB 4:15 09-The Sphinx
DR14 -0.20 dB -17.23 dB 3:08 10-Tomorrow Is The Question!
DR15 -0.20 dB -18.43 dB 4:59 11-Tears Inside
DR14 -0.20 dB -17.03 dB 3:07 12-Mind And Time
DR15 -1.53 dB -20.35 dB 4:35 13-Compassion
DR15 -0.20 dB -19.03 dB 3:18 14-Giggin'
DR15 -1.00 dB -18.82 dB 4:00 15-Rejoicing
DR16 -0.20 dB -19.69 dB 5:54 16-Lorraine
DR16 -0.20 dB -19.95 dB 7:53 17-Turnaround
DR15 -0.20 dB -17.63 dB 5:16 18-Endless
--------------------------------------------------------------------------------
Number of tracks: 18
Official DR value: DR14
Samplerate: 192000 Hz
Channels: 2
Bits per sample: 24
Bitrate: 5967 kbps
Codec: FLAC
================================================================================

admin

Post 18-Mar-2022 05:36

[Quote]

Название: Let Peace Be The Ruler
Исполнитель: Natural Self
Год: 2006
Жанр: Breaks, Abstract Hip-Hop, Funk, Jazz
Продолжительность: 00:46:46
Формат/Кодек: MP3
Битрейт аудио: 320 kbps

Трек-лист

01. Soloman
02. I Dont Need This Trouble
03. The Sound
04. The Calling
05. Foundation Pt 1
06. Song Bird
07. To The Sun
08. Fires Were Started
09. Black Orchid
10. Meditation
11. Soul Communication
12. The Love Theme
Дополнительная информация: Настоящее имя: Nathaniel Pearn. Британский down-tempo, broken beat, nu-jazz продюсер, исполнитель и DJ.
Звучание пластинки построено на смешении хип-хопа, фанка, джаза, бразильской и африканской музыки. Сам автор говорит нам: "я не хочу, чтобы люди воспринимали мою работу как "две части хип-хопа и одна часть джаза". Если же и есть некая постоянная составляющая, которая пробегает через его музыку, то это - изобретательное использование ударных. "В течение большого количества трэков акцент находится на "договоренности" барабанов и перкуссий.

admin

Post 14-Mar-2022 04:01

[Quote]

Название: Cocktail Mina Vol. 2
Исполнитель: Papik
Год: 2022
Жанр: Nu-Jazz
Страна: Italy
Лейбл: Irma La Douce
Продолжительность: 01:16:11
Формат/Кодек: FLAC
Битрейт аудио: Lossless

Трек-лист

01. Papik, Alessandro Pitoni - Se Telefonando
02. Papik, Frankie Lovecchio, Claudia Arvati - Acqua e Sale
03. Papik, Stefy Gamboni - Volami Nel Cuore
04. Papik, Alan Scaffardi - L'Amore Forse
05. Papik, Anna Fondi - Con Te Sarà Diverso
06. Papik, Nadia Straccia - Vorrei Che Fosse Amore
07. Papik, Daniele Bengi Benati - Balla Chi Balla
08. Papik, Ely Bruna - Quando Ero Piccola
09. Papik, Stefy Gamboni - Non Passa
10. Cristiana Polegri, Papik - E Se Domani
11. Papik, Alessandro Pitoni - Io e Te Da Soli
12. Papik, Stefy Gamboni - Inutile Sperare
13. Papik, Michele Ranieri - Troppe Note
14. Papik, Claudia Arvati - Volevo Scriverti Da Tanto
15. Papik, Katia Rizzo - Brava
16. Papik, Gustavo Baião - Ao Amigo Tom (L'Amore Forse)
17. Papik, Stefy Gamboni - Portati Via (featuring Stefy Gamboni)
18. Papik, Claudia Arvati - Rose Su Rose
19. Papik, Vittoria Siggillino - L'ultima Occasione
20. Papik, Frankie Lovecchio, Stefy Gamboni - Questione Di Feeling (featuring Frankie Lovecchio and Stefy Gamboni)

Log

DON'T MODIFY THIS FILE
-----------------------
PERFORMER: auCDtect Task Manager, ver. 1.6.0 RC1 build 1.6.0.1
Copyright (c) 2008-2010 y-soft. All rights reserved
http://y-soft.org
ANALYZER: auCDtect: CD records authenticity detector, version 0.8.2
Copyright (c) 2004 Oleg Berngardt. All rights reserved.
Copyright (c) 2004 Alexander Djourik. All rights reserved.
FILE: 20 - Papik - Questione Di Feeling (featuring Frankie Lovecchio and Stefy Gamboni).flac
Size: 24211561 Hash: 124EF2F8C89FBB8AC202010AC43F97E2 Accuracy: -m0
Conclusion: MPEG 95%
Signature: BE1B58495510E04744F5ABD3456707E851CEFB30
FILE: 19 - Papik - L'ultima Occasione.flac
Size: 24609683 Hash: 055662A26DA0186314DE6D76430D4CE5 Accuracy: -m0
Conclusion: MPEG 95%
Signature: E6A452383DC5066945FD846179601D6E7E75A3FD
FILE: 18 - Papik - Rose Su Rose.flac
Size: 25621509 Hash: ECCDE967F6A4071AD778370490307243 Accuracy: -m0
Conclusion: CDDA 100%
Signature: 9C8AC7B5F18D9300E8523C61300383E9DC936582
FILE: 17 - Papik - Portati Via (featuring Stefy Gamboni).flac
Size: 25878091 Hash: 648AE474EF12375A617FCED59AFB23A9 Accuracy: -m0
Conclusion: MPEG 95%
Signature: 9ADD540942F8460F3A5483735A5C096BBCFF623D
FILE: 16 - Papik - Ao Amigo Tom (L'Amore Forse).flac
Size: 27843284 Hash: 92615C69FC2035DF61A293FDEAD7C57F Accuracy: -m0
Conclusion: CDDA 100%
Signature: 0F8EE1EB30D80448A80B08EC002E13D54E128A39
FILE: 15 - Papik - Brava.flac
Size: 18997368 Hash: 53A757916B4E452CBFD6165A8AF54120 Accuracy: -m0
Conclusion: CDDA 100%
Signature: 91C6F0C537E8A54DD65541595002CF20B9147ED3
FILE: 14 - Papik - Volevo Scriverti Da Tanto.flac
Size: 29636054 Hash: 7FF01BBAC6050651D8E726C4C8A00441 Accuracy: -m0
Conclusion: CDDA 99%
Signature: 5DB56BCBF7468B2D5F017DE88CD424CF9F02FC92
FILE: 13 - Papik - Troppe Note.flac
Size: 23948530 Hash: D303363A45472F952E0D8004BB312B15 Accuracy: -m0
Conclusion: CDDA 99%
Signature: CB0C154284D69AA202CDFF56A6C1CA5EBAC323B4
FILE: 12 - Papik - Inutile Sperare.flac
Size: 33663083 Hash: 170A3B50A9FCA8FBA8D78B4EB94849F9 Accuracy: -m0
Conclusion: CDDA 100%
Signature: 79A47BF2DB2D783551AF85B4678C76E48A196982
FILE: 11 - Papik - Io e Te Da Soli.flac
Size: 23955735 Hash: 21FF97485195AA9C88E4AE826C017DA8 Accuracy: -m0
Conclusion: CDDA 100%
Signature: 60D30BA529ABAACDE2A7D995A67D7DB0915FA732
FILE: 10 - Cristiana Polegri - E Se Domani.flac
Size: 28474962 Hash: AEE87346E8FD77C449306F52A0814EB4 Accuracy: -m0
Conclusion: CDDA 100%
Signature: 83D25DBB0A6C12C978E40CF3E69572B80FF3BDE5
FILE: 09 - Papik - Non Passa.flac
Size: 37292683 Hash: 787BF7C73BDE4609F2E5FF75EC9E99A2 Accuracy: -m0
Conclusion: CDDA 100%
Signature: 0741CFF67C2AF304E21E67087797CBA31F177B55
FILE: 08 - Papik - Quando Ero Piccola.flac
Size: 25094066 Hash: 09F03074806C693C24E18A0A00891B5C Accuracy: -m0
Conclusion: CDDA 100%
Signature: CCD809B6097438E03EFCA2011572A481B1475735
FILE: 07 - Papik - Balla Chi Balla.flac
Size: 25640039 Hash: 807788465520D4B8B7FED82446918E59 Accuracy: -m0
Conclusion: CDDA 100%
Signature: 1A6898AA8F8DAE90089CC148FC95573C448B680E
FILE: 06 - Papik - Vorrei Che Fosse Amore.flac
Size: 22327603 Hash: FDE1E193F7C5CFAFAA96BB072B39518D Accuracy: -m0
Conclusion: CDDA 100%
Signature: FFC2E35B818407C4D7CE189A10A233273F4CBE0D
FILE: 05 - Papik - Con Te Sarà Diverso.flac
Size: 33573908 Hash: AF9A5604C5E8DD9A3E9168853B0C77E9 Accuracy: -m0
Conclusion: CDDA 100%
Signature: C96A83E905AB8C311245F59E98B2D4AAE1CA1189
FILE: 04 - Papik - L'Amore Forse.flac
Size: 27850352 Hash: 22243D35C590446D46CBB4FAAABE8933 Accuracy: -m0
Conclusion: CDDA 100%
Signature: 7AB9E56C51E46FB4B5C319FE5BED8507C31BC91A
FILE: 03 - Papik - Volami Nel Cuore.flac
Size: 20935055 Hash: F3FDA532C20CB46A490E7A4C1F15AA9F Accuracy: -m0
Conclusion: CDDA 100%
Signature: 3A19F9407767AC9ADD330B1D85A581B86BCEDB32
FILE: 02 - Papik - Acqua e Sale.flac
Size: 30645645 Hash: A06036FC0BAF78D33048C211911ABA3E Accuracy: -m0
Conclusion: CDDA 100%
Signature: 9AD3915D0009000AAD904058216CCF49F88F3D8C
FILE: 01 - Papik - Se Telefonando.flac
Size: 24505310 Hash: 6E9C7E5EC1DE8F8616AA870F8A61C279 Accuracy: -m0
Conclusion: CDDA 100%
Signature: 44D5D85BD65D144844FF79125D7D5F8B11B7DD74

admin

Post 12-Jan-2022 03:58

[Quote]

Название: Drones
Исполнитель: Terrace Martin
Год: 2021
Жанр: Hip-Hop, Jazz
Страна: USA
Лейбл: BMG Rights Management
Продолжительность: 00:40:49
Формат/Кодек: FLAC
Битрейт аудио: Lossless

Трек-лист

01 - Turning Poison Into Medicine (00:01:46)
02 - Drones (00:04:25)
03 - Leave Us Be (00:02:44)
04 - Work It Out (00:03:07)
05 - This Morning (00:03:43)
06 - Tapped (00:03:08)
07 - Reflection (00:02:50)
08 - Leimert Park (00:02:16)
09 - Griots of the Crenshaw District (00:03:23)
10 - Evil Eyes (00:03:50)
11 - Sick of Cryin' (00:03:21)
12 - Don't Let Go (00:01:47)
13 - Listen (00:04:22)

Log

DON'T MODIFY THIS FILE
-----------------------
PERFORMER: auCDtect Task Manager, ver. 1.6.0 RC1 build 1.6.0.1
Copyright (c) 2008-2010 y-soft. All rights reserved
http://y-soft.org
ANALYZER: auCDtect: CD records authenticity detector, version 0.8.2
Copyright (c) 2004 Oleg Berngardt. All rights reserved.
Copyright (c) 2004 Alexander Djourik. All rights reserved.
FILE: 13 - Listen.flac
Size: 29191716 Hash: 1026C7678EB92D05EE4840DE6F8D5750 Accuracy: -m40
Conclusion: CDDA 94%
Signature: FF60A6A9861C3F0638FBEAAED8DC7A0C54CC037A
FILE: 12 - Don't Let Go.flac
Size: 9701917 Hash: 3A7D8A8399F3AA3FB940939BE8CFF409 Accuracy: -m40
Conclusion: CDDA 94%
Signature: 5E4D1E942AD37FC3EF64FF84B48F678D5A6BEF0B
FILE: 11 - Sick of Cryin'.flac
Size: 22840180 Hash: 2B24917FF97014431A85E777B3348EDA Accuracy: -m40
Conclusion: CDDA 100%
Signature: 6857291E6F0C0F768B2D80E147A21B94E150A459
FILE: 10 - Evil Eyes.flac
Size: 25096193 Hash: 22DE1880C8AA817FE995DD59559233BB Accuracy: -m40
Conclusion: CDDA 100%
Signature: 65FE813F859B174157DE12E218547697C366F982
FILE: 09 - Griots of the Crenshaw District.flac
Size: 19448515 Hash: ACD39376DDF7F33A4D19AFFC05728D69 Accuracy: -m40
Conclusion: CDDA 100%
Signature: 65DA786BA1DD5A855F766427D432FE02F54EDF02
FILE: 08 - Leimert Park.flac
Size: 12872451 Hash: A1C7001D3A7A26197A9C207C8BDE549C Accuracy: -m40
Conclusion: CDDA 100%
Signature: 40358F2451C82212A8103E36351147E84FAD7B9C
FILE: 07 - Reflection.flac
Size: 18293576 Hash: 2E3CE1DA2FB21B5A7BC63E07595D500C Accuracy: -m40
Conclusion: CDDA 100%
Signature: D4529E622BA96C0A1BD5AAC053F2B07C00153E58
FILE: 06 - Tapped.flac
Size: 22443842 Hash: B32DFA90A7A2DEA3F75490CA788CFF9A Accuracy: -m40
Conclusion: CDDA 100%
Signature: B3DAD49C65E6EBA64A20CD00181FE5A04FAD3D0F
FILE: 05 - This Morning.flac
Size: 26237394 Hash: 83E7A8FC16DD2A364B8BE479683F5223 Accuracy: -m40
Conclusion: CDDA 100%
Signature: C98241F265AAAB33D78CC68A54EA8862E74076F5
FILE: 04 - Work It Out.flac
Size: 20962617 Hash: BC7363DD79FF2694CE99895F30B8052C Accuracy: -m40
Conclusion: CDDA 100%
Signature: A889AFE82AEEBA107C365AFEC65687C503FF56CD
FILE: 03 - Leave Us Be.flac
Size: 17252816 Hash: 43E0511D1F965A54796BFAA11E258C7A Accuracy: -m40
Conclusion: CDDA 99%
Signature: A3097E6522148FD4CB49DD47747AAF5C6DCD97BE
FILE: 02 - Drones.flac
Size: 31538122 Hash: 78DE702241ECD21267016E4FAED12C4B Accuracy: -m40
Conclusion: CDDA 100%
Signature: 759B68DDBBBA3DAE6B4FAF7D27DB60F02DBA8FD0
FILE: 01 - Turning Poison Into Medicine.flac
Size: 9627917 Hash: EB42A748E13F16603E2B67972BB8AA5F Accuracy: -m40
Conclusion: CDDA 100%
Signature: 624E8F971CE2443496F082A4851EC8484EB13270

admin

Post 11-Jan-2022 05:45

[Quote]

Название: Voodoo Works
Исполнитель: Little Mouse & The Hungry Cats
Год: 2022
Жанр: Jazz, Blues
Страна: France
Продолжительность: 00:38:37
Формат/Кодек: MP3
Битрейт аудио: 320 kbps

Трек-лист

01. House Of Blues 04:36
02. Voodoo Works 04:26
03. Bring Your Loving Home 03:07
04. Mister Stupid 03:54
05. Just Live Layla 04:54
06. Lock Him Up 03:28
07. Undertaker's Love 03:13
08. Words 03:14
09. I Dindn't Know 03:50
10. Try 03:51

admin

Post 10-Jan-2022 00:44

[Quote]

Название: Voodoo Works
Исполнитель: Little Mouse & The Hungry Cats
Год: 2022
Жанр: Jazz, Blues
Страна: France
Продолжительность: 00:38:37
Формат/Кодек: MP3
Битрейт аудио: 320 kbps

Трек-лист

01. House Of Blues 04:36
02. Voodoo Works 04:26
03. Bring Your Loving Home 03:07
04. Mister Stupid 03:54
05. Just Live Layla 04:54
06. Lock Him Up 03:28
07. Undertaker's Love 03:13
08. Words 03:14
09. I Dindn't Know 03:50
10. Try 03:51
 

Current time is: 25-May 05:19

All times are UTC + 3