Search found 15 matches

Author Message

admin

Post 14-Nov-2019 15:17

[Quote]

Информация о фильме:
Название: Юрий Шатунов. Официальное видео
Год выхода: 2019
Страна: Россия
Жанр: Музыка
Продолжительность: 01:12:52
Перевод: не нужен

Треклист

001. Юрий Шатунов - А лето цвета
002. Юрий Шатунов - Тет а тет
003. Юрий Шатунов - Ты мне не веришь
004. Юрий Шатунов - А помнишь
005. Юрий Шатунов - И шли дожди
006. Юрий Шатунов - Вечер холодной зимы
007. Юрий Шатунов - Не бойся
008. Юрий Шатунов - Где ты
009. Юрий Шатунов - Грезы
010. Юрий Шатунов - Не молчи
011. Юрий Шатунов - Я и ты
012. Юрий Шатунов - Забудь
013. Юрий Шатунов - Рядом с ней
014. Юрий Шатунов - Письмо
015. Юрий Шатунов - Не хочу
016. Юрий Шатунов - Ромашки
017. Юрий Шатунов - А ты возьми и позвони
018. Юрий Шатунов - Запиши мой голос
019. Юрий Шатунов - Что ж ты лето
Качество видео: WEBRip 1080p
Формат видео: MKV
Файл
Видео: AVC, 4000 Кбит/сек, 1920x1080, 25.000 кадр/сек
Аудио: AAC LC, 160 Кбит/сек, 2 канала, 48 КГц

Скриншоты

admin

Post 24-Oct-2019 01:42

[Quote]

Информация о фильме
Название: Артур Пирожков - Зацепила меня. Первый сольный
Год выхода: 2019
Жанр: Поп
Исполнитель: Артур Пирожков
О концерте: Первый большой музыкальный концерт Артура Пирожкова!
Шоумен и ведущий Александр Ревва создал образ мачо Артура Пирожкова в далеком 2009 году в рамках Comedy Club. Тогда никто и подумать не мог, что через несколько лет комедийный персонаж станет суперуспешным певцом, обладателем «Золотого граммофона» и получит премию МУЗ-ТВ.
Сегодня в его арсенале целый букет из хитов: «Чика», «Плачь, детка», «Как Челентано», а также песня, занявшая в этом году первые места чартов всех музыкальных площадок - «Зацепила».

Сет-лист

01. Артур Пирожков - Чика
02. Артур Пирожков - Пэрэдайс (Артур Пирожков наставит мужу Рожков)
03. Артур Пирожков - Красивая песня
04. Артур Пирожков - Я - Звезда!
05. Артур Пирожков - Она решила сдаться
06. Артур Пирожков - Запутался
07. Артур Пирожков - Любовь
08. Артур Пирожков - Я буду помнить
09. ВладиМир - Только мне решать
10. Артур Пирожков - #какчелентано
11. Артур Пирожков и Вера Брежнева - Luna
12. Артур Пирожков - Кукла
13. ALISA REVVA - Baby Boy
14. Артур Пирожков - Моя Звезда
15. Артур Пирожков - Ну и что
16. Doni и Артур Пирожков - Моя Богиня
17. Артур Пирожков - Либо Любовь
18. Артур Пирожков - Плачь детка плачь
19. Артур Пирожков - Зацепила
20. Артур Пирожков - Чика
Страна: Россия
Студия: RuTV HD
Продолжительность: 01:26:01
Файл
Кодек: XviD
Качество: HDTVRip
Видео: 720x304, 16/9, 25.000 fps, 2074 Кбит/с
Звук: Русский - AC3, 192 Кбит/сек, 48.0 КГц, 2 ch (L R)
Семпл

Скриншоты

admin

Post 23-Oct-2019 01:54

[Quote]

Оригинальное название: Супердискотека 90-х
Год выпуска: 2019
Жанр: Концерт, поп
Выпущено: Россия, Радио Рекорд
О фильме: Каждый год главный ретромегаденс страны меняет концепцию шоу! В этом году зрителей ждет бомба — «SEXуальная» Супердискотека! Ведь с 90-ми к нам пришел SEX! Scooter, Иванушки International, Dr.Alban, E-Rotic, Masterboy & Beatrix Delgado, Klubbheads, Отпетые Мошенники, певица Света и другие звезды. Присоединяйтесь!
Качество: WEB-DL 1080p
Видео: MPEG-4 AVC, 4500 Кбит/с, 1920x1080
Аудио: AAC, 2 ch, 192 Кбит/с
Продолжительность: 03:15:54
Язык: Русский

Скриншоты

admin

Post 15-Jan-2019 03:38

[Quote]

Исполнитель/Группа: Юля Шереметьева и группа Леди
Жанр: POP
Год выпуска: 2019
Продолжительность: 00:04:06
Описание: Премьера песни "Кружит желтая листва". Музыка и слова Игоря Губина(скриншот №3).
Леди
Юля Шереметьева-вокал
Сергей Ворожбит-руководитель, гитара (экс гр.Кристина)
Виктория Ив-пиар-менеджер, клавишные

Формат: MKV
Качество: WEBRip 720p
Видео кодек: H.264
Аудио кодек: AAC
Видео: H.264, ~4 300 Kbps, 1280 x 720 (16:9), 25 fps
Аудио: AAC, 48000Hz, 2ch, 192 kbps

MedaInfo

Lady_2019.mkv
Format : Matroska
Format version : Version 4 / Version 2
File size : 131 MiB
Duration : 4 min 6 s
Overall bit rate : 4 469 kb/s
Encoded date : UTC 2019-01-14 09:25:24
Writing application : mkvmerge v8.3.0 ('Over the Horizon') 64bit
Writing library : libebml v1.3.1 + libmatroska v1.4.2
Video
ID : 1
Format : AVC
Format/Info : Advanced Video Codec
Format profile : Main@L4.1
Format settings, CABAC : Yes
Format settings, ReFrames : 4 frames
Codec ID : V_MPEG4/ISO/AVC
Duration : 4 min 6 s
Bit rate : 4 278 kb/s
Width : 1 280 pixels
Height : 720 pixels
Display aspect ratio : 16:9
Frame rate mode : Constant
Frame rate : 25.000 FPS
Standard : PAL
Color space : YUV
Chroma subsampling : 4:2:0
Bit depth : 8 bits
Scan type : Progressive
Bits/(Pixel*Frame) : 0.186
Stream size : 126 MiB (96%)
Language : English
Default : Yes
Forced : No
Color range : Limited
Color primaries : BT.709
Transfer characteristics : BT.709
Matrix coefficients : BT.709
Audio
ID : 2
Format : AAC
Format/Info : Advanced Audio Codec
Format profile : LC
Codec ID : A_AAC
Duration : 4 min 6 s
Bit rate : 192 kb/s
Channel(s) : 2 channels
Channel positions : Front: L R
Sampling rate : 48.0 kHz
Frame rate : 46.875 FPS (1024 spf)
Compression mode : Lossy
Stream size : 5.56 MiB (4%)
Language : English
Default : Yes
Forced : No

Скриншоты

admin

Post 12-Jan-2019 05:20

[Quote]

Исполнитель/Группа: Андрей Державин
Жанр: POP
Год выпуска: 2018
Продолжительность: 00:09:13
Описание: Выступление легендарной группы в обновленном составе на Дискотеке 80-х(полная версия).
Музыка Андрея Державина, слова Сергея Кострова
Группа "Сталкер":
Андрей Державин-вокал, клавишные.
Виктор Голуднев-клавишные, программинг.
Александр Дитковский-клавишные, труба, бэк-вокал.
Алексей Шейман-ударные, программинг.

Формат: MKV
Качество: WEBRip 1080p
Видео кодек: H.264
Аудио кодек: AAC
Видео: H.264, ~4 000 Kbps, 1920x1080 (16:9), 25 fps
Аудио: AAC, 48000Hz, 2ch, 192 kbps

Треклист

1.Ночной город
2.Не плачь, Алиса

MedaInfo

Stalker_2019.mkv
Format : Matroska
Format version : Version 4 / Version 2
File size : 280 MiB
Duration : 9 min 13 s
Overall bit rate : 4 248 kb/s
Writing application : Lavf57.71.100
Writing library : Lavf57.71.100
ErrorDetectionType : Per level 1
Video
ID : 1
Format : AVC
Format/Info : Advanced Video Codec
Format profile : High@L4
Format settings : CABAC / 3 Ref Frames
Format settings, CABAC : Yes
Format settings, ReFrames : 3 frames
Codec ID : V_MPEG4/ISO/AVC
Duration : 9 min 13 s
Width : 1 920 pixels
Height : 1 080 pixels
Display aspect ratio : 16:9
Frame rate mode : Constant
Frame rate : 25.000 FPS
Color space : YUV
Chroma subsampling : 4:2:0
Bit depth : 8 bits
Scan type : Progressive
Default : Yes
Forced : No
Color range : Limited
Color primaries : BT.709
Transfer characteristics : BT.709
Matrix coefficients : BT.709
DURATION : 00:09:13,440000000
Audio
ID : 2
Format : AAC
Format/Info : Advanced Audio Codec
Format profile : LC
Codec ID : A_AAC-2
Duration : 9 min 13 s
Channel(s) : 2 channels
Channel positions : Front: L R
Sampling rate : 48.0 kHz
Frame rate : 46.875 FPS (1024 SPF)
Compression mode : Lossy
Language : Russian
Default : Yes
Forced : No
DURATION : 00:09:13,405000000

Скриншоты

admin

Post 06-Jan-2019 01:11

[Quote]

Название : Дискотека 80-х Авторадио
Жанр: POP
Год выпуска: 2018
Продолжительность: 02:23:00
Описание: Главная дискотека страны состоялась уже в 17-й раз и, как и прежде, подарила зрителям невероятные визуальные эффекты, качественный звук и, конечно же, выступления самых любимых российских и зарубежных звезд диско на одной сцене. В этом году в "Олимпийском" выступили 17 исполнителей, в том числе Андрей Державин и группа «Сталкер» Томас Андерс, C.C. Catch, Юрий Антонов, Boney M ft. Liz Mitchell, "Кар-Мэн", Dschinghis Khan, Анжелика Варум, Дмитрий Маликов.
Доп.информация: В исходнике Кузьмича звук 5.1 идет с двумя каналами(на четырех каналах тишина), поэтому я удалил лишние каналы.
Отдельная благодарность пользователю kuzmichm2196 за исходник.
Формат: MKV
Качество: HDTVRip 1080p HEVC
Видео кодек: H.265
Аудио кодек: AC-3
Видео: HEVC/H.265, 1920x1080, ~3 800 Kbps, 25fps
Аудио: AC-3, 2 ch, 384 Kbps, 48000Hz

Треклист:

1. Юрий Антонов - «Золотая лестница»
2. Юрий Антонов - «Нет тебя прекрасней»
3. Юрий Антонов - «Не забывай»
4. Boney M - «Rasputin»
5. Boney M - «Daddy Cool»
6. Boney M - «Sunny»
7. Дмитрий Маликов - «До завтра»
8. Dschinghis Khan - «Dschinghis Khan»
9. Dschinghis Khan - «Moskau»
10. Андрей Державин и группа Сталкер - «Не плачь, Алиса»
11. C.C.Catch - «I Can Lose My Heart tonight»
12. C.C.Catch - «Heaven and Hell»
13. C.C.Catch - «Strangers by Night»
14. Кар-Мэн - «Бомбей-буги»
15. Кар-Мэн - «Сан-Франциско»
16. F.R.David - «Girl»
17. F.R.David - «Words»
18. Чайф - «Аргентина-Ямайка 5:0»
19. Чайф - «Оранжевое настроение»
20. Чайф - «17 лет»
21. Gazebo - «I like Chopin»
22. Riccardo Fogli - «Malinconia»
23. Riccardo Fogli - «Storie di tutti i giorni»
24. Анжелика Варум - «Good bye, мой мальчик»
25. Анжелика Варум - «Зимняя вишня»
26. Secret Service - «Flash in the night»
27. Secret Service - «Ten O`Clock Postman»
28. Виктор Салтыков - «Белая ночь»
29. Savage - «Only You»
30. Savage - «Goodbye»
31. Земляне - «Попурри»
32. Thomas Anders - «Brother Louie»
33. Thomas Anders - «Cheri Cheri Lady»
34. Thomas Anders - «Win the Race»
35. Thomas Anders - «You`re My Heart You`re My Soul»

MedaInfo

Diskoteka_80_2019.01.02 .mkv
Format : Matroska
Format version : Version 4 / Version 2
File size : 4.24 GiB
Duration : 2 h 23 min
Overall bit rate : 4 218 kb/s
Movie name : Дискотека 80-х 2019.01.02
Encoded date : UTC 2019-01-05 03:16:56
Writing application : mkvmerge v24.0.0 ('Beyond The Pale') 64-bit
Writing library : libebml v1.3.6 + libmatroska v1.4.9 / Lavf58.20.100
DIRECTOR : rutor.info
Video
ID : 1
Format : HEVC
Format/Info : High Efficiency Video Coding
Format profile : Main@L4@Main
Codec ID : V_MPEGH/ISO/HEVC
Duration : 2 h 23 min
Bit rate : 3 832 kb/s
Width : 1 920 pixels
Height : 1 080 pixels
Display aspect ratio : 16:9
Frame rate mode : Constant
Frame rate : 25.000 FPS
Color space : YUV
Chroma subsampling : 4:2:0
Bit depth : 8 bits
Bits/(Pixel*Frame) : 0.074
Stream size : 3.85 GiB (91%)
Writing library : x265 2.9:[Linux][GCC 7.3.0][64 bit] 8bit+10bit+12bit
Encoding settings : cpuid=1064959 / frame-threads=2 / wpp / no-pmode / no-pme / no-psnr / no-ssim / log-level=2 / input-csp=1 / input-res=1920x1080 / interlace=0 / total-frames=0 / level-idc=0 / high-tier=1 / uhd-bd=0 / ref=2 / no-allow-non-conformance / no-repeat-headers / annexb / no-aud / no-hrd / info / hash=0 / no-temporal-layers / open-gop / min-keyint=25 / keyint=250 / gop-lookahead=0 / bframes=4 / b-adapt=0 / b-pyramid / bframe-bias=0 / rc-lookahead=15 / lookahead-slices=6 / scenecut=40 / radl=0 / no-intra-refresh / ctu=64 / min-cu-size=8 / no-rect / no-amp / max-tu-size=32 / tu-inter-depth=1 / tu-intra-depth=1 / limit-tu=0 / rdoq-level=0 / dynamic-rd=0,00 / no-ssim-rd / signhide / no-tskip / nr-intra=0 / nr-inter=0 / no-constrained-intra / strong-intra-smoothing / max-merge=2 / limit-refs=3 / no-limit-modes / me=1 / subme=1 / merange=57 / temporal-mvp / weightp / no-weightb / no-analyze-src-pics / deblock=0:0 / sao / no-sao-non-deblock / rd=2 / early-skip / rskip / fast-intra / no-tskip-fast / no-cu-lossless / no-b-intra / no-splitrd-skip / rdpenalty=0 / psy-rd=2,00 / psy-rdoq=0,00 / no-rd-refine / no-lossless / cbqpoffs=0 / crqpoffs=0 / rc=abr / bitrate=3800 / qcomp=0,60 / qpstep=4 / stats-write=0 / stats-read=0 / ipratio=1,40 / pbratio=1,30 / aq-mode=1 / aq-strength=1,00 / cutree / zone-count=0 / no-strict-cbr / qg-size=32 / no-rc-grain / qpmax=69 / qpmin=0 / no-const-vbv / sar=1 / overscan=0 / videoformat=5 / range=0 / colorprim=1 / transfer=1 / colormatrix=1 / chromaloc=0 / display-window=0 / max-cll=0,0 / min-luma=0 / max-luma=255 / log2-max-poc-lsb=8 / vui-timing-info / vui-hrd-info / slices=1 / no-opt-qp-pps / no-opt-ref-list-length-pps / no-multi-pass-opt-rps / scenecut-bias=0,05 / no-opt-cu-delta-qp / no-aq-motion / no-hdr / no-hdr-opt / no-dhdr10-opt / no-idr-recovery-sei / analysis-reuse-level=5 / scale-factor=0 / refine-intra=0 / refine-inter=0 / refine-mv=0 / no-limit-sao / ctu-info=0 / no-lowpass-dct / refine-mv-type=0 / copy-pic=1 / max-ausize-factor=1,0 / no-dynamic-refine / no-single-sei
Default : Yes
Forced : No
Color range : Limited
Color primaries : BT.709
Transfer characteristics : BT.709
Matrix coefficients : BT.709
Audio
ID : 2
Format : AC-3
Format/Info : Audio Coding 3
Codec ID : A_AC3
Duration : 2 h 23 min
Bit rate mode : Constant
Bit rate : 384 kb/s
Channel(s) : 2 channels
Channel positions : Front: L R
Sampling rate : 48.0 kHz
Frame rate : 31.250 FPS (1536 SPF)
Bit depth : 16 bits
Compression mode : Lossy
Stream size : 395 MiB (9%)
Service kind : Complete Main
Default : Yes
Forced : No

Скриншоты

Борисыч

Post 17-Dec-2018 17:09

[Quote]

- Год выпуска: 2018
Страна: Россия
Жанр: РОР
Продолжительность: 00:03:02-Описание: Видео клип к песне "Я без оружия"-Качество: HDTVRip 720p
Формат: MP4
Видео кодек: AVC
Аудио кодек: AAC
Видео: 1280x720, 25 fps, 1497 kbps
Аудио: 44,1 kHz, 2 ch, 128 kbps

Скриншоты


admin

Post 08-Dec-2018 16:46

[Quote]

Оригинальное название: Притяженья больше нет
Год выхода: 2018
Жанр: Поп
Исполнитель: Максим Фадеев feat. Serebro
Продолжительность: 00:04:11
Язык: Русский
Описание: Максим Фадеев, . Serebro и Константин Меладзе в новом клипе «Притяженья больше нет». Песня, которая стала хитом №1 13 лет назад, приобретает новое звучание в конце 2018 года!
Релиз от: Аристократ

Файл
Формат: mp4
Качество: WEBRip 1080p
Видео: MPEG-4 AVC, 4351 Кбит/с, 1920x900
Звук: AAC, 2 ch, 192 Кбит/с

Скриншоты

admin

Post 03-Dec-2018 04:52

[Quote]

Исполнитель:
Жанр: POP
Год выпуска: 2018
Продолжительность: 01:08:00
Описание: Юбилейный концерт маэстро, в котором он исполнил песни Евгения Хавтана на свои стихи, а также песни других авторов. В исходнике Кузьмича звук 5.1 идет с двумя каналами(на четырех каналах тишина), поэтому я удалил лишние каналы.
Отдельная благодарность пользователю kuzmichm2196 за исходник.
Формат: MKV
Качество: HDTVRip 1080p HEVC
Видео кодек: H.265
Аудио кодек: AAC
Видео: HEVC/H.265, 1920x1080, ~6 000 Kbps, 25fps
Аудио: AC-3, 2 ch, 384 Kbps, 48000Hz

Треклист:

01. Добрый вечер Москва
02. Конечно Вася
03. Любите, девушки
04. Как жаль
05. Первый снег
06. Хоп-хей-лала-лей
07. Шанхай блюз
08. Я шагаю по Москве
09. Московские окна
10. Оранжевый галстук
11. Москва - Нева
12. Радио ночных дорог
13. Красавчик
14. Мы любим буги - вуги
15. Ленинградский рок-н-ролл
16. Я то, что надо
17. Дорога в облака
18. Московский бит
19. 7000 над землей
20. Вот и всё

MedaInfo

Syutkin_2018.12.01.mkv
Format : Matroska
Format version : Version 4 / Version 2
File size : 3.07 GiB
Duration : 1 h 8 min
Overall bit rate : 6 375 kb/s
Movie name : rutor.info
Encoded date : UTC 2018-12-02 16:52:55 / UTC 2018-12-02T12:47:37Z
Writing application : mkvmerge v24.0.0 ('Beyond The Pale') 64-bit
Writing library : libebml v1.3.6 + libmatroska v1.4.9 / Lavf57.7.2
Video
ID : 2
Format : HEVC
Format/Info : High Efficiency Video Coding
Format profile : Main@L4@Main
Codec ID : V_MPEGH/ISO/HEVC
Duration : 1 h 8 min
Bit rate : 5 865 kb/s
Width : 1 920 pixels
Height : 1 080 pixels
Display aspect ratio : 16:9
Frame rate mode : Constant
Frame rate : 25.000 FPS
Color space : YUV
Chroma subsampling : 4:2:0
Bit depth : 8 bits
Bits/(Pixel*Frame) : 0.113
Stream size : 2.82 GiB (92%)
Writing library : x265 2.6:[Linux][GCC 7.3.0][64 bit] 8bit+10bit+12bit
Encoding settings : cpuid=1105919 / frame-threads=2 / wpp / no-pmode / no-pme / no-psnr / no-ssim / log-level=2 / input-csp=1 / input-res=1920x1080 / interlace=0 / total-frames=0 / level-idc=0 / high-tier=1 / uhd-bd=0 / ref=2 / no-allow-non-conformance / no-repeat-headers / annexb / no-aud / no-hrd / info / hash=0 / no-temporal-layers / open-gop / min-keyint=25 / keyint=250 / bframes=4 / b-adapt=0 / b-pyramid / bframe-bias=0 / rc-lookahead=15 / lookahead-slices=6 / scenecut=40 / no-intra-refresh / ctu=64 / min-cu-size=8 / no-rect / no-amp / max-tu-size=32 / tu-inter-depth=1 / tu-intra-depth=1 / limit-tu=0 / rdoq-level=0 / dynamic-rd=0,00 / no-ssim-rd / signhide / no-tskip / nr-intra=0 / nr-inter=0 / no-constrained-intra / strong-intra-smoothing / max-merge=2 / limit-refs=3 / no-limit-modes / me=1 / subme=1 / merange=57 / temporal-mvp / weightp / no-weightb / no-analyze-src-pics / deblock=0:0 / sao / no-sao-non-deblock / rd=2 / early-skip / rskip / fast-intra / no-tskip-fast / no-cu-lossless / no-b-intra / no-splitrd-skip / rdpenalty=0 / psy-rd=2,00 / psy-rdoq=0,00 / no-rd-refine / analysis-reuse-mode=0 / no-lossless / cbqpoffs=0 / crqpoffs=0 / rc=abr / bitrate=6000 / qcomp=0,60 / qpstep=4 / stats-write=0 / stats-read=0 / ipratio=1,40 / pbratio=1,30 / aq-mode=1 / aq-strength=1,00 / cutree / zone-count=0 / no-strict-cbr / qg-size=32 / no-rc-grain / qpmax=69 / qpmin=0 / no-const-vbv / sar=1 / overscan=0 / videoformat=5 / range=0 / colorprim=1 / transfer=1 / colormatrix=1 / chromaloc=0 / display-window=0 / max-cll=0,0 / min-luma=0 / max-luma=255 / log2-max-poc-lsb=8 / vui-timing-info / vui-hrd-info / slices=1 / no-opt-qp-pps / no-opt-ref-list-length-pps / no-multi-pass-opt-rps / scenecut-bias=0,05 / no-opt-cu-delta-qp / no-aq-motion / no-hdr / no-hdr-opt / no-dhdr10-opt / analysis-reuse-level=5 / scale-factor=0 / refine-intra=0 / refine-inter=0 / refine-mv=0 / no-limit-sao / ctu-info=0 / no-lowpass-dct / refine-mv-type=0 / copy-pic=1
Default : Yes
Forced : No
Color range : Limited
Color primaries : BT.709
Transfer characteristics : BT.709
Matrix coefficients : BT.709
Statistics Tags Issue : mkvmerge v24.0.0 ('Beyond The Pale') 64-bit 2018-12-02 16:52:55 / mkvmerge v24.0.0 ('Beyond The Pale') 64-bit 2018-12-02 16:52:55 / UTC 2018-12-02T12:47:37Z
FromStats_BitRate : 5989504
FromStats_Duration : 01:08:54.640000000
FromStats_FrameCount : 103365
FromStats_StreamSize : 3095555723
Audio
ID : 1
Format : AC-3
Format/Info : Audio Coding 3
Codec ID : A_AC3
Duration : 1 h 8 min
Bit rate mode : Constant
Bit rate : 384 kb/s
Channel(s) : 2 channels
Channel positions : Front: L R
Sampling rate : 48.0 kHz
Frame rate : 31.250 FPS (1536 SPF)
Bit depth : 16 bits
Compression mode : Lossy
Stream size : 189 MiB (6%)
Service kind : Complete Main
Default : Yes
Forced : No
Statistics Tags Issue : mkvmerge v24.0.0 ('Beyond The Pale') 64-bit 2018-12-02 16:52:55 / mkvmerge v24.0.0 ('Beyond The Pale') 64-bit 2018-12-02 16:52:55 / UTC 2018-12-02T12:47:37Z
FromStats_BitRate : 384000
FromStats_Duration : 01:08:54.624000000
FromStats_FrameCount : 129207
FromStats_StreamSize : 198461952

Скриншоты

admin

Post 12-Nov-2018 02:32

[Quote]

Название: Настя Каменских - Выступление на «Atlas weekend»
Исполнитель/Группа: Настя Каменских
Жанр: POP
Год выпуска: 2018
Продолжительность: 00:10:56
Авторы песен Алексей Потапенко (Потап) и Анастасия Каменских.
Формат: MPG
Качество: DVB
Видео кодек: MPEG-2
Аудио кодек: MP2
Видео: MPEG-2, ~5 200 Kbps, 720x576@1024x576 (16:9), 25fps
Аудио: MP2, 48000Hz, 2ch, 384 kbps

Треклист

1.Это моя ночь
2.Тримай
3.Lomalo

MedaInfo

N_K_2018.mpg
Format : MPEG-PS
File size : 446 MiB
Duration : 10 min 56 s
Overall bit rate mode : Variable
Overall bit rate : 5 693 kb/s
Video
ID : 224 (0xE0)
Format : MPEG Video
Format version : Version 2
Format profile : Main@Main
Format settings : CustomMatrix / BVOP
Format settings, BVOP : Yes
Format settings, Matrix : Custom
Format settings, GOP : Variable
Format settings, picture structure : Frame
Duration : 10 min 56 s
Bit rate mode : Variable
Bit rate : 5 196 kb/s
Maximum bit rate : 15.0 Mb/s
Width : 720 pixels
Height : 576 pixels
Display aspect ratio : 16:9
Frame rate : 25.000 FPS
Standard : PAL
Color space : YUV
Chroma subsampling : 4:2:0
Bit depth : 8 bits
Scan type : Interlaced
Scan order : Top Field First
Compression mode : Lossy
Bits/(Pixel*Frame) : 0.501
Stream size : 407 MiB (91%)
Audio
ID : 192 (0xC0)
Format : MPEG Audio
Format version : Version 1
Format profile : Layer 2
Duration : 10 min 56 s
Bit rate mode : Constant
Bit rate : 384 kb/s
Channel(s) : 2 channels
Sampling rate : 48.0 kHz
Frame rate : 41.667 FPS (1152 SPF)
Compression mode : Lossy
Stream size : 30.1 MiB (7%)

Скриншоты

admin

Post 19-Oct-2018 16:28

[Quote]

Название:Александр Малинин - Романсы (2007)
Жанр: Поп, шансон
Год выпуска: 2007
Продолжительность: 01:40:18
Доп. информация
Потрясающий концерт лучшего исполнителя Русского романса! Так как это делает Александр Малинин, не делает больше никто на отечественной сцене. Мощный вокал и красивые стихи идущие от сердца. Любителям шансона и тем кто понимает что такое русская душа, рекомендую. Ремастеринг делал с фирменного двд. Добавил дорогу звука с CD. Да пребудет с нами качественная музыка!. Все лучшее для вас. ALEXnROCK
Формат: AVI
Качество: DVDRip
Видео кодек: XviD
Видео: 720x536(4:3) 3500Kbps 30fps
Аудио: Mp3 48KHz, 2 ch, 320 Kbps

Треклист

1.Белый конь
2.Я уеду
3.Конокрад
4.Отойди
5.Дорогой длинною
6.Марджанджа
7.Ночь светла
8.Мольба
9.Напрасные слова
10.Ностальгический романс
11.Голицын
12.Белое на синем
13.Сон офицера
14.Гори, гори, моя звезда
15.Вальс отъезд
16.Айседора
17.Улыбнись, родная
18.Ночь
19.Леди Гамильтон
20.Берега
21.Забава

Скриншоты

admin

Post 17-Sep-2018 20:28

[Quote]

Исполнитель: Владимир Пресняков
Жанр: POP
Год выпуска: 2018
Продолжительность: 01:05:34
Отдельная благодарность пользователю kuzmichm2196 за исходник.
Формат: MKV
Качество: HDTVRip 1080p HEVC
Видео кодек: H.265
Аудио кодек: AAC
Видео: HEVC/H.265, 1920x1080, ~6 000 Kbps, 25fps
Аудио: AAC, 2 ch, 192 Kbps, 48000Hz

Треклист:

01. Хор Академии Игоря Крутого - Спит придорожная трава (Острова)
02. Владимир Пресняков & Burito - Зурбаган 2.0
03. Ани Лорак - Бабушка моя
04. Леонид Агутин - Беспощадная правда (Ты скажи)
05. Юлианна Караулова - Там нет меня
06. Cергей Лазарев - Замок из дождя
07. Анжелика Варум - Мост
08. Артур Пирожков - Стюардесса по имени Жанна
09. Дима Билан - Странник
10. Наталья Подольская - Белый снег
11. Владимир Пресняков - Слушая тишину
12. Григорий Лепс - Два Колумба
13. Григорий Лепс - Аэропорты
14. Александр Иванов и Владимир Пресняков - Я буду помнить ...

MedaInfo

Presnyakov_2018.09.06.mkv
Format : Matroska
Format version : Version 4 / Version 2
File size : 2.88 GiB
Duration : 1 h 5 min
Overall bit rate : 6 280 kb/s
Movie name : Новая волна
Encoded date : UTC 2018-09-15 22:52:22
Writing application : mkvmerge v24.0.0 ('Beyond The Pale') 64-bit
Writing library : libebml v1.3.6 + libmatroska v1.4.9 / Lavf57.83.100
Video
ID : 1
Format : HEVC
Format/Info : High Efficiency Video Coding
Format profile : Main@L4@Main
Codec ID : V_MPEGH/ISO/HEVC
Duration : 1 h 5 min
Bit rate : 6 059 kb/s
Width : 1 920 pixels
Height : 1 080 pixels
Display aspect ratio : 16:9
Frame rate mode : Constant
Frame rate : 25.000 FPS
Color space : YUV
Chroma subsampling : 4:2:0
Bit depth : 8 bits
Bits/(Pixel*Frame) : 0.117
Stream size : 2.78 GiB (96%)
Writing library : x265 2.6:[Linux][GCC 7.3.0][64 bit] 8bit+10bit+12bit
Encoding settings : cpuid=1105919 / frame-threads=2 / wpp / no-pmode / no-pme / no-psnr / no-ssim / log-level=2 / input-csp=1 / input-res=1920x1080 / interlace=0 / total-frames=0 / level-idc=0 / high-tier=1 / uhd-bd=0 / ref=1 / no-allow-non-conformance / no-repeat-headers / annexb / no-aud / no-hrd / info / hash=0 / no-temporal-layers / open-gop / min-keyint=25 / keyint=250 / bframes=3 / b-adapt=0 / b-pyramid / bframe-bias=0 / rc-lookahead=5 / lookahead-slices=6 / scenecut=0 / no-intra-refresh / ctu=32 / min-cu-size=16 / no-rect / no-amp / max-tu-size=32 / tu-inter-depth=1 / tu-intra-depth=1 / limit-tu=0 / rdoq-level=0 / dynamic-rd=0,00 / no-ssim-rd / no-signhide / no-tskip / nr-intra=0 / nr-inter=0 / no-constrained-intra / strong-intra-smoothing / max-merge=2 / limit-refs=0 / no-limit-modes / me=0 / subme=0 / merange=57 / temporal-mvp / no-weightp / no-weightb / no-analyze-src-pics / deblock=0:0 / no-sao / no-sao-non-deblock / rd=2 / early-skip / rskip / fast-intra / no-tskip-fast / no-cu-lossless / no-b-intra / no-splitrd-skip / rdpenalty=0 / psy-rd=2,00 / psy-rdoq=0,00 / no-rd-refine / analysis-reuse-mode=0 / no-lossless / cbqpoffs=0 / crqpoffs=0 / rc=abr / bitrate=6000 / qcomp=0,60 / qpstep=4 / stats-write=0 / stats-read=0 / ipratio=1,40 / pbratio=1,30 / aq-mode=1 / aq-strength=0,00 / cutree / zone-count=0 / no-strict-cbr / qg-size=32 / no-rc-grain / qpmax=69 / qpmin=0 / no-const-vbv / sar=1 / overscan=0 / videoformat=5 / range=0 / colorprim=1 / transfer=1 / colormatrix=1 / chromaloc=0 / display-window=0 / max-cll=0,0 / min-luma=0 / max-luma=255 / log2-max-poc-lsb=8 / vui-timing-info / vui-hrd-info / slices=1 / no-opt-qp-pps / no-opt-ref-list-length-pps / no-multi-pass-opt-rps / scenecut-bias=0,05 / no-opt-cu-delta-qp / no-aq-motion / no-hdr / no-hdr-opt / no-dhdr10-opt / analysis-reuse-level=5 / scale-factor=0 / refine-intra=0 / refine-inter=0 / refine-mv=0 / no-limit-sao / ctu-info=0 / no-lowpass-dct / refine-mv-type=0 / copy-pic=1
Default : Yes
Forced : No
Color range : Limited
Color primaries : BT.709
Transfer characteristics : BT.709
Matrix coefficients : BT.709
Audio
ID : 2
Format : AAC
Format/Info : Advanced Audio Codec
Format profile : LC
Codec ID : A_AAC-2
Duration : 1 h 5 min
Bit rate : 219 kb/s
Channel(s) : 2 channels
Channel positions : Front: L R
Sampling rate : 48.0 kHz
Frame rate : 46.875 FPS (1024 SPF)
Compression mode : Lossy
Delay relative to video : -21 ms
Stream size : 103 MiB (3%)
Language : Russian
Default : Yes
Forced : No

Скриншоты

admin

Post 04-Sep-2018 18:07

[Quote]

Название: Песня года (лучшее 1983 - 1991) - Видеоколлекция от ALEXnROCK
Жанр: Поп
Год выпуска: 2018
Продолжительность: 02:40:44
Доп. информация
В сборник вошли самые хитовые песни с выступлений Песня года, периода 1983 по 1991 г. В то время бездарям путь на эстраду был закрыт. Самые сильная поп музыка создавалась именно тогда. Это классика и достояние нашей великой Родины. Все видео прошло многочасовую обработку, звук CD. Это 2я часть. Обложка и блин для диска в раздаче. Да пребудет с нами качественная музыка!. Все лучшее для вас. ALEXnROCK
Формат: AVI
Качество: DVDRip
Видео кодек: XviD
Видео: 720x536 (4:3) 3500Kbps 30fps
Аудио: Mp3 48KHz, 2 ch, 320 Kbps

Треклист

000 Вступление
038 Веселые ребята - Розовые розы
039 Ирина Аллегрова - Странник
040 Вячеслав Добрынин - Казино
041 Дмитрий Маликов - Сторона родная
042 Алла Пугачева - Расскажите птицы
043 Игорь Корнелюк – Дожди
044 Вячеслав Добрынин - Не сыпь мне соль на рану
045 София Ротару - Лаванда
046 Любэ - Станция Таганская
047 Маша Распутина - Играй музыкант
048 Александр Малинин – Пилигримы
049 Форум - Твои серые глаза
050 Михаил Муромов - Яблоки на снегу
051 Валентина Толкунова - Не могу иначе
052 Олег Газманов - Морячка
053 Алла Пугачева - Старинные часы
054 На на - Эскимос и папуас
055 Юрий Антонов - Не рвите цветы
056 Валерий Леонтьев - Белый снег
057 Лариса Долина - Старый знакомы
058 Игорь Тальков - Чистые пруды
059 Андрей Державин - Первые цветы
060 Тамара Гвердцители - Виват король
061 Александр Барыкин - За той рекой
062 Женя Белоусов - Ночное такси
063 Алла Пугачева - Прости, поверь
064 Владимир Кузьмин - Капитан
065 Веселые ребята - Дама с собачкой
066 Лайма Вайкуле - Я за тебя молюсь
067 Игорь Корнелюк - Возвращайся
068 Сергей Беликов - Снится мне деревня
069 Алексей Глызин - Зимний сад
070 София Ротару - Золотое сердце
071 Маша Распутина и Вячеслав Добрынин - Льется музыка
072 Юрий Лоза - Пой, моя гитара
073 Ирина Понаровская - Я больше не хочу
074 Вячеслав Малежик - Провинциалка

Скриншоты

admin

Post 13-Aug-2018 07:42

[Quote]

Название: Алла Пугачёва - Видеоколлекция от ALEXnROCK
Жанр: Поп
Год выпуска: 2018
Продолжительность: 05:24:03
Доп. информация
В собрание великой русской певицы, вошли клипы которые удалось найти в достойном качестве. Коллекция в 2х частях Это 2я. Все видео прошло многочасовую обработку, звук заменил на CD. Обложка и блин для диска есть в раздаче. Да пребудет с нами качественная музыка!. Все лучшее для вас. ALEXnROCK
Формат: AVI
Качество: DVDRip
Видео кодек: XviD
Видео: 720x408, 720x536, 3500 Kbps
Аудио: Mp3 48000KHz, 2 ch, 320 Kbps

Треклист

000 Вступление
001 Алла Пугачёва - Свеча горела
002 Алла Пугачёва - Ах как живется мне
003 Алла Пугачёва и К. Орбакайте - Опять метель
004 Алла Пугачева - Чао дорогой
005 Алла Пугачева - Примадонна
006 Алла Пугачева - Голова
007 Алла Пугачёва - Речной трамвайчик
008 Алла Пугачёва - Так иди же сюда
009 Алла Пугачёва - Белый снег
010 Алла Пугачева - Придумай что нибудь
011 Алла Пугачёва - Бессонница
012 Алла Пугачева - Пригласите танцевать
013 Алла Пугачева и Максим Галкин - Будь или не будь
014 Алла Пугачева - Озеро надежды
015 Алла Пугачёва - Полковник
016 Алла Пугачёва - Голубка
017 Алла Пугачёва - Бежала голову сломя
018 Алла Пугачёва - Непогода
019 Алла Пугачева - Беглец
020 Алла Пугачева - Мал по малу
021 Алла Пугачева - Отдыхай
022 Алла Пугачева - Мимоходом
023 Алла Пугачёва - Зона отчуждения
024 Алла Пугачева - Свирель
025 Алла Пугачёва - Ты не мужчина
026 Алла Пугачёва - Любовь
027 Алла Пугачева и Максим Галкин - Кафешка
028 Алла Пугачева - Гудбай
029 Алла Пугачёва - Приехали
030 Алла Пугачёва - Приглашение на закат
031 Алла Пугачева - Фотограф
032 Алла Пугачева - Три счастливых дня
033 Алла Пугачёва - Найти меня
034 Алла Пугачева - Бог с тобой
035 Алла Пугачёва - Я в воду войду
036 Алла Пугачёва - В Петербурге гроза
037 Алла Пугачева - Снежный мальчик
038 Алла Пугачева - Близкие люди
039 Алла Пугачева - Хочется
040 Алла Пугачева - Я тебя поцеловала
041 Алла Пугачёва - Мэри
042 Алла Пугачёва - Господа
043 Алла Пугачева - Встреча в пути
044 Алла Пугачёва - Мадам Брошкина (Live)
045 Алла Пугачева - Позови меня с собой
046 Алла Пугачева - Моя судьба
047 Алла Пугачёва - Осенний поцелуй
048 Алла Пугачева - Куда все уходят
049 Алла Пугачёва - Не сгорю
050 Алла Пугачева - Спасибо
051 Алла Пугачева - Приданное
052 Алла Пугачёва - Дожди
053 Алла Пугачева и Сергей Челобанов - Незваный гость
054 Алла Пугачева - Осенние листья
055 Алла Пугачева - Если я
056 Алла Пугачёва - Сильная женщина
057 Алла Пугачёва - Сыграем в любовь
058 Алла Пугачева - Счастье
059 Алла Пугачева - Я тебя сильно любила
060 Алла Пугачёва - Все ушли в осень, Не плачь
061 Алла Пугачева - Голубь сизокрылый
062 Алла Пугачёва - Любовь похожая на сон
063 Алла Пугачева - Коралловые бусы
064 Алла Пугачёва - Кафе танцующих огней
065 Алла Пугачёва - Настоящий полковник (live 98)
066 Алла Пугачёва - Как-нибудь (live 98)
067 Алла Пугачёва - Не отрекаются любя (live 98)
068 Алла Пугачёва - Начни сначала (live 98)
069 Алла Пугачёва - Три счастливых дня (live 98)
070 Алла Пугачёва - Бессонница (live 98)
071 Алла Пугачёва - На тот большак… (live 98)
072 Алла Пугачёва - Мы оба правы (live 98)
073 Алла Пугачёва - Старинные часы (live 98)
074 Алла Пугачёва - Не обижай меня (live 98)
075 Алла Пугачёва - Свеча горела (Live)

Скриншоты

admin

Post 12-Aug-2018 06:26

[Quote]

Название: Алла Пугачёва - Видеоколлекция от ALEXnROCK
Жанр: Поп
Год выпуска: 2018
Продолжительность: 06:01:50
Доп. информация
В собрание великой русской певицы, вошли клипы которые удалось найти в достойном качестве. Коллекция в 2х частях Это 1я. Все видео прошло многочасовую обработку, звук заменил на CD. Обложка и блины для дисков есть в раздаче. Да пребудет с нами качественная музыка!. Все лучшее для вас. ALEXnROCK
Формат: AVI
Качество: DVDRip
Видео кодек: XviD
Видео: 720x408, 720x536, 3500 Kbps
Аудио: Mp3 48000KHz, 2 ch, 320 Kbps

Треклист

000 Вступление
001 Алла Пугачева - Арлекино
002 Алла Пугачева - Айсберг
003 Алла Пугачёва - Надо же
004 Алла Пугачева - Песенка про меня
005 Алла Пугачева - Найди себе друга
006 Алла Пугачева - Приезжай
007 Алла Пугачева - Делу время
008 Алла Пугачева - Старинные часы
009 Алла Пугачева - Птица певчая
010 Алла Пугачева - Миллион аллых роз
011 Алла Пугачева - Алло
012 Алла Пугачева - Женщина которая поет
013 Алла Пугачёва - Балет
014 Алла Пугачёва - Сонет Шекспира
015 Алла Пугачева и Кристина Орбакайте - Все еще будет
016 Алла Пугачёва - Золотая карусель
017 Алла Пугачева - На Тихорнцкую
018 Алла Пугачёва - Песенка первоклассника
019 Алла Пугачева - Монолог
020 Алла Пугачева - Робинзон
021 Алла Пугачёва - Святая ложь
022 Алла Пугачева - Все могут короли
023 Алла Пугачева - Без меня
024 Алла Пугачева - До свидания, лето
025 Алла Пугачева - Harlekino
026 Алла Пугачева - Белая дверь
027 Алла Пугачева - О любви не говори
028 Алла Пугачева - Мне нравится
029 Алла Пугачёва - Цыганский Хор
030 Алла Пугачева - Да, да, да
031 Алла Пугачева - Терема
032 Алла Пугачева - Волшебник недоучка
033 Алла Пугачева - Ты не стал судьбой
034 Алла Пугачева - Старый Дом
035 Алла Пугачева - Дежурный ангел
036 Алла Пугачева - Звездное лето
037 Алла Пугачёва - Крысолов
038 Алла Пугачёва - Бумажный Змей
039 Алла Пугачева - Этот мир
040 Алла Пугачева - Расскажите птицы
041 Алла Пугачева - Любимчик Пашка
042 Алла Пугачёва - По улице моей
043 Алла Пугачёва и Владимир Кузьмин - Две звезды
044 Алла Пугачева - Паромщик
045 Алла Пугачёва - Балалайка
046 Алла Пугачева - Королева
047 Алла Пугачева - Уважаемый автор
048 Алла Пугачева и Валерий Леонтьев - Поздно
049 Алла Пугачева - Про эстраду
050 Алла Пугачева - Прости, поверь
051 Алла Пугачева - Мне судьба такая выпала
052 Алла Пугачева - Ты возьми меня с собой
053 Алла Пугачёва - Арлекино (вер 2)
054 Алла Пугачева - Как тревожен этот путь
055 Алла Пугачева - Кукушка
056 Алла Пугачева - Маэстро
057 Алла Пугачёва - Миллион алых роз (вер 2)
058 Алла Пугачева - Первый Шаг
059 Алла Пугачёва - Осень
060 Алла Пугачева - Без меня (вер 2)
061 Алла Пугачева - Старинные часы (вер 2)
062 Алла Пугачева - Канатоходка
063 Алла Пугачева - Приезжай (вер 2)
064 Алла Пугачёва - Бумажный Змей (вер 2)
065 Алла Пугачева - Поднимись над суетой
066 Алла Пугачева - Ты не стал моей судьбой (вер 2)
067 Алла Пугачева - Самолеты улетают
068 Алла Пугачева - Жди и помни меня
069 Алла Пугачева - Иван Иваныч
070 Алла Пугачева - Беда
071 Алла Пугачева - Пришла и говорю
072 Алла Пугачева - Песня на бис
073 Алла Пугачева - Святая ложь (вер 2)
074 Алла Пугачева - Сто друзей
075 Алла Пугачева - Окраина
076 Алла Пугачева - Сбереги тебя судьба
077 Алла Пугачёва - Айсберг (вер 2)
бонус Алла Пугачёва - Песенка про меня (вер 2)
бонус Алла Пугачёва - Сонет Шекспира (вер 2)
бонус Алла Пугачева - XX век
бонус Алла Пугачева - Вот так случилось, мама
бонус Алла Пугачева - Гонка
бонус Алла Пугачева - Женщина, которая поет (вер 2)
бонус Алла Пугачева - Когда я уйду
бонус Алла Пугачева - Монолог (вер 2)
бонус Алла Пугачева - Эти летние дожди

Скриншоты

 

Current time is: 07-Dec 07:07

All times are UTC + 3