Search found 11 matches

Author Message

admin

Post 26-Mar-2022 05:44

[Quote]

Название: The Very Best Of
Исполнитель: Sandra
Год: 2016
Жанр: Pop
Страна: Germany
Качество: DVD9
Формат: DVD Video
Видео кодек: MPEG2
Аудио кодек: PCM
Видео: MPEG2 Video 720x576 (4:3) 25fps 8200 kbps
Аудио: LPCM 48000Hz Stereo 1536kbps

Трек-лист

01. (I'll Never Be) Maria Magdalena (3:57)
02. In The Heat Of The Night (3:59)
03. Little Girl (3:36)
04. Innocent Love (3:44)
05. Hi! Hi! Hi! (3:43)
06. Loreen (4:13)
07. Midnight Man (3:02)
08. Everlasting Love (3:42)
09. Stop For A Minute (4:02)
10. Heaven Can Wait (4:16)
11. Secret Land (4:00)
12. We'll Be Together (3:43)
13. Around My Heart (3:08)
14. Hiroshima (4:13)
15. (Life May Be) A Big Insanity (4:30)
16. One More Night (3:37)
17. Don't Be Aggressive (4:26)
18. I Need Love (3:19)
19. Johnny Wanna Live (3:44)
20. Maria Magdalena (Remix '93) (4:02)
21. Nights In White Satin (3:36)
22. Secret Land (Remix '99) (3:21)
23. Forever (3:41)
24. The Night Is Still Young (Sandra feat. Thomas Anders) (3:22)
25. Infinite Kiss (2:59)
26. Secrets Of Love (DJ BoBo feat. Sandra) (3:20)

DVDInfo

Title: downloads
Size: 5.45 Gb ( 5 718 328 KBytes ) - DVD-9
Enabled regions: 1, 2, 3, 4, 5, 6, 7, 8
VTS_01 :
Play Length: 01:27:47
Video: PAL 4:3 (720x576) VBR
Audio:
English (LinearPCM, 2 ch)
VTS_02 :
Play Length: 00:03:23+00:02:59+00:03:21
Video: PAL 16:9 (720x576) VBR, Auto Letterboxed
Audio:
English (LinearPCM, 2 ch)
Menu Video:
PAL 16:9 (720x576) VBR
Auto Letterboxed
Menu Audio:
Not specified (LinearPCM, 2 ch)
Menu Subtitles:
Not specified
Menu English Language Unit :
Root Menu

Скриншоты меню

admin

Post 31-Jan-2022 03:55

[Quote]

Информация о фильме
Название: Take That - Hometown - Live At Manchester G-Mex
Год выхода: 1995
Жанр: Pop
Исполнители: Gary Barlow, Howard Donald, Jason Orange, Mark Owen, Robbie Williams

Трек-лист

01. Intro
02. Theme For The Uncommon Man (Instrumental)
03. Satisfied
04. (I Can't Get No) Satisfaction
05. Promises
06. Sure
07. Everything Changes
08. Love Ain't Here Anymore
09. It Only Takes A Minute
10. Do What You Like
11. Could It Be Magic
12. Why Can't I Wake Up With You
13. A Million Love Songs
14. Zogonian Lullaby (Instrumental)
15. Beatles Medley
16. Babe
17. Give Good Feeling
18. Pray
19. Relight My Fire
20. Theme For The Uncommon Man (Instrumental)
Страна: UK
Продолжительность: 01:35:01
Перевод: не требуется
Файл
Кодек: h.264
Качество: VHSRip-AVC
Видео: 768x576 (4:3), 25 fps, MPEG-4 AVC, 2500 kbps
Звук: 48 kHz, AAC, 2/0 (L,R) ch, 320 kbps
Семпл

MediaInfo

General
Unique ID : 302297468440702935841003982863637377783 (0xE36C5FE99A3A34CE239D984AF42F72F7)
Complete name : /Users/schloss/Downloads/Take That - 1995 - Hometown - Live At Manchester G-Mex (VHS).mkv
Format : Matroska
Format version : Version 4
File size : 1.87 GiB
Duration : 1 h 35 min
Overall bit rate : 2 823 kb/s
Movie name : Take That - 1995 - Hometown - Live At Manchester G-Mex (VHS)
Encoded date : UTC 2022-01-30 09:55:18
Writing application : mkvmerge v61.0.0 ('So') 64-bit
Writing library : libebml v1.4.2 + libmatroska v1.6.4
Video
ID : 1
Format : AVC
Format/Info : Advanced Video Codec
Format profile : High@L4.2
Format settings : CABAC / 15 Ref Frames
Format settings, CABAC : Yes
Format settings, Reference frames : 15 frames
Codec ID : V_MPEG4/ISO/AVC
Duration : 1 h 35 min
Bit rate : 2 500 kb/s
Width : 768 pixels
Height : 576 pixels
Display aspect ratio : 4:3
Frame rate mode : Constant
Frame rate : 25.000 FPS
Color space : YUV
Chroma subsampling : 4:2:0
Bit depth : 8 bits
Scan type : Progressive
Bits/(Pixel*Frame) : 0.226
Stream size : 1.66 GiB (89%)
Title : Core Media Video
Writing library : x264 core 161 r3049 55d517b
Encoding settings : cabac=1 / ref=16 / deblock=1:0:0 / analyse=0x3:0x111 / me=umh / subme=11 / psy=1 / psy_rd=0.80:0.20 / mixed_ref=1 / me_range=24 / chroma_me=1 / trellis=2 / 8x8dct=1 / cqm=0 / deadzone=21,11 / fast_pskip=0 / chroma_qp_offset=-3 / threads=28 / lookahead_threads=4 / sliced_threads=0 / nr=0 / decimate=1 / interlaced=0 / bluray_compat=0 / constrained_intra=0 / bframes=16 / b_pyramid=1 / b_adapt=2 / b_bias=0 / direct=2 / weightb=1 / open_gop=0 / weightp=2 / keyint=250 / keyint_min=25 / scenecut=40 / intra_refresh=0 / rc_lookahead=40 / rc=2pass / mbtree=1 / bitrate=2500 / ratetol=1.0 / qcomp=0.50 / qpmin=0 / qpmax=51 / qpstep=4 / cplxblur=20.0 / qblur=0.5 / vbv_maxrate=62500 / vbv_bufsize=78125 / nal_hrd=none / filler=0 / ip_ratio=1.40 / aq=3:1.00
Default : Yes
Forced : Yes
Color range : Limited
Matrix coefficients : BT.470 System B/G
Audio
ID : 2
Format : AAC LC
Format/Info : Advanced Audio Codec Low Complexity
Codec ID : A_AAC-2
Duration : 1 h 35 min
Bit rate : 321 kb/s
Channel(s) : 2 channels
Channel layout : L R
Sampling rate : 48.0 kHz
Frame rate : 46.875 FPS (1024 SPF)
Compression mode : Lossy
Delay relative to video : 21 ms
Stream size : 218 MiB (11%)
Title : AAC
Language : English
Default : Yes
Forced : No
Menu
00:00:00.000 : Intro
00:02:21.840 : Theme For The Uncommon Man (Instrumental)
00:03:47.160 : Satisfied
00:05:16.760 : (I Can't Get No) Satisfaction
00:07:36.960 : Promises
00:11:59.000 : Sure
00:17:43.640 : Everything Changes
00:21:45.800 : Love Ain't Here Anymore
00:27:40.240 : It Only Takes A Minute
00:31:27.280 : Do What You Like
00:35:32.120 : Could It Be Magic
00:40:34.000 : Why Can't I Wake Up With You
00:44:29.840 : A Million Love Songs
00:49:42.040 : Zogonian Lullaby (Instrumental)
00:50:46.240 : Beatles Medley
01:02:54.320 : Babe
01:12:36.600 : Give Good Feeling
01:20:12.880 : Pray
01:25:38.880 : Relight My Fire
01:32:23.200 : Theme For The Uncommon Man (Instrumental)

Скриншоты

admin

Post 01-Dec-2021 05:26

[Quote]

Информация о фильме
Оригинальное название: Kylie Minogue - Infinite Disco
Год выхода: 2021
Жанр: Pop, disco
Исполнитель: Кайли Миноуг
О концерте: Эксклюзивный концерт Кайли Миноуг в поддержку ее пятнадцатого студийного альбома "DISCO", который переносит зрителей в параллельную вселенную - из уединенной изоляции в альтернативное веселое сообщество единения на танцполе. Визуальный мир, созданный Кайли и ее креативной командой, находится в будущем в месте, в котором, по словам Кайли, "мы все вместе снова".

Сет-лист

01. Magic (Intro)
02. Come Into My World (Interlude)
03. I Love It
04. In Your Eyes
05. Light Years
06. Supernova
07. Light Years (Reprise)
08. I Should Be So Lucky (Interlude)
09. Dance Floor Darling
10. All The Lovers (With House Gospel Choir)
11. Say Something (With House Gospel Choir)
12. Real Groove
13. Slow / Love To Love You Baby
14. Monday Blues
15. Where Does The DJ Go?
16. Love At First Sight
17. Last Chance
18. Magic
19. Applause & Credits

Страна: Великобритания
Студия: Diamond Records
Продолжительность: 00:50:38
Файл
Кодек: MPEG-4 AVC
Качество: BDRemux 1080i
Видео: 1920x1080, 16:9, 29.970 fps, 29600 Кбит/с
Звук:
Аудио #1: AC3, 48 Гц, 256 Кбит/сек, 2 ch (L, R) - английский
Аудио #2: FLAC, 48 Гц, 1082 Кбит/сек, 2 ch (L, R) - английский

Инфо-файл

Format : Matroska
Format version : Version 4
File size : 10.9 GiB
Duration : 50 min 38 s
Overall bit rate mode : Variable
Overall bit rate : 30.9 Mb/s
Movie name : Kylie Minogue - Infinite Disco (2021) от new-team.org
Encoded date : UTC 2021-11-30 11:43:50
Writing application : mkvmerge v56.1.0 ('My Friend') 64-bit
Writing library : libebml v1.4.2 + libmatroska v1.6.4
Attachments : Kylie-Infinite Disco.jpg
Video
ID : 1
Format : AVC
Format/Info : Advanced Video Codec
Format profile : High@L4.1
Format settings : CABAC / 4 Ref Frames
Format settings, CABAC : Yes
Format settings, Reference : 4 frames
Codec ID : V_MPEG4/ISO/AVC
Duration : 50 min 38 s
Bit rate mode : Variable
Bit rate : 29.6 Mb/s
Maximum bit rate : 35.0 Mb/s
Width : 1 920 pixels
Height : 1 080 pixels
Display aspect ratio : 16:9
Frame rate mode : Variable
Frame rate : 59.940 (60000/1001) FPS
Original frame rate : 29.970 (30000/1001) FPS
Standard : NTSC
Color space : YUV
Chroma subsampling : 4:2:0
Bit depth : 8 bits
Scan type : Interlaced
Scan type, store method : Separated fields
Scan order : Top Field First
Bits/(Pixel*Frame) : 0.238
Stream size : 10.5 GiB (96%)
Language : English
Default : Yes
Forced : No
Color range : Limited
Color primaries : BT.709
Transfer characteristics : BT.709
Matrix coefficients : BT.709
Audio #1
ID : 2
Format : AC-3
Format/Info : Audio Coding 3
Commercial name : Dolby Digital
Codec ID : A_AC3
Duration : 50 min 38 s
Bit rate mode : Constant
Bit rate : 256 kb/s
Channel(s) : 2 channels
Channel layout : L R
Sampling rate : 48.0 kHz
Frame rate : 31.250 FPS (1536 SPF)
Compression mode : Lossy
Stream size : 92.7 MiB (1%)
Language : English
Service kind : Complete Main
Default : Yes
Forced : No
Audio #2
ID : 3
Format : FLAC
Format/Info : Free Lossless Audio Codec
Codec ID : A_FLAC
Duration : 50 min 38 s
Bit rate mode : Variable
Bit rate : 1 082 kb/s
Channel(s) : 2 channels
Channel layout : L R
Sampling rate : 48.0 kHz
Frame rate : 11.719 FPS (4096 SPF)
Bit depth : 16 bits
Compression mode : Lossless
Stream size : 392 MiB (4%)
Writing library : libFLAC 1.2.1 (UTC 2007-09-17)
Language : English
Default : No
Forced : No
Menu
00:00:04.671 : Magic (Intro)
00:01:37.864 : Come Into My World (Interlude)
00:01:59.386 : I Love It
00:05:04.304 : In Your Eyes
00:08:08.822 : Light Years
00:10:54.154 : Supernova
00:14:08.381 : Light Years (Reprise)
00:14:40.012 : I Should Be So Lucky (Interlude)
00:15:07.407 : Dance Floor Darling
00:18:19.565 : All The Lovers (With House Gospel Choir)
00:21:58.851 : Say Something (With House Gospel Choir)
00:26:01.093 : Real Groove
00:28:55.100 : Slow / Love To Love You Baby
00:32:09.428 : Monday Blues
00:35:17.215 : Where Does The DJ Go?
00:38:14.459 : Love At First Sight
00:42:20.438 : Last Chance
00:45:05.536 : Magic
00:49:23.928 : Applause & Credits

Скриншоты

admin

Post 20-Jul-2021 03:16

[Quote]

Информация
Оригинальное название: Ariana Grande - Official Live Performance Vevo
Год выпуска: 2021
Жанр: Поп
Исполнитель: Ariana Grande
Описание: Ариана Гранде выступила для портала «VEVO»..
Файл
Формат: mp4
Качество: WEBRip 1080p
Видео: MPEG-4 AVC, 2495 Кбит/с, 1920x1080
Аудио: AAC, 2 ch, 128 Кбит/с
Продолжительность: 4 х ~ 00:03:14

Содержание:

01.Pov
02.safety net (Feat. Ty Dolla $ign)
03.my hair
04.34+35

Скриншоты


admin

Post 03-May-2021 22:44

[Quote]

Название: In Beat Club
Исполнитель: ABBA
Год выпуска: 1976
Страна: Germany
Продолжительность: 01:01:05
Жанр: Pop, Rock, Disco, Видеоклипы, Концерты
Качество: DVDRip
Формат: AVI
Видео кодек: MPEG4(XviD)
Аудио кодек: AC3
Видео: MPEG4, 720x544, 1859 Kbps
Аудио: AC3, 192 Kbps, 48000 Hz, 2 Channels

Список композиций

1. Ring Ring - intro
2. Waterloo
3. Honey Honey
4. Tropical Loveland
5. SOS
6. Rock Me
7. Dancing Queen
8. Mamma Mia
9. I'v Been Waiting For You
10. Fernando
11. So Long
12. Ring Ring - outro
BONUS
1 - ABBA - Lay All Your Love On Me – Clip From Gold
2 - ABBA - Waterloo – EuroVision 1974 Live
3 - ABBA - Waterloo – 5 Studio Live
4 - ABBA - Honey, Honey
5 - ABBA - Hasta Manana
6 - Agnetha Faltskog – If I Thought You’d Ever Change Your
7 - Agnetha Faltskog – When You Walk In The Room

Скриншоты

admin

Post 03-May-2021 22:29

[Quote]

Название: In Beat Club
Исполнитель: ABBA
Год выпуска: 1976
Страна: Germany
Продолжительность: 01:01:05
Жанр: Pop, Rock, Disco, Видеоклипы, Концерты
Качество: DVD5
Формат: DVD Video
Видео кодек: MPEG2
Аудио кодек: AC3
Видео: MPEG2, 720x576, VBR
Аудио: AC3, 192 Kbps, 48000 Hz, 2 Channels

Список композиций

1. Ring Ring - intro
2. Waterloo
3. Honey Honey
4. Tropical Loveland
5. SOS
6. Rock Me
7. Dancing Queen
8. Mamma Mia
9. I'v Been Waiting For You
10. Fernando
11. So Long
12. Ring Ring - outro
BONUS
1 - ABBA - Lay All Your Love On Me – Clip From Gold
2 - ABBA - Waterloo – EuroVision 1974 Live
3 - ABBA - Waterloo – 5 Studio Live
4 - ABBA - Honey, Honey
5 - ABBA - Hasta Manana
6 - Agnetha Faltskog – If I Thought You’d Ever Change Your
7 - Agnetha Faltskog – When You Walk In The Room

Скриншоты


admin

Post 20-Dec-2019 20:52

[Quote]

Название: Милен Фармер 2019 – в кино
Исполнитель: Mylene Farmer
Оригинальное название: Mylene Farmer 2019 – Le Film
Год выпуска: 2019
Жанр: Pop, Концерт
Описание:
После шестилетнего перерыва Милен Фармер триумфально вернулась на сцену, дав серию концертов в знаменитом парижском La Defense Arena — самом большом зале Европы. В программу вошли как уже любимые публикой хиты, так и песни из нового альбома.

Качество: BDRip (720p)
Видео: MPEG-4 AVC, 4100 Кбит/с, 1280x536
Аудио: Французский (DTS, ch, 1509 Кбит/с), (FLAC, 2 ch, 1700 Кбит/с)
Продолжительность: 02:08:01
Перевод: Не требуется
Mediainfo

ТРЕКЛИСТ

01. Coming from the Vortex
02. Interstellaires
03. Sans logique
04. Rolling Stone
05. Pourvu qu'elles soient douces
06. Stolen Car
07. Des larmes
08. California
09. M'effondre
10. L'âme-stram-gram
11. Hard Hip Hop
12. Un jour ou l'autre
13. Ainsi soit je...
14. Innamoramento
15. Sans contrefaçon
16. Histoires de fesses
17. Sentimentale
18. Désenchantée
19. Rêver
20. Je te rends ton amour
21. Fuck Them All / C'est dans l'air
22. L'horloge
23. Générique de fin

Скриншоты



admin

Post 20-May-2019 03:25

[Quote]

Информация о фильме
Название: Дискотека 80-х 2018 год (Полная версия). DVD-9.
Год выхода: 2018
Жанр: Disco
Режиссер: первый канал
В ролях: Томас Андерс, C.C. Catch, Юрий Антонов, Boney M ft. Liz Mitchell, "Кар-Мэн", Dschinghis Khan, Анжелика Варум, Дмитрий Маликов и др.
О фильме:
Главная дискотека страны состоялась уже в 17-й раз и, как и прежде, подарила зрителям невероятные визуальные эффекты, качественный звук и, конечно же, выступления самых любимых российских и зарубежных звезд диско на одной сцене. В этом году в "Олимпийском" выступили 17 исполнителей, в том числе Томас Андерс, C.C. Catch, Юрий Антонов, Boney M ft. Liz Mitchell, "Кар-Мэн", Dschinghis Khan, Анжелика Варум, Дмитрий Маликов.

Треклист


01. A'Cappella ExpreSSS - «Попурри»
02. Boney M - «Rasputin»
03. Boney M - «Daddy Cool»
04. Boney M - «Sunny»
05. Виктор Салтыков - «Белая ночь»
06. F.R.David - «Girl»
07. F.R.David - «Taxi»
08. F.R.David - «Words»
09. Дмитрий Маликов - «До завтра»
10. Gazebo - «Lunatic»
11. Gazebo - «I like Chopin»
12. Riccardo Fogli - «Malinconia»
13. Riccardo Fogli - «Alla Fine Di Un Lavoro»
14. Riccardo Fogli - «Storie di tutti i giorni»
15. Андрей Державин и группа «Сталкер» - Ночной город
16. Андрей Державин и группа «Сталкер» - «Не плачь, Алиса»
17. Secret Service - «The Dancer»
18. Secret Service - «Flash in the night»
19. Secret Service - «L.A.Goodbye»
20. Secret Service - «Ten O`Clock Postman»
21. Анжелика Варум - «Good bye, мой мальчик» (live)
22. Анжелика Варум - «Зимняя вишня» (live)
23. Земляне - «Попурри»
24. Чайф - «Никто не услышит» (live)
25. Чайф - «Аргентина-Ямайка 5:0» (live)
26. Чайф - «Оранжевое настроение» (live)
27. Чайф - «17 лет (live)
28. Savage - «Don`t Cry Tonight»
29. Savage - «Only You»
30. Savage - «Goodbye»
31. Кар-Мэн - «Бомбей-буги»
32. Кар-Мэн - «Сан-Франциско»
33. Кар-Мэн - «Париж»
34. C.C.Catch - «I Can Lose My Heart tonight» (live)
35. C.C.Catch - «Heaven and Hell» (live)
36. C.C.Catch - «Strangers by Night» (live)
37. Dschinghis Khan - «Dschinghis Khan»
38. Dschinghis Khan - «Moskau»
39. Юрий Антонов - «Золотая лестница»
40. Юрий Антонов - «Нет тебя прекрасней»
41. Юрий Антонов - «Не забывай»
42. Thomas Anders - «Brother Louie»
43. Thomas Anders - «Cheri Cheri Lady»
44. Thomas Anders - «Win the Race»
45. Thomas Anders - «You`re My Heart You`re My Soul»
Страна: Россия
Продолжительность: 03:35:42
Перевод: не требуется
Файл
Формат: DVD Video
Качество: DVD-9
Видео: 720x576, (16:9) PAL, 4996 Кбит/сек,25,000 кадр/сек
Звук : AC-3,192 Кбит/сек,2ch

Скриншоты меню

Скриншоты

admin

Post 20-Mar-2019 03:19

[Quote]

Название: Bad Boys Blue - Video collection от ALEXnROCK
Жанр: Disco, Pop
Год выпуска: 2018
Продолжительность: 02:32:58
Доп. информация
Полное собрание клипов группы, а так же выступления на различных тв шоу. Ремастеринг видео и звука. Да пребудет с нами качественная музыка!. Все лучшее для вас. ALEXnROCK
Формат: AVI
Качество: DVDRip
Видео кодек: XviD
Видео: 720x408, 720x536, 3500 Kbps
Аудио: Mp3 48000KHz, 2 ch, 320 Kbps

Треклист

00 Bad Boys Blue - Intro
01 Bad Boys Blue - You're A Woman
02 Bad Boys Blue - Pretty Young Girl
03 Bad Boys Blue - Love Really Hurts Without You
04 Bad Boys Blue - I Wanna Hear Your Heartbeat
05 Bad Boys Blue - Kisses And Tears
06 Bad Boys Blue - Come Back And Stay
07 Bad Boys Blue - Gimme Gimme Your Lovin (Little Lady)
08 Bad Boys Blue - Don't Walk Away Suzanne
09 Bad Boys Blue - Lovers In The Sand
10 Bad Boys Blue - A World Without You
11 Bad Boys Blue - A Train To Nowhere
12 Bad Boys Blue - Hungry For Love
13 Bad Boys Blue - How I Need You
14 Bad Boys Blue - Queen Of Hearts
15 Bad Boys Blue - Hold You In My Arms
16 Bad Boys Blue - You're A Woman '92 (Yekaterinburg 1996)
17 Bad Boys Blue - Anywhere
18 Bad Boys Blue - Save Your Love
19 Bad Boys Blue - Go Go
20 Bad Boys Blue - The Turbomegamix 98
21 Bad Boys Blue - You're A Woman 98
22 Bad Boys Blue - Still In Love
23 Bad Boys Blue - Come Back And Stay (Alex Twister Cut)
24 Bad Boys Blue - Lady In Black (Hitparade)
25 Bad Boys Blue - Jungle In My Heart (Hitparade)
26 Bad Boys Blue - Don't Walk Away Suzanne (Hitparade)
27 Bad Boys Blue - Hungry For Love (Hitparade)
28 Bad Boys Blue - You're A Woman (Peters Popshow)
29 Bad Boys Blue - Love Really Hurts Without You (Tele-Illustrierte)
30 Bad Boys Blue - Come Back And Stay (Funkausstellung Berlin)
31 Bad Boys Blue - I Wanna Hear Your Heartbeat (Hitparade)
32 Bad Boys Blue - A World Without You Michelle (Hitparade)
33 Bad Boys Blue - Pretty Young Girl (Peters Popshow)
34 Bad Boys Blue - A Love Like This (Landerjournal)
35 Bad Boys Blue - Lovers In The Sand (ZDF-Fernsehgarten)
36 Bad Boys Blue - Queen Of Hearts (Hitparade)
37 Bad Boys Blue - You're A Woman '98 (Babeta Show)
38 Bad Boys Blue - Lover On The Line (MDR)
39 Bad Boys Blue - Lady In Black (ZDF-Fernsehgarten)
40 Bad Boys Blue - You're A Woman (ZDF-Fernsehgarten)
41 Bad Boys Blue - Come Back And Stay (Sound Der 80er)
42 Bad Boys Blue - Come Back And Stay (MS Project Cut)

Скриншоты

admin

Post 09-Sep-2018 23:31

[Quote]

Название : АББА: фильм / ABBA: The Movie
Год выпуска: 1977
Производство: Австралия, Швеция / Polar Music International, Reg Grundy Productions Pty. Ltd.
Жанр: Документальный, Музыкальный
Продолжительность: 01:35:17
Перевод: Профессиональный (многоголосый закадровый)
Субтитры: Русские, Английские
Режиссер: Лассе Халлстром / Lasse Hallstrom
В ролях: Агнета Фельтскуг, Бенни Андерссон, Бьерн Ульвеус, Анни-Фрид Люнгстад , Роберт Хьюз, Том Оливер, Брюс Барри, Стиг Андерсон, Рей Маршалл, Фрэнсис Мэттьюс
О фильме: Фильм рассказывает об австралийских гастролях сверхпопулярной в свое время шведской группы "АББА". Незадачливый репортер и диск-жокей Хьюз, пытается взять интервью у музыкантов. Постановка красивая, динамичная, без провалов и пустот, умный монтаж, создающий впечатление документальности происходящего. Зритель узнает кое-что о жизни и методах их работы. Настоящий подарок для тех, кто до сих пор слушает эту талантливую музыку.
Файл
Контейнер: matroska
Продолжительность: 01:35:17
Качество: BDRip-AVC
Объем файла: 4.38 Гб
Видео: MPEG4 Video (H264) 1920x816 24.00fps 4840 Кбит/сек
Аудио №2: Dolby AC3 48000Hz 6ch [Russian, MVO (Audio 1) [Default]]
Аудио №3: Dolby AC3 48000Hz 6ch [Russian, Gavrilov (Audio 2)]
Аудио №4: Dolby AC3 48000Hz 6ch [English (Audio 3)]
Субтитры: ru, s_vobsub
Субтитры: en, s_vobsub

MediaInfo

Полное имя : D:АББА фильм ABBA The Movie (1977)ABBA_The_Movie_BDRip.mkv
Формат : Matroska
Размер файла : 4,38 Гбайт
Продолжительность : 1 ч. 35 м.
Общий поток : 6576 Кбит/сек
Дата кодирования : UTC 2012-02-12 17:04:05
Программа кодирования : mkvmerge v5.2.1 ('A Far Off Place') built on Jan 2 2012 23:21:10
Библиотека кодирования : libebml v1.2.3 + libmatroska v1.3.0
Видео
Идентификатор : 1
Формат : AVC
Формат/Информация : Advanced Video Codec
Профиль формата : High@L5.0
Параметр CABAC формата : Да
Параметр ReFrames формата : 14 кадров
Параметры GOP формата : M=6, N=31
Идентификатор кодека : V_MPEG4/ISO/AVC
Продолжительность : 1 ч. 35 м.
Битрейт : 4840 Кбит/сек
Ширина : 1920 пикс.
Высота : 816 пикс.
Соотношение сторон : 2,450
Частота кадров : 24,000 кадр/сек
Цветовое пространство : YUV
Подвыборка цветности : 4:2:0
Битовая глубина : 8 бит
Тип развёртки : Прогрессивная
Бит/(Пиксели*Кадры) : 0.129
Размер потока : 3,14 Гбайт (72%)
Заголовок : ABBA The Movie 1977 BDRip 1080p
Библиотека кодирования : x264 core 114 r1900 60ef1f8
Аудио #1
Идентификатор : 2
Формат : AC-3
Формат/Информация : Audio Coding 3
Расширение режима : CM (complete main)
Идентификатор кодека : A_AC3
Продолжительность : 1 ч. 35 м.
Вид битрейта : Постоянный
Битрейт : 640 Кбит/сек
Каналы : 6 каналов
Расположение каналов : Front: L C R, Side: L R, LFE
Частота : 48,0 КГц
Битовая глубина : 16 бит
Метод сжатия : С потерями
Размер потока : 436 Мбайт (10%)
Заголовок : MVO
Язык : Russian
Аудио #2
Идентификатор : 3
Формат : AC-3
Формат/Информация : Audio Coding 3
Расширение режима : CM (complete main)
Идентификатор кодека : A_AC3
Продолжительность : 1 ч. 35 м.
Вид битрейта : Постоянный
Битрейт : 448 Кбит/сек
Каналы : 6 каналов
Расположение каналов : Front: L C R, Side: L R, LFE
Частота : 48,0 КГц
Битовая глубина : 16 бит
Метод сжатия : С потерями
Размер потока : 305 Мбайт (7%)
Заголовок : Gavrilov
Язык : Russian
Аудио #3
Идентификатор : 4
Формат : AC-3
Формат/Информация : Audio Coding 3
Расширение режима : CM (complete main)
Идентификатор кодека : A_AC3
Продолжительность : 1 ч. 35 м.
Вид битрейта : Постоянный
Битрейт : 640 Кбит/сек
Каналы : 6 каналов
Расположение каналов : Front: L C R, Side: L R, LFE
Частота : 48,0 КГц
Битовая глубина : 16 бит
Метод сжатия : С потерями
Размер потока : 436 Мбайт (10%)
Язык : English
Текст #1
Идентификатор : 5
Формат : VobSub
Режим смешивания : zlib
Идентификатор кодека : S_VOBSUB
Идентификатор кодека/Информация : The same subtitle format used on DVDs
Язык : Russian
Текст #2
Идентификатор : 6
Формат : VobSub
Режим смешивания : zlib
Идентификатор кодека : S_VOBSUB
Идентификатор кодека/Информация : The same subtitle format used on DVDs
Язык : English

Скриншоты




admin

Post 10-Nov-2017 23:44

[Quote]

Информация о фильме
Оригинальное название: Havana (Live The Latin American Music Awards)
Год выпуска: 2017
Жанр: Поп
Исполнитель: Camila Cabello
О клипе: Выступление Камилы на The Latin American Music Awards Трек войдет в дебютный сольный альбом исполнительницы, дата выхода которого пока не сообщается.
Продолжительность: 00:03:19
Перевод: Не требуется
Автор рипа: meloman67
Файл
Качество: HDTV 1080i
Видео: MPEG-4 AVC, 30.8 Mбит/с, 1920x1080
Звук: MP2, 2 ch, 384 Кбит/с

Скриншоты

 

Current time is: 26-May 08:28

All times are UTC + 3