Search found 4 matches

Author Message

admin

Post 20-May-2019 03:25

[Quote]

Информация о фильме
Название: Дискотека 80-х 2018 год (Полная версия). DVD-9.
Год выхода: 2018
Жанр: Disco
Режиссер: первый канал
В ролях: Томас Андерс, C.C. Catch, Юрий Антонов, Boney M ft. Liz Mitchell, "Кар-Мэн", Dschinghis Khan, Анжелика Варум, Дмитрий Маликов и др.
О фильме:
Главная дискотека страны состоялась уже в 17-й раз и, как и прежде, подарила зрителям невероятные визуальные эффекты, качественный звук и, конечно же, выступления самых любимых российских и зарубежных звезд диско на одной сцене. В этом году в "Олимпийском" выступили 17 исполнителей, в том числе Томас Андерс, C.C. Catch, Юрий Антонов, Boney M ft. Liz Mitchell, "Кар-Мэн", Dschinghis Khan, Анжелика Варум, Дмитрий Маликов.

Треклист


01. A'Cappella ExpreSSS - «Попурри»
02. Boney M - «Rasputin»
03. Boney M - «Daddy Cool»
04. Boney M - «Sunny»
05. Виктор Салтыков - «Белая ночь»
06. F.R.David - «Girl»
07. F.R.David - «Taxi»
08. F.R.David - «Words»
09. Дмитрий Маликов - «До завтра»
10. Gazebo - «Lunatic»
11. Gazebo - «I like Chopin»
12. Riccardo Fogli - «Malinconia»
13. Riccardo Fogli - «Alla Fine Di Un Lavoro»
14. Riccardo Fogli - «Storie di tutti i giorni»
15. Андрей Державин и группа «Сталкер» - Ночной город
16. Андрей Державин и группа «Сталкер» - «Не плачь, Алиса»
17. Secret Service - «The Dancer»
18. Secret Service - «Flash in the night»
19. Secret Service - «L.A.Goodbye»
20. Secret Service - «Ten O`Clock Postman»
21. Анжелика Варум - «Good bye, мой мальчик» (live)
22. Анжелика Варум - «Зимняя вишня» (live)
23. Земляне - «Попурри»
24. Чайф - «Никто не услышит» (live)
25. Чайф - «Аргентина-Ямайка 5:0» (live)
26. Чайф - «Оранжевое настроение» (live)
27. Чайф - «17 лет (live)
28. Savage - «Don`t Cry Tonight»
29. Savage - «Only You»
30. Savage - «Goodbye»
31. Кар-Мэн - «Бомбей-буги»
32. Кар-Мэн - «Сан-Франциско»
33. Кар-Мэн - «Париж»
34. C.C.Catch - «I Can Lose My Heart tonight» (live)
35. C.C.Catch - «Heaven and Hell» (live)
36. C.C.Catch - «Strangers by Night» (live)
37. Dschinghis Khan - «Dschinghis Khan»
38. Dschinghis Khan - «Moskau»
39. Юрий Антонов - «Золотая лестница»
40. Юрий Антонов - «Нет тебя прекрасней»
41. Юрий Антонов - «Не забывай»
42. Thomas Anders - «Brother Louie»
43. Thomas Anders - «Cheri Cheri Lady»
44. Thomas Anders - «Win the Race»
45. Thomas Anders - «You`re My Heart You`re My Soul»
Страна: Россия
Продолжительность: 03:35:42
Перевод: не требуется
Файл
Формат: DVD Video
Качество: DVD-9
Видео: 720x576, (16:9) PAL, 4996 Кбит/сек,25,000 кадр/сек
Звук : AC-3,192 Кбит/сек,2ch

Скриншоты меню

Скриншоты

admin

Post 20-Mar-2019 03:19

[Quote]

Название: Bad Boys Blue - Video collection от ALEXnROCK
Жанр: Disco, Pop
Год выпуска: 2018
Продолжительность: 02:32:58
Доп. информация
Полное собрание клипов группы, а так же выступления на различных тв шоу. Ремастеринг видео и звука. Да пребудет с нами качественная музыка!. Все лучшее для вас. ALEXnROCK
Формат: AVI
Качество: DVDRip
Видео кодек: XviD
Видео: 720x408, 720x536, 3500 Kbps
Аудио: Mp3 48000KHz, 2 ch, 320 Kbps

Треклист

00 Bad Boys Blue - Intro
01 Bad Boys Blue - You're A Woman
02 Bad Boys Blue - Pretty Young Girl
03 Bad Boys Blue - Love Really Hurts Without You
04 Bad Boys Blue - I Wanna Hear Your Heartbeat
05 Bad Boys Blue - Kisses And Tears
06 Bad Boys Blue - Come Back And Stay
07 Bad Boys Blue - Gimme Gimme Your Lovin (Little Lady)
08 Bad Boys Blue - Don't Walk Away Suzanne
09 Bad Boys Blue - Lovers In The Sand
10 Bad Boys Blue - A World Without You
11 Bad Boys Blue - A Train To Nowhere
12 Bad Boys Blue - Hungry For Love
13 Bad Boys Blue - How I Need You
14 Bad Boys Blue - Queen Of Hearts
15 Bad Boys Blue - Hold You In My Arms
16 Bad Boys Blue - You're A Woman '92 (Yekaterinburg 1996)
17 Bad Boys Blue - Anywhere
18 Bad Boys Blue - Save Your Love
19 Bad Boys Blue - Go Go
20 Bad Boys Blue - The Turbomegamix 98
21 Bad Boys Blue - You're A Woman 98
22 Bad Boys Blue - Still In Love
23 Bad Boys Blue - Come Back And Stay (Alex Twister Cut)
24 Bad Boys Blue - Lady In Black (Hitparade)
25 Bad Boys Blue - Jungle In My Heart (Hitparade)
26 Bad Boys Blue - Don't Walk Away Suzanne (Hitparade)
27 Bad Boys Blue - Hungry For Love (Hitparade)
28 Bad Boys Blue - You're A Woman (Peters Popshow)
29 Bad Boys Blue - Love Really Hurts Without You (Tele-Illustrierte)
30 Bad Boys Blue - Come Back And Stay (Funkausstellung Berlin)
31 Bad Boys Blue - I Wanna Hear Your Heartbeat (Hitparade)
32 Bad Boys Blue - A World Without You Michelle (Hitparade)
33 Bad Boys Blue - Pretty Young Girl (Peters Popshow)
34 Bad Boys Blue - A Love Like This (Landerjournal)
35 Bad Boys Blue - Lovers In The Sand (ZDF-Fernsehgarten)
36 Bad Boys Blue - Queen Of Hearts (Hitparade)
37 Bad Boys Blue - You're A Woman '98 (Babeta Show)
38 Bad Boys Blue - Lover On The Line (MDR)
39 Bad Boys Blue - Lady In Black (ZDF-Fernsehgarten)
40 Bad Boys Blue - You're A Woman (ZDF-Fernsehgarten)
41 Bad Boys Blue - Come Back And Stay (Sound Der 80er)
42 Bad Boys Blue - Come Back And Stay (MS Project Cut)

Скриншоты

admin

Post 09-Sep-2018 23:31

[Quote]

Название : АББА: фильм / ABBA: The Movie
Год выпуска: 1977
Производство: Австралия, Швеция / Polar Music International, Reg Grundy Productions Pty. Ltd.
Жанр: Документальный, Музыкальный
Продолжительность: 01:35:17
Перевод: Профессиональный (многоголосый закадровый)
Субтитры: Русские, Английские
Режиссер: Лассе Халлстром / Lasse Hallstrom
В ролях: Агнета Фельтскуг, Бенни Андерссон, Бьерн Ульвеус, Анни-Фрид Люнгстад , Роберт Хьюз, Том Оливер, Брюс Барри, Стиг Андерсон, Рей Маршалл, Фрэнсис Мэттьюс
О фильме: Фильм рассказывает об австралийских гастролях сверхпопулярной в свое время шведской группы "АББА". Незадачливый репортер и диск-жокей Хьюз, пытается взять интервью у музыкантов. Постановка красивая, динамичная, без провалов и пустот, умный монтаж, создающий впечатление документальности происходящего. Зритель узнает кое-что о жизни и методах их работы. Настоящий подарок для тех, кто до сих пор слушает эту талантливую музыку.
Файл
Контейнер: matroska
Продолжительность: 01:35:17
Качество: BDRip-AVC
Объем файла: 4.38 Гб
Видео: MPEG4 Video (H264) 1920x816 24.00fps 4840 Кбит/сек
Аудио №2: Dolby AC3 48000Hz 6ch [Russian, MVO (Audio 1) [Default]]
Аудио №3: Dolby AC3 48000Hz 6ch [Russian, Gavrilov (Audio 2)]
Аудио №4: Dolby AC3 48000Hz 6ch [English (Audio 3)]
Субтитры: ru, s_vobsub
Субтитры: en, s_vobsub

MediaInfo

Полное имя : D:АББА фильм ABBA The Movie (1977)ABBA_The_Movie_BDRip.mkv
Формат : Matroska
Размер файла : 4,38 Гбайт
Продолжительность : 1 ч. 35 м.
Общий поток : 6576 Кбит/сек
Дата кодирования : UTC 2012-02-12 17:04:05
Программа кодирования : mkvmerge v5.2.1 ('A Far Off Place') built on Jan 2 2012 23:21:10
Библиотека кодирования : libebml v1.2.3 + libmatroska v1.3.0
Видео
Идентификатор : 1
Формат : AVC
Формат/Информация : Advanced Video Codec
Профиль формата : High@L5.0
Параметр CABAC формата : Да
Параметр ReFrames формата : 14 кадров
Параметры GOP формата : M=6, N=31
Идентификатор кодека : V_MPEG4/ISO/AVC
Продолжительность : 1 ч. 35 м.
Битрейт : 4840 Кбит/сек
Ширина : 1920 пикс.
Высота : 816 пикс.
Соотношение сторон : 2,450
Частота кадров : 24,000 кадр/сек
Цветовое пространство : YUV
Подвыборка цветности : 4:2:0
Битовая глубина : 8 бит
Тип развёртки : Прогрессивная
Бит/(Пиксели*Кадры) : 0.129
Размер потока : 3,14 Гбайт (72%)
Заголовок : ABBA The Movie 1977 BDRip 1080p
Библиотека кодирования : x264 core 114 r1900 60ef1f8
Аудио #1
Идентификатор : 2
Формат : AC-3
Формат/Информация : Audio Coding 3
Расширение режима : CM (complete main)
Идентификатор кодека : A_AC3
Продолжительность : 1 ч. 35 м.
Вид битрейта : Постоянный
Битрейт : 640 Кбит/сек
Каналы : 6 каналов
Расположение каналов : Front: L C R, Side: L R, LFE
Частота : 48,0 КГц
Битовая глубина : 16 бит
Метод сжатия : С потерями
Размер потока : 436 Мбайт (10%)
Заголовок : MVO
Язык : Russian
Аудио #2
Идентификатор : 3
Формат : AC-3
Формат/Информация : Audio Coding 3
Расширение режима : CM (complete main)
Идентификатор кодека : A_AC3
Продолжительность : 1 ч. 35 м.
Вид битрейта : Постоянный
Битрейт : 448 Кбит/сек
Каналы : 6 каналов
Расположение каналов : Front: L C R, Side: L R, LFE
Частота : 48,0 КГц
Битовая глубина : 16 бит
Метод сжатия : С потерями
Размер потока : 305 Мбайт (7%)
Заголовок : Gavrilov
Язык : Russian
Аудио #3
Идентификатор : 4
Формат : AC-3
Формат/Информация : Audio Coding 3
Расширение режима : CM (complete main)
Идентификатор кодека : A_AC3
Продолжительность : 1 ч. 35 м.
Вид битрейта : Постоянный
Битрейт : 640 Кбит/сек
Каналы : 6 каналов
Расположение каналов : Front: L C R, Side: L R, LFE
Частота : 48,0 КГц
Битовая глубина : 16 бит
Метод сжатия : С потерями
Размер потока : 436 Мбайт (10%)
Язык : English
Текст #1
Идентификатор : 5
Формат : VobSub
Режим смешивания : zlib
Идентификатор кодека : S_VOBSUB
Идентификатор кодека/Информация : The same subtitle format used on DVDs
Язык : Russian
Текст #2
Идентификатор : 6
Формат : VobSub
Режим смешивания : zlib
Идентификатор кодека : S_VOBSUB
Идентификатор кодека/Информация : The same subtitle format used on DVDs
Язык : English

Скриншоты




admin

Post 10-Nov-2017 23:44

[Quote]

Информация о фильме
Оригинальное название: Havana (Live The Latin American Music Awards)
Год выпуска: 2017
Жанр: Поп
Исполнитель: Camila Cabello
О клипе: Выступление Камилы на The Latin American Music Awards Трек войдет в дебютный сольный альбом исполнительницы, дата выхода которого пока не сообщается.
Продолжительность: 00:03:19
Перевод: Не требуется
Автор рипа: meloman67
Файл
Качество: HDTV 1080i
Видео: MPEG-4 AVC, 30.8 Mбит/с, 1920x1080
Звук: MP2, 2 ch, 384 Кбит/с

Скриншоты

 

Current time is: 13-Dec 19:34

All times are UTC + 3