Search found 3 matches

Author Message

admin

Post 13-Jun-2019 20:33

[Quote]

Название: Концерт Felicita
Исполнитель: Аль Бано и Ромина Пауэр
Жанр: POP
Год выпуска: 2018
Продолжительность: 01:28:00
Описание: 25 октября самый знаменитый дуэт Италии, Аль Бано Карризи и Ромина Пауэр, отпраздновали 50-летие своего совместного творчества на сцене Государственного Кремлевского дворца!
Во время большого трехчасового концерта суперзвёзды мировой эстрады подготовили множество сюрпризов для российской публики. Помимо сольных выступлений, всех гостей Кремля ждали неожиданные дуэты с российскими артистами. Песни, любимые миллионами,
Доп.информация: В исходнике Кузьмича звук 5.1 идет с двумя каналами(на четырех каналах тишина), поэтому я удалил лишние каналы.
Отдельная благодарность пользователю kuzmichm2196 за исходник.
Формат: MKV
Качество: HDTVRip-HEVC 1080p
Видео кодек: H.265
Аудио кодек: AC-3
Видео: HEVC/H.265, 1920x1080, ~6 000 Kbps, 25fps
Аудио: AC-3, 2 ch, 384 Kbps, 48000Hz

Треклист:

01. Аль Бано и Ромина Пауэр - «Ci Sara»
02. Аль Бано и Ромина Пауэр - «Sempre Sempre»
03. Аль Бано - «Ave Maria»
04. Аль Бано - «O Sole Mio»
05. Аль Бано - «Funiculi, Funicula»
06. Аль Бано - «Volare»
07. Аль Бано / Зара - «La Nostra Serenata»
08. Аль Бано / Анастасия Спиридонова - «Per Chi»
09. Аль Бано / Диана Гурцкая - «Bambini»
10. Аль Бано / Жасмин - «Abbandonati»
11. Аль Бано / Вероника Агапова - «Quando Un Amore Se Ne Va»
12. Аль Бано / Наталья Подольская - «Meditando»
13. Аль Бано / Юлия Началова - «Atto D`Amore»
14. Аль Бано / Алсу - «Tu Soltanto Tu»
15. Аль Бано / Анжелика Варум - «Bianco Natale»
16. Аль Бано - «Azzurro»
17. Анастасия Спиридонова / Юлия Началова / Аль Бано / Вероника Агапова / Наталья Подольская / Зара - «Va Pensiero»
18. Ромина Пауэр / Детский музыкальный театр Домисолька - «Il Ballo Del Qua Qua»
19. Аль Бано и Ромина Пауэр - «Prima Notte D`Amore»
20. Аль Бано и Ромина Пауэр - «Liberta»
21. Аль Бано и Ромина Пауэр - «Sharazan»
22. Аль Бано и Ромина Пауэр - «Felicita»

MedaInfo

Al_Bano_2019.mkv
Format : Matroska
Format version : Version 4
File size : 3.95 GiB
Duration : 1 h 28 min
Overall bit rate : 6 420 kb/s
Movie name : Al_Bano_2019
Encoded date : UTC 2019-06-13 08:17:54
Writing application : mkvmerge v32.0.0 ('Astral Progressions') 64-bit
Writing library : libebml v1.3.7 + libmatroska v1.5.0 / Lavf58.20.100
Video
ID : 1
Format : HEVC
Format/Info : High Efficiency Video Coding
Format profile : Main@L4@Main
Codec ID : V_MPEGH/ISO/HEVC
Duration : 1 h 28 min
Bit rate : 6 034 kb/s
Width : 1 920 pixels
Height : 1 080 pixels
Display aspect ratio : 16:9
Frame rate mode : Constant
Frame rate : 25.000 FPS
Color space : YUV
Chroma subsampling : 4:2:0
Bit depth : 8 bits
Bits/(Pixel*Frame) : 0.116
Stream size : 3.71 GiB (94%)
Writing library : x265 2.9:[Linux][GCC 7.3.0][64 bit] 8bit+10bit+12bit
Encoding settings : cpuid=1064959 / frame-threads=2 / wpp / no-pmode / no-pme / no-psnr / no-ssim / log-level=2 / input-csp=1 / input-res=1920x1080 / interlace=0 / total-frames=0 / level-idc=0 / high-tier=1 / uhd-bd=0 / ref=2 / no-allow-non-conformance / no-repeat-headers / annexb / no-aud / no-hrd / info / hash=0 / no-temporal-layers / open-gop / min-keyint=25 / keyint=250 / gop-lookahead=0 / bframes=4 / b-adapt=0 / b-pyramid / bframe-bias=0 / rc-lookahead=15 / lookahead-slices=6 / scenecut=40 / radl=0 / no-intra-refresh / ctu=64 / min-cu-size=8 / no-rect / no-amp / max-tu-size=32 / tu-inter-depth=1 / tu-intra-depth=1 / limit-tu=0 / rdoq-level=0 / dynamic-rd=0,00 / no-ssim-rd / signhide / no-tskip / nr-intra=0 / nr-inter=0 / no-constrained-intra / strong-intra-smoothing / max-merge=2 / limit-refs=3 / no-limit-modes / me=1 / subme=1 / merange=57 / temporal-mvp / weightp / no-weightb / no-analyze-src-pics / deblock=0:0 / sao / no-sao-non-deblock / rd=2 / early-skip / rskip / fast-intra / no-tskip-fast / no-cu-lossless / no-b-intra / no-splitrd-skip / rdpenalty=0 / psy-rd=2,00 / psy-rdoq=0,00 / no-rd-refine / no-lossless / cbqpoffs=0 / crqpoffs=0 / rc=abr / bitrate=6000 / qcomp=0,60 / qpstep=4 / stats-write=0 / stats-read=0 / ipratio=1,40 / pbratio=1,30 / aq-mode=1 / aq-strength=1,00 / cutree / zone-count=0 / no-strict-cbr / qg-size=32 / no-rc-grain / qpmax=69 / qpmin=0 / no-const-vbv / sar=1 / overscan=0 / videoformat=5 / range=0 / colorprim=1 / transfer=1 / colormatrix=1 / chromaloc=0 / display-window=0 / max-cll=0,0 / min-luma=0 / max-luma=255 / log2-max-poc-lsb=8 / vui-timing-info / vui-hrd-info / slices=1 / no-opt-qp-pps / no-opt-ref-list-length-pps / no-multi-pass-opt-rps / scenecut-bias=0,05 / no-opt-cu-delta-qp / no-aq-motion / no-hdr / no-hdr-opt / no-dhdr10-opt / no-idr-recovery-sei / analysis-reuse-level=5 / scale-factor=0 / refine-intra=0 / refine-inter=0 / refine-mv=0 / no-limit-sao / ctu-info=0 / no-lowpass-dct / refine-mv-type=0 / copy-pic=1 / max-ausize-factor=1,0 / no-dynamic-refine / no-single-sei
Default : Yes
Forced : No
Color range : Limited
Color primaries : BT.709
Transfer characteristics : BT.709
Matrix coefficients : BT.709
Audio
ID : 2
Format : AC-3
Format/Info : Audio Coding 3
Commercial name : Dolby Digital
Codec ID : A_AC3
Duration : 1 h 28 min
Bit rate mode : Constant
Bit rate : 384 kb/s
Channel(s) : 2 channels
Channel layout : L R
Sampling rate : 48.0 kHz
Frame rate : 31.250 FPS (1536 SPF)
Bit depth : 16 bits
Compression mode : Lossy
Stream size : 242 MiB (6%)
Service kind : Complete Main
Default : Yes
Forced : No

Скриншоты

admin

Post 20-May-2019 05:23

[Quote]

Евровидение 2019 - Финал / Eurovision 2019 - Final / Россия 1 HD
Дата/Год выпуска: 18 мая 2019
Страна/Место проведения: Tel Aviv, Israel
Жанр: Pop
Продолжительность: 03:58:00
Описание: Грандиозный финал 64‑й конкурса песни «Евровидение». Во финале, который состоялся 18 мая, свои номера показали 26 стран-участниц.
Комментировали: Дмитрий Губерниев и Ольга Шелест
Автор рипа/записи: ilya2129
Качество: HDTV
Разрешение видео/развертка: 1080i
Контейнер: TS
Видео кодек: H.264
Аудио кодек: MPEG Audio
Видео: H264, 1920x1080, 12900kbps, 25fps
Аудио: MPEG Audio, 192kbps, 48000kHz, 2ch--

Треклист

01. Мальта. Michela — Chameleon
02. Албания. Йонида Маличи — Ktheju tokës
03. Чехия, Lake Malawi — Friend of a Friend
04. Германия. S!sters — Sister
05. Россия. Сергей Лазарев — Scream
06. Дания. Леонора — Love Is Forever
07. Сан-Марино. Серхат — Say Na Na Na
08. Северная Македония. Тамара Тодевска — Proud
09. Швеция. Йон Лундвик — Too Late For Love
10. Словения. Зала Краль и Гашпер Шантл — Sebi
11. Кипр. Tamta — Replay
12. Нидерланды. Дункан Лоуренс — Arcade
13. Греция. Катерина Дуска — Better Love
14. Израиль. Коби Марими — Home
15. Норвегия. KeiiNO — Spirit in the Sky
16. Великобритания. Майкл Райс — Bigger Than Us
17. Исландия. Hatari — Hatrið mun sigra
18. Эстония. Виктор Крон — Storm
19. Беларусь, ZENA — Like It
20. Азербайджан. Чингиз — Truth
21. Франция. Билал Ассани — Roi
22. Италия. Mahmood — Soldi
23. Сербия. Невена Божович — Kruna
24. Швейцария. Лука Хэнни — She Got Me
25. Австралия. Кейт Миллер-Хайдке — Zero Gravity
26. Испания. Miki — La Venda
Мадонна - "Future" feat. Quavo / "Like a Prayer"
Кончита Вурст - "Heroes"
Монс Зелмерлев - "Fuego"
Элени Фурейра - "Dancing Lasha Tumbai"
Верка Сердючка - "Toy"
Гали Атари - "Hallelujah"
Нетта Барзилай - "Nana Banana"
Дана International - "Diva" / "Tel Aviv"
Надав Гедж - "Golden Boy"

Отчёт MediaInfo / BDInfo

Общее
Идентификатор : 1 (0x1)
Полное имя : G:Eurovision 2019Eurovision 2019 - Финал - Россия 1 HD.ts
Формат : MPEG-TS
Размер файла : 23,0 Гбайт
Продолжительность : 3 ч. 58 м.
Режим общего битрейта : Переменный
Общий поток : 13,8 Мбит/сек
Видео
Идентификатор : 1311 (0x51F)
Идентификатор меню : 1 (0x1)
Формат : AVC
Формат/Информация : Advanced Video Codec
Профиль формата : Main@L4
Настройки формата : CABAC / 3 Ref Frames
Параметр CABAC формата : Да
Параметр RefFrames формата : 3 кадра
Параметр GOP формата : M=4, N=32
Идентификатор кодека : 27
Продолжительность : 3 ч. 58 м.
Битрейт : 12,9 Мбит/сек
Ширина : 1920 пикселей
Высота : 1080 пикселей
Соотношение сторон : 16:9
Частота кадров : 25,000 кадров/сек
Цветовое пространство : YUV
Субдискретизация насыщенности : 4:2:0
Битовая глубина : 8 бит
Тип развёртки : Чересстрочная
Метод сохранения типа развёртки : Раздельные поля
Порядок развёртки : Верхнее поле первое
Бит/(Пиксели*Кадры) : 0.249
Размер потока : 21,5 Гбайт (94%)
Цветовой диапазон : Limited
Основные цвета : BT.709
Характеристики трансфера : BT.709
Коэффициенты матрицы : BT.709
Аудио
Идентификатор : 1312 (0x520)
Идентификатор меню : 1 (0x1)
Формат : MPEG Audio
Версия формата : Version 1
Профиль формата : Layer 2
Идентификатор кодека : 3
Продолжительность : 3 ч. 58 м.
Вид битрейта : Постоянный
Битрейт : 192 Кбит/сек
Каналы : 2 канала
Частота : 48,0 КГц
Частота кадров : 41,667 кадра/сек (1152 SPF)
Метод сжатия : С потерями
Задержка видео : -120 мс.
Размер потока : 327 Мбайт (1%)
Язык : Russian

Скриншоты

--

admin

Post 06-Dec-2018 22:43

[Quote]

Информация о фильме
Оригинальное название: Moonwalker
Год выпуска: 1988
Жанр: Поп, музыка
Выпущено: Warner Bros
Режиссер: Джерри Крамер, Джим Блэшфилд, Колин Чилверс
Исполнитель: Майкл Джексон, Джо Пеши, Шон Леннон, Келли Паркер, Брэндон Квинтин Адамс, Джефф Эдкинс, Патрик Алан, Данте Баско, Дион Баско, Дженнифер Баттен
О фильме: Смесь видеозаписей живых концертов Майкла Джексона и ряда художественных сцен с ним, как главным героем. Сюда вошли некоторые из лучших видеоклипов Майкла, отснятых во время мирового турне с альбомом «Bad», а также видео «Smooth Criminal» с сюжетной линией в стиле «фэнтэзи». Вся история рассказана посредством музыкитанца и полна спецэффектов. "Лунная походка" - это настоящее сокровище для коллекционеров, здесь смешаны самые знаменитые видеоклипы с малоизвестными клипами времен начала его карьеры в группе "Jackson 5", также "живой" концерт и выступления звезды на церемониях Грэмми. Также в диск включен приключенческий фильм, сценарий которого был придуман самим Майклом Джексоном, он приоткрывает завесу над полетом творческой фантазии гения поп-музыки. Яркие эпизодические роли сыграли такие знаменитости, как Джо Пеши, Мик Джаггер, Шон Леннон, Элизабет Тейлор и другие!

Файл
Качество: BDRip (1080p)
Видео: MPEG-4 AVC, 13.1 Мбит/с, 1920x1080, 23,976 кадра/сек
Аудио: Русский (АС3, 6 ch, 640 Кбит/с), (DTS, 6 ch, 755 Кбит/с), английский (АС3, 6 ch, 640 Кбит/с), (DTS, 6 ch, 1510 Кбит/с)
Продолжительность: 01:32:50
Перевод: Профессиональный (многоголосый закадровый)

Скриншоты

 

Current time is: 06-Dec 15:44

All times are UTC + 3