Search found 39 matches

Author Message

admin

Post 13-May-2022 12:36

[Quote]

Название: Collection
Исполнитель: Haddaway
Год: 1992 - 1999
Жанр: Eurodance, Pop
Продолжительность: 04:03:25
Формат/Кодек: FLAC
Тип рипа: Image+.cue
Битрейт аудио: Lossless
Носитель: CD

Трек-лист

1993 - The Album
01. What Is Love (4:31)
02. Shout (4:36)
03. Yeah (3:43)
04. Rock My Heart (4:20)
05. When The Feeling's Gone (4:17)
06. What Is Love (Rapino-Brothers-Mix) (3:50)
07. Life (4:17)
08. Mama's House (4:05)
09. Come Back (Love Has Got A Hold On Me) (4:01)
10. Sing About Love (4:43)
11. I Miss You (4:15)
12. Life (Album Re-Mix) (4:45)
1995 - The Drive
01. Fly Away (4:06)
02. I Know (4:31)
03. Breakaway (4:42)
04. Lover Be Thy Name (3:50)
05. Waiting For A Better World (4:24)
06. Give It Up (4:17)
07. Catch A Fire (4:13)
08. Desert Prayer (5:54)
09. The First Cut Is The Deepest (4:24)
10. Baby Don't Go (3:54)
11. Freedom Is (4:17)
12. Another Day Without You (4:43)
1999 - All The Best
01. What Is Love (Original 7'' Mix) (4:30)
02. Life (Radio Edit) (4:16)
03. I Miss You (Radio Edit) (3:39)
04. Rock My Heart (Radio Mix) (4:10)
05. Mama's House (4:04)
06. Fly Away (Radio Edit) (4:05)
07. Stir It Up (4:26)
08. Who Do You Love (Matrix Radio Edit) (3:24)
09. Catch A Fire (Radio Edit) (4:15)
10. What About Me (Radio Version) (4:07)
11. You're Taking My Heart (DJ Stevie Steve's Radio Edit) (3:23)
12. Lover Be Thy Name (3:49)
13. Come Back (Love Has Got A Hold On Me) (3:59)
14. Shout (Album Mix) (4:36)
15. What Is Love (Todd Terry's TNT Radio Edit '99) (3:11)
16. What Is Love (Mosquito Headz Millennium 7'' Remix) (3:47)
17. In The Mix (8:05)
1992 - What Is Love (CDM)
01. What Is Love (7'' Mix) (4:31)
02. What Is Love (12'' Mix) (6:42)
03. What Is Love (Club Mix) (5:02)
04. Sing About Love (4:41)
1993 - Life (CDM)
01. Life (Radio Edit) (4:18)
02. Life (12'' Mix) (5:54)
03. Life (Club Mix) (6:13)
1995 - Fly Away (CDM)
01. Fly Away (Radio Edit) (4:07)
02. Fly Away (Extended Version) (6:46)
03. Fly Away (Hyper Space Mix) (6:25)
04. Fly Away (Maxi-Flight-Remix) (5:28)
05. Fly Away (Development Corporation Mix) (6:50)

admin

Post 25-Mar-2022 04:07

[Quote]

Название: The Very Best Of [25th Anniversary Edition]
Исполнитель: 2 Brothers On The 4th Floor
Год: 2016
Жанр: Euro-House, Euro-Dance
Страна: Netherlands
Продолжительность: 02:33:35
Формат/Кодек: FLAC
Тип рипа: Tracks
Битрейт аудио: Lossless
Носитель: WEB

Трек-лист

CD1: Radio Hits
01. Can't Help Myself (Extended Intro Version) (4:30)
02. Turn Da Music Up (Radio Version) (4:38)
03. Never Alone (Euro Radio Mix) (4:12)
04. Dreams (Will Come Alive) (4:23)
05. Let Me Be Free (3:26)
06. Fly (Through The Starry Night) (3:28)
07. Come Take My Hand (4:04)
08. Fairytailes (3:30)
09. Mirror Of Love (3:29)
10. There's A Key (3:56)
11. One Day (3:15)
12. I'm Thinkin' Of U (3:27)
13. Do You Know? (3:43)
14. The Sun Will Be Shining (3:15)
15. Heaven Is Here (3:33)
16. Living In Cyberspace (3:47)
17. Wonderful Feeling (4:00)
18. Stand Up And Live (Dj Jose vs. G-Spot Remix) (3:32)
19. Shine Like A Star (Previously Unreleased) (3:37)
20. Dreams (Will Come Alive) (Fragiel Acoustic Version) (3:49)
CD2: Remixes
01. Dreams 2016 (Will Come Alive) (Louis Bailar & Dimitris Kops Remix) (3:07)
02. Turn Da Music Up (Dj Marcello & Rutger 'Rutti' Kroese Remix) (7:25)
03. Dreams (Will Come Alive)(Twenty 4 Seven Remix) (5:48)
04. Let Me Be Free (Beats 'R' Us Mix) (4:39)
05. Fly (Through The Starry Night) (Capella Remix) (5:45)
06. Come Take My Hand (Lick Mix) (4:40)
07. Fairytales (Charly Lownoise & Mental Theo Remix) (4:07)
08. I'm Thinking Of U (Ferry Corsten Remix) (4:28)
09. Do You Know (Where You'Re Going To) (Ferry Corsten Remix) (4:35)
10. The Sun Will Be Shining (Ferry Cortsten Remix) (5:11)
11. Come Take My Hand (Cooly D's Jungle Mix) (5:27)
12. Living In Cyberspace (John Van Dongen And Ron Van Den Beuken Remix) (4:47)
13. Wonderful Feeling (Sunclub Remix) (5:05)
14. Euro Megamix (Mixed By Arjan Rietvink) (3:44)
15. Happy Hardcore Megamix (Mixed By Tim Hoppema) (4:28)
16. Never Alone 2016 (Freestyle Maniacs HDM Remix) (4:44)

DRM + Лог проверки качества
foobar2000 1.5.1 / Dynamic Range Meter 1.1.1
--------------------------------------------------------------------------------
Analyzed: 2 Brothers on the 4th Floor / The Very Best of 2 Brothers on the 4th Floor (25th Anniversary Edition)
--------------------------------------------------------------------------------
DR Peak RMS Duration Track
--------------------------------------------------------------------------------
DR8 -0.30 dB -9.88 dB 4:30 01-Can't Help Myself
DR8 -0.30 dB -9.64 dB 4:38 02-Turn Da Music Up
DR7 -0.30 dB -8.49 dB 4:12 03-Never Alone
DR8 -0.30 dB -9.40 dB 4:23 04-Dreams (Will Come Alive)
DR8 -0.30 dB -9.47 dB 3:26 05-Let Me Be Free
DR7 -0.30 dB -9.43 dB 3:28 06-Fly
DR7 -0.30 dB -9.46 dB 4:04 07-Come Take My Hand
DR7 -0.30 dB -9.67 dB 3:30 08-Fairytales
DR7 -0.30 dB -10.15 dB 3:29 09-Mirror Of Love
DR8 -0.30 dB -10.16 dB 3:56 10-There's A Key (Radio Version)
DR10 -0.30 dB -11.45 dB 3:15 11-One Day (Radio Version)
DR7 -0.30 dB -8.29 dB 3:27 12-I'm Thinkin' Of U
DR9 -0.30 dB -10.65 dB 3:43 13-Do You Know? (Radio Version)
DR7 -0.30 dB -9.59 dB 3:15 14-The Sun Will Be Shining (Radio Version)
DR5 -0.30 dB -8.16 dB 3:33 15-Heaven Is Here (Radio Version)
DR8 -0.30 dB -8.70 dB 3:47 16-Living In Cyberspace (Radio Version)
DR7 -0.30 dB -8.59 dB 4:00 17-Wonderful Feeling (Radio Version)
DR7 -0.30 dB -8.69 dB 3:32 18-Stand Up And Live (DJ José vs. G-Spott Remix)
DR8 -0.30 dB -9.49 dB 3:37 19-Shine Like A Star
DR10 -0.30 dB -13.00 dB 3:49 20-Dreams (Fragiel Acoustic Version)
DR6 -1.40 dB -8.36 dB 3:07 21-Dreams 2016 (Louis Bailar & Dimitris Kops Remix)
DR7 -0.10 dB -8.19 dB 7:25 22-Turn Da Music Up (DJ Marcello & Rutger ‘Rutti’ Kroese Remix)
DR8 -0.10 dB -9.09 dB 5:48 23-Dreams (Will Come Alive) (Twenty 4 Seven Trance Mix)
DR8 -0.10 dB -8.89 dB 4:39 24-Let Me Be Free (Beats 'R' Us Mix)
DR7 -0.10 dB -8.55 dB 5:45 25-Fly (C.C.Q.T. Radio Edit)
DR8 -0.10 dB -10.01 dB 4:40 26-Come Take My Hand (Lick Mix)
DR7 -0.10 dB -9.18 dB 4:07 27-Fairytales (Charly Lownoise & Mental Theo Rave Edit)
DR7 -0.10 dB -8.44 dB 4:28 28-I'm Thinkin' Of U (Dance Therapy Clubmix)
DR8 -0.10 dB -9.27 dB 4:35 29-Where You're Going To? (Dance Therapy Clubmix)
DR7 -0.10 dB -8.52 dB 5:11 30-The Sun Will Be Shining (Dance Therapy Clubmix)
DR8 -0.10 dB -10.07 dB 5:27 31-Come Take My Hand (Cooly's Jungle Mix)
DR7 -0.10 dB -8.67 dB 4:47 32-Living In Cyberspace (J&R Remix)
DR8 -0.10 dB -9.39 dB 5:05 33-Wonderful Feeling (Sunclub Mix)
DR7 -0.10 dB -8.37 dB 3:44 34-Euro Megamix
DR7 -0.10 dB -9.36 dB 4:28 35-Happy Hardcore Megamix
DR7 0.00 dB -11.21 dB 4:45 36-Never Alone 2016 (Freestyle Maniacs HDM Remix)
--------------------------------------------------------------------------------
Number of tracks: 36
Official DR value: DR8
Samplerate: 44100 Hz
Channels: 2
Bits per sample: 16
Bitrate: 1005 kbps
Codec: FLAC
================================================================================
CUE Corrector v. 8.3.6 / b. 964 (Feb. 13, 2020)
————————————————————————————————————————————————————————————————————————
2 Brothers on the 4th Floor / 25th Anniversary The Very Best of 2
Folder: 2 Brothers on the 4th Floor - 25th Anniversary The Very Best of 2
Audio files:
01 - Can't Help Myself.flac [04:29.800; FLAC • 961 kbps • 16 bit 44100 Hz • stereo; 30,92 MB (32 421 725 B)]
02 - Turn Da Music Up.flac [04:37.947; FLAC • 996 kbps • 16 bit 44100 Hz • stereo; 33,00 MB (34 606 312 B)]
03 - Never Alone.flac [04:12.080; FLAC • 1063 kbps • 16 bit 44100 Hz • stereo; 31,96 MB (33 512 279 B)]
04 - Dreams (Will Come Alive).flac [04:23.173; FLAC • 1014 kbps • 16 bit 44100 Hz • stereo; 31,84 MB (33 385 097 B)]
05 - Let Me Be Free.flac [03:26.453; FLAC • 1041 kbps • 16 bit 44100 Hz • stereo; 25,62 MB (26 865 835 B)]
06 - Fly.flac [03:28.240; FLAC • 1029 kbps • 16 bit 44100 Hz • stereo; 25,56 MB (26 799 089 B)]
07 - Come Take My Hand.flac [04:03.573; FLAC • 1036 kbps • 16 bit 44100 Hz • stereo; 30,11 MB (31 567 473 B)]
08 - Fairytales.flac [03:30.147; FLAC • 1059 kbps • 16 bit 44100 Hz • stereo; 26,55 MB (27 840 106 B)]
09 - Mirror Of Love.flac [03:29.413; FLAC • 1039 kbps • 16 bit 44100 Hz • stereo; 25,96 MB (27 221 744 B)]
10 - There's A Key (Radio Version).flac [03:56.467; FLAC • 1026 kbps • 16 bit 44100 Hz • stereo; 28,95 MB (30 352 008 B)]
11 - One Day (Radio Version).flac [03:14.893; FLAC • 972 kbps • 16 bit 44100 Hz • stereo; 22,59 MB (23 687 896 B)]
12 - I'm Thinkin' Of U.flac [03:26.707; FLAC • 1050 kbps • 16 bit 44100 Hz • stereo; 25,87 MB (27 131 409 B)]
13 - Do You Know (Radio Version).flac [03:42.800; FLAC • 926 kbps • 16 bit 44100 Hz • stereo; 24,60 MB (25 794 987 B)]
14 - The Sun Will Be Shining (Radio Version).flac [03:15.387; FLAC • 1036 kbps • 16 bit 44100 Hz • stereo; 24,14 MB (25 315 591 B)]
15 - Heaven Is Here (Radio Version).flac [03:33.040; FLAC • 983 kbps • 16 bit 44100 Hz • stereo; 24,96 MB (26 177 620 B)]
16 - Living In Cyberspace (Radio Version).flac [03:47.107; FLAC • 995 kbps • 16 bit 44100 Hz • stereo; 26,95 MB (28 257 465 B)]
17 - Wonderful Feeling (Radio Version).flac [03:59.987; FLAC • 1010 kbps • 16 bit 44100 Hz • stereo; 28,90 MB (30 307 740 B)]
18 - Stand Up And Live (DJ José vs. G-Spott Remix).flac [03:32.093; FLAC • 1063 kbps • 16 bit 44100 Hz • stereo; 26,88 MB (28 183 659 B)]
19 - Shine Like A Star.flac [03:37.080; FLAC • 1050 kbps • 16 bit 44100 Hz • stereo; 27,19 MB (28 514 019 B)]
20 - Dreams (Fragiel Acoustic Version).flac [03:49.293; FLAC • 930 kbps • 16 bit 44100 Hz • stereo; 25,44 MB (26 678 704 B)]
21 - Dreams 2016 (Louis Bailar & Dimitris Kops Remix).flac [03:06.840; FLAC • 1066 kbps • 16 bit 44100 Hz • stereo; 23,76 MB (24 915 366 B)]
22 - Turn Da Music Up (DJ Marcello & Rutger ‘Rutti’ Kroese Remix).flac [07:25.227; FLAC • 1009 kbps • 16 bit 44100 Hz • stereo; 53,60 MB (56 199 416 B)]
23 - Dreams (Will Come Alive) (Twenty 4 Seven Trance Mix).flac [05:48.040; FLAC • 1053 kbps • 16 bit 44100 Hz • stereo; 43,70 MB (45 819 270 B)]
24 - Let Me Be Free (Beats 'R' Us Mix).flac [04:39.480; FLAC • 1076 kbps • 16 bit 44100 Hz • stereo; 35,86 MB (37 606 045 B)]
25 - Fly (C.C.Q.T. Radio Edit).flac [05:44.827; FLAC • 1057 kbps • 16 bit 44100 Hz • stereo; 43,48 MB (45 592 927 B)]
26 - Come Take My Hand (Lick Mix).flac [04:39.667; FLAC • 896 kbps • 16 bit 44100 Hz • stereo; 29,90 MB (31 353 073 B)]
27 - Fairytales (Charly Lownoise & Mental Theo Rave Edit).flac [04:06.973; FLAC • 1096 kbps • 16 bit 44100 Hz • stereo; 32,27 MB (33 839 669 B)]
28 - I'm Thinkin' Of U (Dance Therapy Clubmix).flac [04:28.133; FLAC • 992 kbps • 16 bit 44100 Hz • stereo; 31,71 MB (33 253 507 B)]
29 - Where You're Going To (Dance Therapy Clubmix).flac [04:35.440; FLAC • 955 kbps • 16 bit 44100 Hz • stereo; 31,38 MB (32 902 941 B)]
30 - The Sun Will Be Shining (Dance Therapy Clubmix).flac [05:10.933; FLAC • 1056 kbps • 16 bit 44100 Hz • stereo; 39,16 MB (41 057 439 B)]
31 - Come Take My Hand (Cooly's Jungle Mix).flac [05:27.280; FLAC • 999 kbps • 16 bit 44100 Hz • stereo; 38,99 MB (40 879 593 B)]
32 - Living In Cyberspace (J&R Remix).flac [04:46.987; FLAC • 973 kbps • 16 bit 44100 Hz • stereo; 33,29 MB (34 911 174 B)]
33 - Wonderful Feeling (Sunclub Mix).flac [05:04.573; FLAC • 921 kbps • 16 bit 44100 Hz • stereo; 33,45 MB (35 079 597 B)]
34 - Euro Megamix.flac [03:44.453; FLAC • 1084 kbps • 16 bit 44100 Hz • stereo; 29,03 MB (30 435 874 B)]
35 - Happy Hardcore Megamix.flac [04:28.173; FLAC • 1091 kbps • 16 bit 44100 Hz • stereo; 34,90 MB (36 599 201 B)]
36 - Never Alone 2016 (Freestyle Maniacs HDM Remix).flac [04:45.427; FLAC • 1008 kbps • 16 bit 44100 Hz • stereo; 34,32 MB (35 987 217 B)]
Accuracy: -m8
File 01 - Can't Help Myself - 100% CDDA
File 02 - Turn Da Music Up - 100% CDDA
File 03 - Never Alone - 100% CDDA
File 04 - Dreams (Will Come Alive) - 99% CDDA
File 05 - Let Me Be Free - 100% CDDA
File 06 - Fly - 100% CDDA
File 07 - Come Take My Hand - 100% CDDA
File 08 - Fairytales - 100% CDDA
File 09 - Mirror Of Love - 100% CDDA
File 10 - There's A Key (Radio Version) - 100% CDDA
File 11 - One Day (Radio Version) - 100% CDDA
File 12 - I'm Thinkin' Of U - 99% CDDA
File 13 - Do You Know (Radio Version) - 100% CDDA
File 14 - The Sun Will Be Shining (Radio Version) - 99% CDDA
File 15 - Heaven Is Here (Radio Version) - 100% CDDA
File 16 - Living In Cyberspace (Radio Version) - 100% CDDA
File 17 - Wonderful Feeling (Radio Version) - 100% CDDA
File 18 - Stand Up And Live (DJ José vs. G-Spott Remix) - 100% CDDA
File 19 - Shine Like A Star - 100% CDDA
File 20 - Dreams (Fragiel Acoustic Version) - 100% CDDA
File 21 - Dreams 2016 (Louis Bailar & Dimitris Kops Remix) - 100% CDDA
File 22 - Turn Da Music Up (DJ Marcello & Rutger ‘Rutti’ Kroese Remix) - 99% CDDA
File 23 - Dreams (Will Come Alive) (Twenty 4 Seven Trance Mix) - 100% CDDA
File 24 - Let Me Be Free (Beats 'R' Us Mix) - 100% CDDA
File 25 - Fly (C.C.Q.T. Radio Edit) - 100% CDDA
File 26 - Come Take My Hand (Lick Mix) - 99% CDDA
File 27 - Fairytales (Charly Lownoise & Mental Theo Rave Edit) - 100% CDDA
File 28 - I'm Thinkin' Of U (Dance Therapy Clubmix) - 99% CDDA
File 29 - Where You're Going To (Dance Therapy Clubmix) - 99% CDDA
File 30 - The Sun Will Be Shining (Dance Therapy Clubmix) - 100% CDDA
File 31 - Come Take My Hand (Cooly's Jungle Mix) - 100% CDDA
File 32 - Living In Cyberspace (J&R Remix) - 43% CDDA
File 33 - Wonderful Feeling (Sunclub Mix) - 100% CDDA
File 34 - Euro Megamix - 100% CDDA
File 35 - Happy Hardcore Megamix - 100% CDDA
File 36 - Never Alone 2016 (Freestyle Maniacs HDM Remix) - 99% CDDA
————— Summary: —————
These tracks looks like CDDA with probability 100%.
————————————————————————————————————————————————————————————————————————
ANALYZER:
auCDtect: CD records authenticity detector, version 0.8.2
Copyright (c) 2004 Oleg Berngardt. All rights reserved.
Copyright (c) 2004 Alexander Djourik. All rights reserved.
Time elapsed: 32.3 s
Log created at July 08, 2021 17:59:42
=== BC14D23F6CE19C30837B43BA1C2103CE582DF3C72ABA23811BFFA045935DE2FB ===

admin

Post 23-Mar-2022 04:49

[Quote]

Название: S.O.S.
Исполнитель: La Bouche
Год: 1998
Жанр: Euro-House, Euro-Dance
Страна: Germany
Продолжительность: 00:56:08
Формат/Кодек: FLAC
Тип рипа: Image+.cue
Битрейт аудио: Lossless
Носитель: CD

Трек-лист

01. You Won't Forget Me (4:02)
02. Unexpected Lovers (4:10)
03. SOS (3:50)
04. A Moment Of Love (4:27)
05. Whatever You Want (4:06)
06. I Can't Stand The Rain (3:21)
07. On A Night Like This (3:24)
08. Bolingo (4:33)
09. Body & Soul (4:44)
10. Say You'll Be Mine (4:00)
11. Don't Let The Rain (3:35)
12. Sweet Little Persuader (3:56)
13. Say It With Love (3:44)
14. You Won't Forget Me (Original Version) (4:16)

admin

Post 23-Mar-2022 04:48

[Quote]

Название: Sweet Dreams
Исполнитель: La Bouche
Год: 1995/2021
Страна-производитель: Czech Republic
Страна исполнителя: Germany
Аудио кодек: WavPack
Тип рипа: Image+.cue
Жанр: Euro-House, Euro-Dance
Разрядность: 32 Bit/384 kHz
Продолжительность: 00:46:38
Код класса состояния винила: Mint
Устройство воспроизведения: Yamaha GT-2000 + YOP-1 + YA-39 + AT665
Головка звукоснимателя: MC Ortofon Cadenza Red (Modified)
Предварительный усилитель: Audio Note L3 V2 Phono Signature
АЦП: RME ADI-2 PRO FS R BE
Программа-оцифровщик: Sound Forge Pro 15
Обработка: Ручное удаление щелчков

1995/2021 - Sweet Dreams (Frontline Productions & Records - FL2101)

A1. Forget Me Nots
A2. Sweet Dreams
A3. Be My Lover
A4. Fallin' In Love
A5. I'll Be There
A6. Nice 'N' Slow
B1. Where Do you Go
B2. I Love To Love
B3. Do You Still Need Me
B4. Poetry In Motion
B5. The Heat Is On
B6. Mama Look (I Love Him)

Спектр, АЧХ, Уровень записи

admin

Post 03-Dec-2021 04:30

[Quote]

Название: New World
Исполнитель: Loft
Год: 2021
Жанр: Eurodance
Страна: Germany
Лейбл: Dmn Records
Продолжительность: 01:11:49
Формат/Кодек: MP3
Битрейт аудио: 320 kbps

Трек-лист

01. Summer Summer 2k21 (Experience of Music Radio Mix)
02. Hold on 2k21 (Bmonde & Angleman Radio Mix)
03. Mallorca 2k21 (Bmonde Radio Mix)
04. Techno Party (Greg & Angleman Radio Mix)
05. Jamaican Roots (Angleman Radio Mix)
06. Open Heart (Greg & Angleman Radio Mix)
07. Summer Summer 2k21 (Experience of Music 90s Mix)
08. Hold on 2k21 (Bmonde & Angleman Club Mix)
09. Mallorca 2k21 (Bmonde Club Mix)
10. Techno Party (Bmonde Club Mix)
11. Jamaican Roots (Angleman 90s Mix)
12. Open Heart (Greg & Angleman Instrumental Mix)
13. Summer Summer 2k21 (Experience of Music Tropical Mix)
14. Hold on 2k21 (DJ Kica Radio Mix)
15. Techno Party (Greg's Techno Party Mix)
16. Montego Bay
17. The Zipp 2.0
18. Summer Summer 2k21 (Experience of Music Instrumental Mix)

admin

Post 25-Aug-2021 01:27

[Quote]

Название: I Am
Исполнитель: Annerley
Год: 2021
Жанр: Eurobeat
Страна: Italy
Лейбл: Dave Rodgers Music
Продолжительность: 01:14:09
Формат/Кодек: FLAC
Битрейт аудио: Lossless

Трек-лист

01. Annerley - I Am (4:47)
02. Annerley - Summertime (6:18)
03. Annerley - A Better World (5:10)
04. Annerley - Save Me (4:54)
05. Annerley - My Car Is On Fire (5:34)
06. Annerley - Hot Love And Emotion [2020 Version] (5:39)
07. Annerley - Make Love [2021] (5:39)
08. Annerley - Every Time We Touch (5:16)
09. Annerley - Crazy Love (4:43)
10. Annerley feat. Dave Rodgers - Hand On My Heart (5:33)
11. Annerley - Stars Into The Sky (5:24)
12. Annerley - Goin' On (4:49)
13. Annerley - Happy Birthday (4:53)
14. Annerley - It's Only Eurobeat (5:30)

Log

DON'T MODIFY THIS FILE
-----------------------
PERFORMER: auCDtect Task Manager, ver. 1.6.0 RC1 build 1.6.0.1
Copyright (c) 2008-2010 y-soft. All rights reserved
http://y-soft.org
ANALYZER: auCDtect: CD records authenticity detector, version 0.8.2
Copyright (c) 2004 Oleg Berngardt. All rights reserved.
Copyright (c) 2004 Alexander Djourik. All rights reserved.
FILE: 14 - Annerley - It's Only Eurobeat.flac
Size: 44425468 Hash: 72B6DE6E0ADFD44F830348B6A8774155 Accuracy: -m0
Conclusion: CDDA 100%
Signature: 691D567CB4CC1E57768E0AAB55B29B87E2B859C0
FILE: 13 - Annerley - Happy Birthday.flac
Size: 41854619 Hash: 785F418279C64B61CAE74206AD64C907 Accuracy: -m0
Conclusion: CDDA 100%
Signature: CD75409F2E37FC450D7E6077FB9567B0F74DBB93
FILE: 12 - Annerley - Goin' On.flac
Size: 41120618 Hash: 044C32787CDE8D66E1E2BF69EE0DC9C8 Accuracy: -m0
Conclusion: CDDA 100%
Signature: ACEBDE6122E913C9E56008D8B6BE4F5C3E9DE518
FILE: 11 - Annerley - Stars Into The Sky.flac
Size: 45620539 Hash: 00DFBAD10AF612DB8C4B648F4A4300C2 Accuracy: -m0
Conclusion: MPEG 91%
Signature: 91C44871342CDC9EB71EED0BF1BAE7C792587344
FILE: 10 - Annerley feat. Dave Rodgers - Hand On My Heart.flac
Size: 47448086 Hash: 0E956524AE87E903700406F849C49C5D Accuracy: -m0
Conclusion: CDDA 100%
Signature: 961888B82D97DF3E77F64E15EA62367360934827
FILE: 09 - Annerley - Crazy Love.flac
Size: 38933645 Hash: 9F1E25F3AEACCBAF82EB1DB4C860C388 Accuracy: -m0
Conclusion: CDDA 99%
Signature: BA830C757FD6822013F7B2B17B7490EDD84140BB
FILE: 08 - Annerley - Every Time We Touch.flac
Size: 45004084 Hash: 594DFBC0368CBC4AB61EEB00AB9E3F3E Accuracy: -m0
Conclusion: MPEG 100%
Signature: BA63E8A585A75929410E3284FF99DACAA89556AD
FILE: 07 - Annerley - Make Love [2021].flac
Size: 47519497 Hash: 5F00A4ED5D3981D3417C90C2D4D325AC Accuracy: -m0
Conclusion: CDDA 100%
Signature: 13DAEB4061FC5A084C6794A1C4F9E14E64720628
FILE: 06 - Annerley - Hot Love And Emotion [2020 Version].flac
Size: 46426739 Hash: 559F0D5270EE6C182EE9598666348A8D Accuracy: -m0
Conclusion: MPEG 73%
Signature: 49CD0009E78FB0E3CC3525AAFABF36025929A327
FILE: 05 - Annerley - My Car Is On Fire.flac
Size: 48637302 Hash: 31C7C2C5B35B598E1BAB9D771B4F60BB Accuracy: -m0
Conclusion: CDDA 100%
Signature: 6802D3AB6B7291DE76DE2ABE971855CBC1E6A05F
FILE: 04 - Annerley - Save Me.flac
Size: 40019409 Hash: 59B86B258A33AB9E00760BDE4CF5A846 Accuracy: -m0
Conclusion: MPEG 79%
Signature: D8209BB53EBA8EBC57D2EAED3389456117B93B61
FILE: 03 - Annerley - A Better World.flac
Size: 42482752 Hash: 2E12B31BAA4DE95CB56F8235552706C4 Accuracy: -m0
Conclusion: CDDA 100%
Signature: 1CF55E910DA1776F55D73E8F1D1F5755EB6C9E1F
FILE: 02 - Annerley - Summertime.flac
Size: 55195418 Hash: 764EE4E6C334B6D6B1B446426DDD4869 Accuracy: -m0
Conclusion: MPEG 73%
Signature: 122C5DCE5C827739AB5D4B8F4912ADD141BD402D
FILE: 01 - Annerley - I Am.flac
Size: 41803851 Hash: A9E2B2DE5EFB97764565CBCB820934E2 Accuracy: -m0
Conclusion: CDDA 100%
Signature: F287C170FAEFE9FCD7B48692C6AFEBCF6C44F3A9

admin

Post 23-Aug-2021 00:14

[Quote]

Название: Instrumental Remixes, Vol. 1
Исполнитель: Giorgio Moroder
Год: 2021
Жанр: Eectronic, Disco
Страна: Italy
Лейбл: Solaris Records
Продолжительность: 02:24:40
Формат/Кодек: MP3
Битрейт аудио: 320 kbps
Juno

Трек-лист

01. I Wanna Rock You (Tom Novy Instrumental Remix)
02. Never Ending Story (Marko Bussian Instrumental Remix)
03. Hot Stuff (Russ Danoff Instrumental Mix)
04. Our Love (Nu Pilgrims & Nolan Instrumental Remix) (Nu Pilgrims & Nolan Instrumental)
05. Our Love (Vaskeez Remix Instrumental) (Instrumental)
06. Our Love (Nu Pilgrims the Underground Instrumental Remix) (The Underground Instrumental)
07. Love to Love You Baby (Russ Danoff Instrumental Short Edit) (Instrumental Short Edit)
08. Our Love (Dereka Instrumental Remix) (Instrumental Remix)
09. Call Me (Russ Danoff Instrumental Mix)
10. Hot Stuff (Al-Faris & Carmelo Carone Instrumental Mix) (Instrumental Mix)
11. Spring Affair (Vaskeez, Dereka Instrumental Mix)
12. Never Ending Story (Marko Bussian Instrumental Radio Edit)
13. Love to Love You Baby (Instrumental)
14. Spring Affair (Marat Taturas Instrumental Remix)
15. The Chase (Chew Solo & ChromaSense Instrumental)
16. The Chase (Instrumental)
17. I Wanna Rock You (ENNE Instrumental Dub)
18. Our Love (Eva Be Dub Instrumental)
19. What a Feeling (Instrumental)
20. Our Love (J.C Fous de la Mer Forever Instrumental Mix)
21. On the Radio (Enne Instrumental Remix)
22. I Wanna Rock You (DJ Linus Instrumental Remix)
23. I Wanna Rock You (Beach Messiah Instrumental Remix)
24. I Wanna Rock You (Chew Solo & ChromaSense Instrumental)
25. I Wanna Rock You (Chew Solo & Sandra Gold Instrumental)

admin

Post 23-Aug-2021 00:03

[Quote]

Название: Fashion Mix 21 06
Исполнитель: Dj Compressor
Год: 2021
Жанр: Dance
Страна: Россия
Продолжительность: 01:03:20
Формат/Кодек: MP3
Битрейт аудио: 320

Трек-лист

1. Blr & Mvrt - Comfort Me (Dj Compressor Edit)
2. Dj Licious & Armen Paul - Hope
3. G Monk - Moksha (Original Mix & Dj Compressor Edit)
4. Lane 8 & Le Youth & Polica - The Rope (Le Youth Remix)
5. Ntt - Therefore I Am (Fitness Version 132 Bpm)
6. Rinat Latif - Shaabiyah (Original Mix & Dj Compressor Edit)
7. Shygirl - Siren (Basement Jaxx Cruise Mix & Dj Compressor Edit)
8. Bondarev & QDream - Amathusia (Original Mix & Dj Compressor Edit)
9. Josh Hunter & Mila Falls - No Limit (Dj Compressor Edit)
10. Nopopstar - Ambaham (Original Mix & Dj Compressor Edit)
11. Reece - Generational Heartthrob
12. Stress - Rude Gal
13. Braxton & Lauren L'aimant - Holding On (Dj Compressor Edit)
14. Kaskade & Ella Vos - Miles To Go
15. Lisitsyn - Deliri (Original Mix & Dj Compressor Edit)
16. Rasmus Faber - Be Real (Dj Compressor Edit)
17. Serhan Guney - Agnes (Original Mix & Dj Compressor Edit)
18. Dub Recycle - Nebula (Dj Compressor Edit)
19. Fire Choir - Kiss The Ring (Dj Compressor Edit)
20. Kinobe - Thought It Was You
21. Fashion Mix 21 06

admin

Post 22-Aug-2021 01:14

[Quote]

Название: Solar Power [24-bit Hi-Res]
Исполнитель: Lorde
Год: 2021
Жанр: Electropop, Indie-Pop, Dreampop
Страна: Новая Зеландия/New Zealand
Продолжительность: 00:43:13
Формат/Кодек: FLAC
Битрейт аудио: 24/48

Трек-лист

01. The Path
02. Solar Power
03. California
04. Stoned at the Nail Salon
05. Fallen Fruit
06. Secrets from a Girl (Who's Seen it All)
07. The Man with the Axe
08. Dominoes
09. Big Star
10. Leader of a New Regime
11. Mood Ring
12. Oceanic Feeling

Лог проверки качества (DR8)

foobar2000 1.5.4 / Dynamic Range Meter 1.1.1
log date: 2021-08-20 15:27:49
--------------------------------------------------------------------------------
Analyzed: Lorde / Solar Power
--------------------------------------------------------------------------------
DR Peak RMS Duration Track
--------------------------------------------------------------------------------
DR5 -0.71 dB -9.22 dB 3:41 01-The Path
DR6 -0.20 dB -9.12 dB 3:13 02-Solar Power
DR6 -0.55 dB -9.87 dB 3:12 03-California
DR7 -0.31 dB -10.27 dB 4:26 04-Stoned at the Nail Salon
DR8 -0.31 dB -11.62 dB 3:58 05-Fallen Fruit
DR7 -0.20 dB -10.45 dB 3:39 06-Secrets from a Girl (Who's Seen it All)
DR8 -0.32 dB -11.90 dB 4:16 07-The Man with the Axe
DR10 -1.31 dB -13.65 dB 2:03 08-Dominoes
DR11 -0.32 dB -13.84 dB 2:47 09-Big Star
DR9 -0.31 dB -13.19 dB 1:33 10-Leader of a New Regime
DR8 -0.20 dB -12.07 dB 3:46 11-Mood Ring
DR5 -0.95 dB -9.86 dB 6:40 12-Oceanic Feeling
--------------------------------------------------------------------------------
Number of tracks: 12
Official DR value: DR8
Samplerate: 48000 Hz
Channels: 2
Bits per sample: 24
Bitrate: 1515 kbps
Codec: FLAC
================================================================================

admin

Post 06-Jun-2021 20:57

[Quote]

Название: Fashion Mix 21 05
Исполнитель: Dj Compressor
Год: 2021
Жанр: Dance
Страна: Россия
Продолжительность: 00:58:59
Формат/Кодек: MP3
Битрейт аудио: 320

Трек-лист

1. Alec Benjamin - I'm Not A Cynic
2. Brosso & Dub Pepper - Athelas (Original Mix & Dj Compressor Edit)
3. Carrie Baxter & Nealo - Without You
4. Dezza & Dan Soleil - My Breath
5. EMPHI - Fall (Dharmalogy Remix & Dj Compressor Edit)
6. Ferry Corsten - Tomorrow (Dj Compressor Edit)
7. Goody Grace & Cigarettes After Sex & Lexi Jayde - On Repeat
8. Hailey Whitters & Lori McKenna & Hillary Lindsey - How To Break A Heart
9. Kydus & Rion S - Gold Digger (Dj Compressor Edit)
10. LPB Poody - Batman
11. Nico Szabo - Chronic (Dj Compressor Edit)
12. Qveen Herby - Sugar Daddy
13. Rick Pier O’Neil - Rebrox (Dj Compressor Edit)
14. Bcee & Etherwood & Charlotte Haining - Little Bit Lighter (Dj Compressor Edit)
15. Cristoph & Franky Wah & Artche - The World You See (Dj Compressor Edit)
16. Dmitry Molosh & Nopi - Consciousness Switch (Original Mix & Dj Compressor Edit)
17. Roosevelt - Lovers
18. Run The Jewels & 2 Chainz - Out Of Sight
19. Bleu Clair - The Tempo (Dj Compressor Edit)
20. Dor Danino & Morris - Galala (Made In TLV Remix & Dj Compressor Edit)
21. Fashion Mix 21 06

admin

Post 05-Jun-2021 22:40

[Quote]

Название: Коллекция
Исполнитель: 2 Fabiola
Год: 1995 - 2016
Жанр: Euro-House, Eurodance, Dance-Pop
Страна: Бельгия
Продолжительность: 07:44:19
Формат/Кодек: FLAC
Битрейт аудио: Lossless

Трек-лист

1996 - Tyfoon
CD 1:
01. Freak Out (Radio Mix) 3:22
02. I'm On Fire (Radio Mix) 3:42
03. Lift Me Up 5:11
04. Universal Love 3:25
05. Show Me The Way 4:12
06. Lift U Up (Emotional Mix) 4:42
07. I See The Light (Dreamland Mix) 5:05
08. A World For U And Me (Adams & Krimson Atmoz Mix) 4:12
09. Piano Latino (DJ Jan Mix) 6:42
10. Play This Song (Ultimate Radio Mix) 3:52
11. Raise Your Hands (DJ Joan Mix) 5:14
12. Lift U Up (E-Raver Remix) 3:28
13. My Attitude (Jazzy Club Mix) 4:02
CD 2 (Club Mixes):
01. I'm On Fire (Regg & Arkin Mix) 3:20
02. Bang To The Rhythm (Sax Mix) 3:56
03. Play This Song (Adams & Krimson Mix) 5:10
04. Show Me The Way (Hi-Tech Mix) 4:45
05. Piano Latino (Extravaganza Mix) 4:50
06. Fireside (Underground Mix) 6:55
1998 - Androgyne
CD 1 (Compact Formula):
01. Sisters & Brothers 3:10
02. Stargate 5 5:23
03. Kinky (2 Fabiola Remix) 5:00
04. Ragazzi 4:04
05. Feel The Vibe 4:32
06. Flashback 3:21
07. I Feel Like U 5:58
08. Trippin On Air 4:10
09. I Hate 2 Love U 3:41
10. Open Your Heart 4:42
11. The After Party 5:22
12. Magic Flight 3:43
CD 2 (Club Mixes Formula):
01. Stargate 5 5:28
02. Sisters & Brothers (Oliver Adams Dub Mix) 3:07
03. Kinky (2 Fabiola Remix) 4:28
04. Feel The Vibe 3:58
05. Flashback (Nico Parisi Remix) 5:05
06. Magic Flight (Blue Monday Mix) 2:27
07. I Hate 2 Love U (Zohra In Wonderland Mix) 5:18
08. I Feel Like U 6:01
2016 - Evolution
01. She's After My Piano (Remix '16) 2:52
02. Rock It (Original Mix) 3:04
03. Lift U Up (Remix '16) 3:32
04. Beautifull 3:01
05. House Of Doom (TML Remix '15) 2:55
06. Me & U (Radio Mix) 3:18
07. Flashback (Remix 2010) 3:34
08. No Good 3:18
09. Let The Music Play 3:30
10. Push It Up 3:50
11. Doctor Disco 2:56
12. One Night In Dubai 3:9
13. She's After My Piano (Original Extended Mix) 5:7
14. Blow Me Away (Bigga & Bolda Mix) 3:20
15. Release Your Soul 3:13
16. Yes I Know (Tabularasa Mix) 8:32
17. I'm On Fire (Original Mx) 3:41
18. Freak Out (Original Mix) 3:33
19. Lift U Up (Original Mix) 3:27
20. Pat Krimson – Psycho 3:13
21. Loredana - Sky & Sand 3:24
22. Loredana – Ochtendzon 3:26
1995 - Play This Song
01. Play This Song (Radio Mix) 3:56
02. Play This Song (Transformix) 5:35
03. Play This Song (Cybermix) 5:15
04. Rest In Peace 5:41
1995 - Play This Song (Remixes)
01. Play This Song (Additional Vocal Mix) 3:53
02. Play This Song (Radio Mix) 3:56
03. Play This Song (Transformix) 5:35
04. Play This Song (Adams & Krimson Remix) 5:10
05. Play This Song (Cybermix) 5:15
06. Play This Song (Re-Dub Remix) 6:52
07. Play This Song (Virtualrhythm Remix) 5:34
1995 - Lift U Up
01. Lift U Up (Radio Mix) 3:24
02. Lift U Up (Relax Your Body Mix) 5:02
03. Lift U Up (Emotional Mix) 4:45
04. Lift U Up (Trance '96 Mix) 5:02
05. Lift Me Up (Club Mix) 5:10
1996 - I’m On Fire
01. I'm On Fire (Ultimate Radio Mix) 3:40
02. I'm On Fire (Club Mix) 5:03
03. I'm On Fire (Extended Mix) 4:46
04. I'm On Fire (Regg & Arkin Remix) 3:20
05. I'm On Fire (Original Radio Mix) 3:17
06. I'm On Fire (DSP Remix) 4:58
1996 - Universal Love
01. Universal Love 3:25
02. Universal Love (Album Version) 3:25
1997 - Freak Out
01. Freak Out ('97 Remix) 3:34
02. Freak Out (Frank T. Wallace Remix) 5:05
03. I See The Light 5:05
04. Freak Out (Regg & Arkin Remix) 3:35
05. Freak Out (Original Tyfoon Mix) 3:22
1997 - Magic Flight
01. Magic Flight (Blue Monday Mix) 4:36
02. Magic Flight (Don Joan Avantura Mix) 5:02
03. Magic Flight (Regg & Arkin Mix) 3:39
04. Magic Flight (Extended Club Mix) 5:22
05. Magic Flight (Powerplay Radio Mix) 3:42
1998 - Feel The Vibe
01. Feel The Vibe ('99 Airplay Remix) 3:50
02. Feel The Vibe (Pat Krimson '99 Remix) 6:15
1998 - Flashback
01. Flashback (Pat Krimson Mix) 5:32
02. Flashback (Extended Club Mix) 4:33
03. Flashback (Nico Parisi Remix) 5:53
04. Flashback (Adams Speedgarage Mix) 5:09
05. Flashback (Airplay Mix) 3:21
1999 - New Years Day (Feat. Medusa)
01. New Years Day (2000 Radio Mix) 3:30
02. The Afterparty 5:22
2000 - Summer In Space (Feat. Medusa)
01. Summer In Space (Ultra Radio Mix) 3:33
02. Summer In Space (20.000 Miles Away Mix) 5:49

admin

Post 20-May-2021 03:26

[Quote]

Название: The Story Of You And I
Исполнитель: J.K.
Год: 2021
Жанр: Eurodance, Euro-House
Страна: Italy
Лейбл: X-Energy Records
Продолжительность: 00:53:35
Формат/Кодек: FLAC
Битрейт аудио: Lossless

Трек-лист

01. You & I [Classic '95 Remix] (5:00)
02. My Radio [M.B.R.G. Radio Edit] (3:28)
03. You Make Me Feel Good [Radio Edit] (3:58)
04. Go On [Radio Edit] (3:57)
05. Beat It [Radio Edit] (3:57)
06. Deep In The Night [Radio Edit] (3:57)
07. You Got Me Dancing [Radio Edit] (3:34)
08. Hit My Heart [Radio Edit] (3:16)
09. Make Me Feel [Slow Feel Radio Edit] (3:44)
10. Beat It [Andy Cain 2020 Remix] (8:43)
11. Sweet Lady Night [M.B.R.G. Long Version] (5:30)
12. Megamix '96 [Radio Edit] (4:31)

Log

DON'T MODIFY THIS FILE
-----------------------
PERFORMER: auCDtect Task Manager, ver. 1.6.0 RC1 build 1.6.0.1
Copyright (c) 2008-2010 y-soft. All rights reserved
http://y-soft.org
ANALYZER: auCDtect: CD records authenticity detector, version 0.8.2
Copyright (c) 2004 Oleg Berngardt. All rights reserved.
Copyright (c) 2004 Alexander Djourik. All rights reserved.
FILE: 12 - Megamix '96 [Radio Edit].flac
Size: 35289844 Hash: CA174B7A37E2327E15B1AAD55C549413 Accuracy: -m0
Conclusion: MPEG 95%
Signature: 490595D9817A7D4E227239C558FC8D787E3C6F6E
FILE: 11 - Sweet Lady Night [M.B.R.G. Long Version].flac
Size: 37943309 Hash: A39B52F55BCAF0C1484DCC9205EE32A4 Accuracy: -m0
Conclusion: CDDA 100%
Signature: 4FB360B4DC5BE54EBC312C40D6FBE08B483A51D2
FILE: 10 - Beat It [Andy Cain 2020 Remix].flac
Size: 65790186 Hash: 768A80BB2E216F262700537E81DD65E7 Accuracy: -m0
Conclusion: CDDA 99%
Signature: 14B697ED90F88C28449C6AF5C137E0EB5EE302FC
FILE: 09 - Make Me Feel [Slow Feel Radio Edit].flac
Size: 27341222 Hash: F21C8C525EE6855862A500BFBDDC1517 Accuracy: -m0
Conclusion: CDDA 100%
Signature: 0C7D4892EF0CC8D1A3FBCDD982977DBA9ED58C1D
FILE: 08 - Hit My Heart [Radio Edit].flac
Size: 22877798 Hash: DD65F11007912CC919428D6D1032F252 Accuracy: -m0
Conclusion: CDDA 100%
Signature: EB36FAE0D4E1087133F86A23EEB67626F13C04D5
FILE: 07 - You Got Me Dancing [Radio Edit].flac
Size: 25899546 Hash: B4FA8979DE667DFDC3A45DBC0771F789 Accuracy: -m0
Conclusion: CDDA 100%
Signature: 9A432E55EC0BF89F05C0D3E173583F7B95B4628E
FILE: 06 - Deep In The Night [Radio Edit].flac
Size: 30734545 Hash: 4AA4D31918CCCF0E6228F6ECAA86A7E3 Accuracy: -m0
Conclusion: CDDA 100%
Signature: 9F1DC842CD5455114B276DC46C15A0BEDDF1D40F
FILE: 05 - Beat It [Radio Edit].flac
Size: 30832210 Hash: 56F295CF403DED95B5D311F93A4CD9C7 Accuracy: -m0
Conclusion: CDDA 100%
Signature: BC32D080DFA84C5E3819D7492855C8A90B97AA72
FILE: 04 - Go On [Radio Edit].flac
Size: 31217287 Hash: B97A6C07920F4E1520C4C64790D5394B Accuracy: -m0
Conclusion: CDDA 99%
Signature: 7DCED27013601918E82DCDD6D29F292FCA044A64
FILE: 03 - You Make Me Feel Good [Radio Edit].flac
Size: 31379660 Hash: B76D01AD252AD20C14888992957EFE51 Accuracy: -m0
Conclusion: CDDA 100%
Signature: 6A851A6F3B8F31D6F37AE23D647EA28D0B6F52C1
FILE: 02 - My Radio [M.B.R.G. Radio Edit].flac
Size: 26992901 Hash: 14ED129480FF504A25E7BAF667567F7F Accuracy: -m0
Conclusion: CDDA 100%
Signature: 4F5F81406C66E8C57987C32A2518276ECCD76C78
FILE: 01 - You & I [Classic '95 Remix].flac
Size: 40064094 Hash: B60B2F7D0C14FB510218F0A7796B100C Accuracy: -m0
Conclusion: CDDA 100%
Signature: 6AD8F98ADD8E84A591AD2F94BAB33B77869680DD

admin

Post 16-Apr-2021 20:33

[Quote]

Название: Greatest Hits: New Versions & Instrumentals
Исполнитель: DJ BoBo
Год: 2021
Жанр: Eurodance, Pop
Страна: Switzerland
Продолжительность: 03:22:49
Формат/Кодек: FLAC
Битрейт аудио: Lossless

Трек-лист

Greatest Hits - New Versions (Yes Music - 192231522885)
CD 1:
01. Somebody Dance With Me (feat. Kiesza) (2:45)
02. My Life (It's My Life Remix) (feat. Loco Escrito) (3:09)
03. What A Feeling (Filatov & Karas Remix) (feat. Irene Cara) (3:34)
04. Everybody (3:20)
05. Let The Dream Come True (feat. Alex Christensen) (3:24)
06. There Is A Party (3:40)
07. Freedom (3:33)
08. Love Is All Around (2:36)
09. La Vida Es (3:28)
10. Fiesta Loca (2:41)
11. Pray (3:22)
12. Take Control (2:49)
13. Gotta Go (2:56)
14. Secrets Of Love (Retouch) (feat. Sandra) (3:17)
15. Together (3:41)
16. Keep On Dancing (Retouch) (3:28)
17. We Are What We Are (2:25)
18. Superstar (Retouch) (3:38)
19. Vampires Are Alive (Retouch) (3:11)
20. Happy Birthday (Radio Edit) (3:15)
CD 2:
01. Let The Dream Come True (4:01)
02. Everybody (3:48)
03. Somebody Dance With Me (3:32)
04. Freedom (3:56)
05. There Is A Party (4:12)
06. What A Feeling (feat. Irene Cara) (3:19)
07. Take Control (New Version) (3:45)
08. Shadows Of The Night (feat. V.S.O.P.) (3:59)
09. Love Is All Around (4:05)
10. It's My Life (3:51)
11. Chihuahua (3:00)
12. Keep On Dancing (3:31)
13. Secrets Of Love (feat. Sandra) (3:19)
14. Pray (3:52)
15. Where Is Your Love (3:54)
16. 1000 Dreams (3:26)
17. Respect Yourself (3:58)
18. La Vida Es (Radio Version) (3:21)
19. Superstar (3:32)
20. Together (3:41)
Greatest Hits - New Versions (Instrumentals) (Yes Music - 192231522892)
01. Somebody Dance With Me (2:45)
02. My Life (It's My Life Remix) (3:08)
03. What A Feeling (Filatov & Karas Remix) (3:30)
04. Everybody (3:20)
05. Let The Dream Come True (DJ BoBo & Alex Christensen) (3:24)
06. There Is A Party (3:40)
07. Freedom (3:33)
08. Love Is All Around (2:36)
09. La Vida Es (3:28)
10. Fiesta Loca (2:41)
11. Pray (3:22)
12. Take Control (2:49)
13. Gotta Go (2:56)
14. Secrets Of Love (Retouch Instrumental) (3:17)
15. Together (3:41)
16. Keep On Dancing (Retouch Instrumental) (3:28)
17. We Are What We Are (2:25)
18. Superstar (Retouch Instrumental) (3:38)
19. Vampires Are Alive (Retouch Instrumental) (3:11)
20. Happy Birthday (Radio Edit) (3:15)

admin

Post 10-Apr-2021 12:22

[Quote]

Название: Fashion Mix 21 03
Исполнитель: Dj Compressor
Год: 2021
Жанр: Dance
Страна: Россия
Продолжительность: 00:54:30
Формат/Кодек: MP3
Битрейт аудио: 320

Трек-лист

1. Baladeva Balarama - Tuco (Dj Compressor Edit)
2. Cray - Fractions
3. Durante & Hana - Away Home (Mixed & Dj Compressor Edit)
4. Rafael Osmo - Run (Original Mix & Dj Compressor Edit)
5. Simon Field - Shake The Tree
6. Baragula - Starbound (Dj Compressor Edit)
7. Claud - Overnight
8. Don Taylor - Subliminal (Dj Compressor Edit)
9. Martina Budde - Feeling It (Dj Compressor Edit)
10. Smoker - Back To My Planet (Dj Compressor Edit)
11. Bog - Shila (Dj Compressor Edit)
12. Duke Boara - Rain (Anjunadeep 12 Edit (Mixed) & Dj Compressor Edit))
13. Sandro S - Jeko (Original Mix & Dj Compressor Edit)
14. Brian Cid - Jubilee (Dj Compressor Edit)
15. Chemical Disco & Raphael Siqueira & Hadart - Smoke On The Water (Dj Compressor Edit)
16. Solomon Burke - Gotta Travel On
17. Dapa Deep - Useless (Dj Compressor Edit)
18. Karlos Molina - Deci K (Dj Compressor Edit)
19. Suark - Take It Slow (Dj Compressor Edit)
20. Rony Seikaly - Acid Is Coming (Dj Compressor Edit)
21. Fashion Mix 21 03

admin

Post 02-Apr-2021 11:43

[Quote]

Название: Chapter Italo Dance
Исполнитель: Silent Circle
Год: 2021
Страна-производитель: Europe
Аудио кодек: WavPack
Тип рипа: Image+.cue
Жанр: Euro-Disco, Euro-House
Разрядность: 24/192
Продолжительность: 00:47:50
Код класса состояния винила: Mint
Устройство воспроизведения: Denon DP-59M
Головка звукоснимателя: Excel Sound E-70EX
Предварительный усилитель: Luxman E-200 Phono Stage
АЦП: Roland Capture| 6
Программа-оцифровщик: Izotope RX6
Обработка: Izotope RX6 (manual click)

2021 - Chapter Italo Dance (Maschina Records - MASHLP-043)

A1. How Could I Be Right 3:30
A2. Kaido 3:21
A3. Face To Face 3:11
A4. I'm Back To Stay 3:41
A5. Who Took My Girl 3:28
A6. Don't Cry Tonight Stay With Me 3:48
A7. Chalk Is Cheap 3:13
B1. Lost In Space 3:27
B2. In The Air Tonight (Unreleased Version) 3:45
B3. Here Comes The Rain 3:38
B4. Deep In My Heart 3:52
B5. Night After Night (Unreleased Version) 4:10
B6. Touch In The Night 3000 (Album Edit) 3:47

Спектр, АЧХ, Уровень записи
 

Current time is: 26-May 07:43

All times are UTC + 3