Search found 34 matches

Author Message

admin

Post 25-Aug-2021 01:27

[Quote]

Название: I Am
Исполнитель: Annerley
Год: 2021
Жанр: Eurobeat
Страна: Italy
Лейбл: Dave Rodgers Music
Продолжительность: 01:14:09
Формат/Кодек: FLAC
Битрейт аудио: Lossless

Трек-лист

01. Annerley - I Am (4:47)
02. Annerley - Summertime (6:18)
03. Annerley - A Better World (5:10)
04. Annerley - Save Me (4:54)
05. Annerley - My Car Is On Fire (5:34)
06. Annerley - Hot Love And Emotion [2020 Version] (5:39)
07. Annerley - Make Love [2021] (5:39)
08. Annerley - Every Time We Touch (5:16)
09. Annerley - Crazy Love (4:43)
10. Annerley feat. Dave Rodgers - Hand On My Heart (5:33)
11. Annerley - Stars Into The Sky (5:24)
12. Annerley - Goin' On (4:49)
13. Annerley - Happy Birthday (4:53)
14. Annerley - It's Only Eurobeat (5:30)

Log

DON'T MODIFY THIS FILE
-----------------------
PERFORMER: auCDtect Task Manager, ver. 1.6.0 RC1 build 1.6.0.1
Copyright (c) 2008-2010 y-soft. All rights reserved
http://y-soft.org
ANALYZER: auCDtect: CD records authenticity detector, version 0.8.2
Copyright (c) 2004 Oleg Berngardt. All rights reserved.
Copyright (c) 2004 Alexander Djourik. All rights reserved.
FILE: 14 - Annerley - It's Only Eurobeat.flac
Size: 44425468 Hash: 72B6DE6E0ADFD44F830348B6A8774155 Accuracy: -m0
Conclusion: CDDA 100%
Signature: 691D567CB4CC1E57768E0AAB55B29B87E2B859C0
FILE: 13 - Annerley - Happy Birthday.flac
Size: 41854619 Hash: 785F418279C64B61CAE74206AD64C907 Accuracy: -m0
Conclusion: CDDA 100%
Signature: CD75409F2E37FC450D7E6077FB9567B0F74DBB93
FILE: 12 - Annerley - Goin' On.flac
Size: 41120618 Hash: 044C32787CDE8D66E1E2BF69EE0DC9C8 Accuracy: -m0
Conclusion: CDDA 100%
Signature: ACEBDE6122E913C9E56008D8B6BE4F5C3E9DE518
FILE: 11 - Annerley - Stars Into The Sky.flac
Size: 45620539 Hash: 00DFBAD10AF612DB8C4B648F4A4300C2 Accuracy: -m0
Conclusion: MPEG 91%
Signature: 91C44871342CDC9EB71EED0BF1BAE7C792587344
FILE: 10 - Annerley feat. Dave Rodgers - Hand On My Heart.flac
Size: 47448086 Hash: 0E956524AE87E903700406F849C49C5D Accuracy: -m0
Conclusion: CDDA 100%
Signature: 961888B82D97DF3E77F64E15EA62367360934827
FILE: 09 - Annerley - Crazy Love.flac
Size: 38933645 Hash: 9F1E25F3AEACCBAF82EB1DB4C860C388 Accuracy: -m0
Conclusion: CDDA 99%
Signature: BA830C757FD6822013F7B2B17B7490EDD84140BB
FILE: 08 - Annerley - Every Time We Touch.flac
Size: 45004084 Hash: 594DFBC0368CBC4AB61EEB00AB9E3F3E Accuracy: -m0
Conclusion: MPEG 100%
Signature: BA63E8A585A75929410E3284FF99DACAA89556AD
FILE: 07 - Annerley - Make Love [2021].flac
Size: 47519497 Hash: 5F00A4ED5D3981D3417C90C2D4D325AC Accuracy: -m0
Conclusion: CDDA 100%
Signature: 13DAEB4061FC5A084C6794A1C4F9E14E64720628
FILE: 06 - Annerley - Hot Love And Emotion [2020 Version].flac
Size: 46426739 Hash: 559F0D5270EE6C182EE9598666348A8D Accuracy: -m0
Conclusion: MPEG 73%
Signature: 49CD0009E78FB0E3CC3525AAFABF36025929A327
FILE: 05 - Annerley - My Car Is On Fire.flac
Size: 48637302 Hash: 31C7C2C5B35B598E1BAB9D771B4F60BB Accuracy: -m0
Conclusion: CDDA 100%
Signature: 6802D3AB6B7291DE76DE2ABE971855CBC1E6A05F
FILE: 04 - Annerley - Save Me.flac
Size: 40019409 Hash: 59B86B258A33AB9E00760BDE4CF5A846 Accuracy: -m0
Conclusion: MPEG 79%
Signature: D8209BB53EBA8EBC57D2EAED3389456117B93B61
FILE: 03 - Annerley - A Better World.flac
Size: 42482752 Hash: 2E12B31BAA4DE95CB56F8235552706C4 Accuracy: -m0
Conclusion: CDDA 100%
Signature: 1CF55E910DA1776F55D73E8F1D1F5755EB6C9E1F
FILE: 02 - Annerley - Summertime.flac
Size: 55195418 Hash: 764EE4E6C334B6D6B1B446426DDD4869 Accuracy: -m0
Conclusion: MPEG 73%
Signature: 122C5DCE5C827739AB5D4B8F4912ADD141BD402D
FILE: 01 - Annerley - I Am.flac
Size: 41803851 Hash: A9E2B2DE5EFB97764565CBCB820934E2 Accuracy: -m0
Conclusion: CDDA 100%
Signature: F287C170FAEFE9FCD7B48692C6AFEBCF6C44F3A9

admin

Post 23-Aug-2021 00:14

[Quote]

Название: Instrumental Remixes, Vol. 1
Исполнитель: Giorgio Moroder
Год: 2021
Жанр: Eectronic, Disco
Страна: Italy
Лейбл: Solaris Records
Продолжительность: 02:24:40
Формат/Кодек: MP3
Битрейт аудио: 320 kbps
Juno

Трек-лист

01. I Wanna Rock You (Tom Novy Instrumental Remix)
02. Never Ending Story (Marko Bussian Instrumental Remix)
03. Hot Stuff (Russ Danoff Instrumental Mix)
04. Our Love (Nu Pilgrims & Nolan Instrumental Remix) (Nu Pilgrims & Nolan Instrumental)
05. Our Love (Vaskeez Remix Instrumental) (Instrumental)
06. Our Love (Nu Pilgrims the Underground Instrumental Remix) (The Underground Instrumental)
07. Love to Love You Baby (Russ Danoff Instrumental Short Edit) (Instrumental Short Edit)
08. Our Love (Dereka Instrumental Remix) (Instrumental Remix)
09. Call Me (Russ Danoff Instrumental Mix)
10. Hot Stuff (Al-Faris & Carmelo Carone Instrumental Mix) (Instrumental Mix)
11. Spring Affair (Vaskeez, Dereka Instrumental Mix)
12. Never Ending Story (Marko Bussian Instrumental Radio Edit)
13. Love to Love You Baby (Instrumental)
14. Spring Affair (Marat Taturas Instrumental Remix)
15. The Chase (Chew Solo & ChromaSense Instrumental)
16. The Chase (Instrumental)
17. I Wanna Rock You (ENNE Instrumental Dub)
18. Our Love (Eva Be Dub Instrumental)
19. What a Feeling (Instrumental)
20. Our Love (J.C Fous de la Mer Forever Instrumental Mix)
21. On the Radio (Enne Instrumental Remix)
22. I Wanna Rock You (DJ Linus Instrumental Remix)
23. I Wanna Rock You (Beach Messiah Instrumental Remix)
24. I Wanna Rock You (Chew Solo & ChromaSense Instrumental)
25. I Wanna Rock You (Chew Solo & Sandra Gold Instrumental)

admin

Post 23-Aug-2021 00:03

[Quote]

Название: Fashion Mix 21 06
Исполнитель: Dj Compressor
Год: 2021
Жанр: Dance
Страна: Россия
Продолжительность: 01:03:20
Формат/Кодек: MP3
Битрейт аудио: 320

Трек-лист

1. Blr & Mvrt - Comfort Me (Dj Compressor Edit)
2. Dj Licious & Armen Paul - Hope
3. G Monk - Moksha (Original Mix & Dj Compressor Edit)
4. Lane 8 & Le Youth & Polica - The Rope (Le Youth Remix)
5. Ntt - Therefore I Am (Fitness Version 132 Bpm)
6. Rinat Latif - Shaabiyah (Original Mix & Dj Compressor Edit)
7. Shygirl - Siren (Basement Jaxx Cruise Mix & Dj Compressor Edit)
8. Bondarev & QDream - Amathusia (Original Mix & Dj Compressor Edit)
9. Josh Hunter & Mila Falls - No Limit (Dj Compressor Edit)
10. Nopopstar - Ambaham (Original Mix & Dj Compressor Edit)
11. Reece - Generational Heartthrob
12. Stress - Rude Gal
13. Braxton & Lauren L'aimant - Holding On (Dj Compressor Edit)
14. Kaskade & Ella Vos - Miles To Go
15. Lisitsyn - Deliri (Original Mix & Dj Compressor Edit)
16. Rasmus Faber - Be Real (Dj Compressor Edit)
17. Serhan Guney - Agnes (Original Mix & Dj Compressor Edit)
18. Dub Recycle - Nebula (Dj Compressor Edit)
19. Fire Choir - Kiss The Ring (Dj Compressor Edit)
20. Kinobe - Thought It Was You
21. Fashion Mix 21 06

admin

Post 22-Aug-2021 01:14

[Quote]

Название: Solar Power [24-bit Hi-Res]
Исполнитель: Lorde
Год: 2021
Жанр: Electropop, Indie-Pop, Dreampop
Страна: Новая Зеландия/New Zealand
Продолжительность: 00:43:13
Формат/Кодек: FLAC
Битрейт аудио: 24/48

Трек-лист

01. The Path
02. Solar Power
03. California
04. Stoned at the Nail Salon
05. Fallen Fruit
06. Secrets from a Girl (Who's Seen it All)
07. The Man with the Axe
08. Dominoes
09. Big Star
10. Leader of a New Regime
11. Mood Ring
12. Oceanic Feeling

Лог проверки качества (DR8)

foobar2000 1.5.4 / Dynamic Range Meter 1.1.1
log date: 2021-08-20 15:27:49
--------------------------------------------------------------------------------
Analyzed: Lorde / Solar Power
--------------------------------------------------------------------------------
DR Peak RMS Duration Track
--------------------------------------------------------------------------------
DR5 -0.71 dB -9.22 dB 3:41 01-The Path
DR6 -0.20 dB -9.12 dB 3:13 02-Solar Power
DR6 -0.55 dB -9.87 dB 3:12 03-California
DR7 -0.31 dB -10.27 dB 4:26 04-Stoned at the Nail Salon
DR8 -0.31 dB -11.62 dB 3:58 05-Fallen Fruit
DR7 -0.20 dB -10.45 dB 3:39 06-Secrets from a Girl (Who's Seen it All)
DR8 -0.32 dB -11.90 dB 4:16 07-The Man with the Axe
DR10 -1.31 dB -13.65 dB 2:03 08-Dominoes
DR11 -0.32 dB -13.84 dB 2:47 09-Big Star
DR9 -0.31 dB -13.19 dB 1:33 10-Leader of a New Regime
DR8 -0.20 dB -12.07 dB 3:46 11-Mood Ring
DR5 -0.95 dB -9.86 dB 6:40 12-Oceanic Feeling
--------------------------------------------------------------------------------
Number of tracks: 12
Official DR value: DR8
Samplerate: 48000 Hz
Channels: 2
Bits per sample: 24
Bitrate: 1515 kbps
Codec: FLAC
================================================================================

admin

Post 06-Jun-2021 20:57

[Quote]

Название: Fashion Mix 21 05
Исполнитель: Dj Compressor
Год: 2021
Жанр: Dance
Страна: Россия
Продолжительность: 00:58:59
Формат/Кодек: MP3
Битрейт аудио: 320

Трек-лист

1. Alec Benjamin - I'm Not A Cynic
2. Brosso & Dub Pepper - Athelas (Original Mix & Dj Compressor Edit)
3. Carrie Baxter & Nealo - Without You
4. Dezza & Dan Soleil - My Breath
5. EMPHI - Fall (Dharmalogy Remix & Dj Compressor Edit)
6. Ferry Corsten - Tomorrow (Dj Compressor Edit)
7. Goody Grace & Cigarettes After Sex & Lexi Jayde - On Repeat
8. Hailey Whitters & Lori McKenna & Hillary Lindsey - How To Break A Heart
9. Kydus & Rion S - Gold Digger (Dj Compressor Edit)
10. LPB Poody - Batman
11. Nico Szabo - Chronic (Dj Compressor Edit)
12. Qveen Herby - Sugar Daddy
13. Rick Pier O’Neil - Rebrox (Dj Compressor Edit)
14. Bcee & Etherwood & Charlotte Haining - Little Bit Lighter (Dj Compressor Edit)
15. Cristoph & Franky Wah & Artche - The World You See (Dj Compressor Edit)
16. Dmitry Molosh & Nopi - Consciousness Switch (Original Mix & Dj Compressor Edit)
17. Roosevelt - Lovers
18. Run The Jewels & 2 Chainz - Out Of Sight
19. Bleu Clair - The Tempo (Dj Compressor Edit)
20. Dor Danino & Morris - Galala (Made In TLV Remix & Dj Compressor Edit)
21. Fashion Mix 21 06

admin

Post 05-Jun-2021 22:40

[Quote]

Название: Коллекция
Исполнитель: 2 Fabiola
Год: 1995 - 2016
Жанр: Euro-House, Eurodance, Dance-Pop
Страна: Бельгия
Продолжительность: 07:44:19
Формат/Кодек: FLAC
Битрейт аудио: Lossless

Трек-лист

1996 - Tyfoon
CD 1:
01. Freak Out (Radio Mix) 3:22
02. I'm On Fire (Radio Mix) 3:42
03. Lift Me Up 5:11
04. Universal Love 3:25
05. Show Me The Way 4:12
06. Lift U Up (Emotional Mix) 4:42
07. I See The Light (Dreamland Mix) 5:05
08. A World For U And Me (Adams & Krimson Atmoz Mix) 4:12
09. Piano Latino (DJ Jan Mix) 6:42
10. Play This Song (Ultimate Radio Mix) 3:52
11. Raise Your Hands (DJ Joan Mix) 5:14
12. Lift U Up (E-Raver Remix) 3:28
13. My Attitude (Jazzy Club Mix) 4:02
CD 2 (Club Mixes):
01. I'm On Fire (Regg & Arkin Mix) 3:20
02. Bang To The Rhythm (Sax Mix) 3:56
03. Play This Song (Adams & Krimson Mix) 5:10
04. Show Me The Way (Hi-Tech Mix) 4:45
05. Piano Latino (Extravaganza Mix) 4:50
06. Fireside (Underground Mix) 6:55
1998 - Androgyne
CD 1 (Compact Formula):
01. Sisters & Brothers 3:10
02. Stargate 5 5:23
03. Kinky (2 Fabiola Remix) 5:00
04. Ragazzi 4:04
05. Feel The Vibe 4:32
06. Flashback 3:21
07. I Feel Like U 5:58
08. Trippin On Air 4:10
09. I Hate 2 Love U 3:41
10. Open Your Heart 4:42
11. The After Party 5:22
12. Magic Flight 3:43
CD 2 (Club Mixes Formula):
01. Stargate 5 5:28
02. Sisters & Brothers (Oliver Adams Dub Mix) 3:07
03. Kinky (2 Fabiola Remix) 4:28
04. Feel The Vibe 3:58
05. Flashback (Nico Parisi Remix) 5:05
06. Magic Flight (Blue Monday Mix) 2:27
07. I Hate 2 Love U (Zohra In Wonderland Mix) 5:18
08. I Feel Like U 6:01
2016 - Evolution
01. She's After My Piano (Remix '16) 2:52
02. Rock It (Original Mix) 3:04
03. Lift U Up (Remix '16) 3:32
04. Beautifull 3:01
05. House Of Doom (TML Remix '15) 2:55
06. Me & U (Radio Mix) 3:18
07. Flashback (Remix 2010) 3:34
08. No Good 3:18
09. Let The Music Play 3:30
10. Push It Up 3:50
11. Doctor Disco 2:56
12. One Night In Dubai 3:9
13. She's After My Piano (Original Extended Mix) 5:7
14. Blow Me Away (Bigga & Bolda Mix) 3:20
15. Release Your Soul 3:13
16. Yes I Know (Tabularasa Mix) 8:32
17. I'm On Fire (Original Mx) 3:41
18. Freak Out (Original Mix) 3:33
19. Lift U Up (Original Mix) 3:27
20. Pat Krimson – Psycho 3:13
21. Loredana - Sky & Sand 3:24
22. Loredana – Ochtendzon 3:26
1995 - Play This Song
01. Play This Song (Radio Mix) 3:56
02. Play This Song (Transformix) 5:35
03. Play This Song (Cybermix) 5:15
04. Rest In Peace 5:41
1995 - Play This Song (Remixes)
01. Play This Song (Additional Vocal Mix) 3:53
02. Play This Song (Radio Mix) 3:56
03. Play This Song (Transformix) 5:35
04. Play This Song (Adams & Krimson Remix) 5:10
05. Play This Song (Cybermix) 5:15
06. Play This Song (Re-Dub Remix) 6:52
07. Play This Song (Virtualrhythm Remix) 5:34
1995 - Lift U Up
01. Lift U Up (Radio Mix) 3:24
02. Lift U Up (Relax Your Body Mix) 5:02
03. Lift U Up (Emotional Mix) 4:45
04. Lift U Up (Trance '96 Mix) 5:02
05. Lift Me Up (Club Mix) 5:10
1996 - I’m On Fire
01. I'm On Fire (Ultimate Radio Mix) 3:40
02. I'm On Fire (Club Mix) 5:03
03. I'm On Fire (Extended Mix) 4:46
04. I'm On Fire (Regg & Arkin Remix) 3:20
05. I'm On Fire (Original Radio Mix) 3:17
06. I'm On Fire (DSP Remix) 4:58
1996 - Universal Love
01. Universal Love 3:25
02. Universal Love (Album Version) 3:25
1997 - Freak Out
01. Freak Out ('97 Remix) 3:34
02. Freak Out (Frank T. Wallace Remix) 5:05
03. I See The Light 5:05
04. Freak Out (Regg & Arkin Remix) 3:35
05. Freak Out (Original Tyfoon Mix) 3:22
1997 - Magic Flight
01. Magic Flight (Blue Monday Mix) 4:36
02. Magic Flight (Don Joan Avantura Mix) 5:02
03. Magic Flight (Regg & Arkin Mix) 3:39
04. Magic Flight (Extended Club Mix) 5:22
05. Magic Flight (Powerplay Radio Mix) 3:42
1998 - Feel The Vibe
01. Feel The Vibe ('99 Airplay Remix) 3:50
02. Feel The Vibe (Pat Krimson '99 Remix) 6:15
1998 - Flashback
01. Flashback (Pat Krimson Mix) 5:32
02. Flashback (Extended Club Mix) 4:33
03. Flashback (Nico Parisi Remix) 5:53
04. Flashback (Adams Speedgarage Mix) 5:09
05. Flashback (Airplay Mix) 3:21
1999 - New Years Day (Feat. Medusa)
01. New Years Day (2000 Radio Mix) 3:30
02. The Afterparty 5:22
2000 - Summer In Space (Feat. Medusa)
01. Summer In Space (Ultra Radio Mix) 3:33
02. Summer In Space (20.000 Miles Away Mix) 5:49

admin

Post 20-May-2021 03:26

[Quote]

Название: The Story Of You And I
Исполнитель: J.K.
Год: 2021
Жанр: Eurodance, Euro-House
Страна: Italy
Лейбл: X-Energy Records
Продолжительность: 00:53:35
Формат/Кодек: FLAC
Битрейт аудио: Lossless

Трек-лист

01. You & I [Classic '95 Remix] (5:00)
02. My Radio [M.B.R.G. Radio Edit] (3:28)
03. You Make Me Feel Good [Radio Edit] (3:58)
04. Go On [Radio Edit] (3:57)
05. Beat It [Radio Edit] (3:57)
06. Deep In The Night [Radio Edit] (3:57)
07. You Got Me Dancing [Radio Edit] (3:34)
08. Hit My Heart [Radio Edit] (3:16)
09. Make Me Feel [Slow Feel Radio Edit] (3:44)
10. Beat It [Andy Cain 2020 Remix] (8:43)
11. Sweet Lady Night [M.B.R.G. Long Version] (5:30)
12. Megamix '96 [Radio Edit] (4:31)

Log

DON'T MODIFY THIS FILE
-----------------------
PERFORMER: auCDtect Task Manager, ver. 1.6.0 RC1 build 1.6.0.1
Copyright (c) 2008-2010 y-soft. All rights reserved
http://y-soft.org
ANALYZER: auCDtect: CD records authenticity detector, version 0.8.2
Copyright (c) 2004 Oleg Berngardt. All rights reserved.
Copyright (c) 2004 Alexander Djourik. All rights reserved.
FILE: 12 - Megamix '96 [Radio Edit].flac
Size: 35289844 Hash: CA174B7A37E2327E15B1AAD55C549413 Accuracy: -m0
Conclusion: MPEG 95%
Signature: 490595D9817A7D4E227239C558FC8D787E3C6F6E
FILE: 11 - Sweet Lady Night [M.B.R.G. Long Version].flac
Size: 37943309 Hash: A39B52F55BCAF0C1484DCC9205EE32A4 Accuracy: -m0
Conclusion: CDDA 100%
Signature: 4FB360B4DC5BE54EBC312C40D6FBE08B483A51D2
FILE: 10 - Beat It [Andy Cain 2020 Remix].flac
Size: 65790186 Hash: 768A80BB2E216F262700537E81DD65E7 Accuracy: -m0
Conclusion: CDDA 99%
Signature: 14B697ED90F88C28449C6AF5C137E0EB5EE302FC
FILE: 09 - Make Me Feel [Slow Feel Radio Edit].flac
Size: 27341222 Hash: F21C8C525EE6855862A500BFBDDC1517 Accuracy: -m0
Conclusion: CDDA 100%
Signature: 0C7D4892EF0CC8D1A3FBCDD982977DBA9ED58C1D
FILE: 08 - Hit My Heart [Radio Edit].flac
Size: 22877798 Hash: DD65F11007912CC919428D6D1032F252 Accuracy: -m0
Conclusion: CDDA 100%
Signature: EB36FAE0D4E1087133F86A23EEB67626F13C04D5
FILE: 07 - You Got Me Dancing [Radio Edit].flac
Size: 25899546 Hash: B4FA8979DE667DFDC3A45DBC0771F789 Accuracy: -m0
Conclusion: CDDA 100%
Signature: 9A432E55EC0BF89F05C0D3E173583F7B95B4628E
FILE: 06 - Deep In The Night [Radio Edit].flac
Size: 30734545 Hash: 4AA4D31918CCCF0E6228F6ECAA86A7E3 Accuracy: -m0
Conclusion: CDDA 100%
Signature: 9F1DC842CD5455114B276DC46C15A0BEDDF1D40F
FILE: 05 - Beat It [Radio Edit].flac
Size: 30832210 Hash: 56F295CF403DED95B5D311F93A4CD9C7 Accuracy: -m0
Conclusion: CDDA 100%
Signature: BC32D080DFA84C5E3819D7492855C8A90B97AA72
FILE: 04 - Go On [Radio Edit].flac
Size: 31217287 Hash: B97A6C07920F4E1520C4C64790D5394B Accuracy: -m0
Conclusion: CDDA 99%
Signature: 7DCED27013601918E82DCDD6D29F292FCA044A64
FILE: 03 - You Make Me Feel Good [Radio Edit].flac
Size: 31379660 Hash: B76D01AD252AD20C14888992957EFE51 Accuracy: -m0
Conclusion: CDDA 100%
Signature: 6A851A6F3B8F31D6F37AE23D647EA28D0B6F52C1
FILE: 02 - My Radio [M.B.R.G. Radio Edit].flac
Size: 26992901 Hash: 14ED129480FF504A25E7BAF667567F7F Accuracy: -m0
Conclusion: CDDA 100%
Signature: 4F5F81406C66E8C57987C32A2518276ECCD76C78
FILE: 01 - You & I [Classic '95 Remix].flac
Size: 40064094 Hash: B60B2F7D0C14FB510218F0A7796B100C Accuracy: -m0
Conclusion: CDDA 100%
Signature: 6AD8F98ADD8E84A591AD2F94BAB33B77869680DD

admin

Post 16-Apr-2021 20:33

[Quote]

Название: Greatest Hits: New Versions & Instrumentals
Исполнитель: DJ BoBo
Год: 2021
Жанр: Eurodance, Pop
Страна: Switzerland
Продолжительность: 03:22:49
Формат/Кодек: FLAC
Битрейт аудио: Lossless

Трек-лист

Greatest Hits - New Versions (Yes Music - 192231522885)
CD 1:
01. Somebody Dance With Me (feat. Kiesza) (2:45)
02. My Life (It's My Life Remix) (feat. Loco Escrito) (3:09)
03. What A Feeling (Filatov & Karas Remix) (feat. Irene Cara) (3:34)
04. Everybody (3:20)
05. Let The Dream Come True (feat. Alex Christensen) (3:24)
06. There Is A Party (3:40)
07. Freedom (3:33)
08. Love Is All Around (2:36)
09. La Vida Es (3:28)
10. Fiesta Loca (2:41)
11. Pray (3:22)
12. Take Control (2:49)
13. Gotta Go (2:56)
14. Secrets Of Love (Retouch) (feat. Sandra) (3:17)
15. Together (3:41)
16. Keep On Dancing (Retouch) (3:28)
17. We Are What We Are (2:25)
18. Superstar (Retouch) (3:38)
19. Vampires Are Alive (Retouch) (3:11)
20. Happy Birthday (Radio Edit) (3:15)
CD 2:
01. Let The Dream Come True (4:01)
02. Everybody (3:48)
03. Somebody Dance With Me (3:32)
04. Freedom (3:56)
05. There Is A Party (4:12)
06. What A Feeling (feat. Irene Cara) (3:19)
07. Take Control (New Version) (3:45)
08. Shadows Of The Night (feat. V.S.O.P.) (3:59)
09. Love Is All Around (4:05)
10. It's My Life (3:51)
11. Chihuahua (3:00)
12. Keep On Dancing (3:31)
13. Secrets Of Love (feat. Sandra) (3:19)
14. Pray (3:52)
15. Where Is Your Love (3:54)
16. 1000 Dreams (3:26)
17. Respect Yourself (3:58)
18. La Vida Es (Radio Version) (3:21)
19. Superstar (3:32)
20. Together (3:41)
Greatest Hits - New Versions (Instrumentals) (Yes Music - 192231522892)
01. Somebody Dance With Me (2:45)
02. My Life (It's My Life Remix) (3:08)
03. What A Feeling (Filatov & Karas Remix) (3:30)
04. Everybody (3:20)
05. Let The Dream Come True (DJ BoBo & Alex Christensen) (3:24)
06. There Is A Party (3:40)
07. Freedom (3:33)
08. Love Is All Around (2:36)
09. La Vida Es (3:28)
10. Fiesta Loca (2:41)
11. Pray (3:22)
12. Take Control (2:49)
13. Gotta Go (2:56)
14. Secrets Of Love (Retouch Instrumental) (3:17)
15. Together (3:41)
16. Keep On Dancing (Retouch Instrumental) (3:28)
17. We Are What We Are (2:25)
18. Superstar (Retouch Instrumental) (3:38)
19. Vampires Are Alive (Retouch Instrumental) (3:11)
20. Happy Birthday (Radio Edit) (3:15)

admin

Post 10-Apr-2021 12:22

[Quote]

Название: Fashion Mix 21 03
Исполнитель: Dj Compressor
Год: 2021
Жанр: Dance
Страна: Россия
Продолжительность: 00:54:30
Формат/Кодек: MP3
Битрейт аудио: 320

Трек-лист

1. Baladeva Balarama - Tuco (Dj Compressor Edit)
2. Cray - Fractions
3. Durante & Hana - Away Home (Mixed & Dj Compressor Edit)
4. Rafael Osmo - Run (Original Mix & Dj Compressor Edit)
5. Simon Field - Shake The Tree
6. Baragula - Starbound (Dj Compressor Edit)
7. Claud - Overnight
8. Don Taylor - Subliminal (Dj Compressor Edit)
9. Martina Budde - Feeling It (Dj Compressor Edit)
10. Smoker - Back To My Planet (Dj Compressor Edit)
11. Bog - Shila (Dj Compressor Edit)
12. Duke Boara - Rain (Anjunadeep 12 Edit (Mixed) & Dj Compressor Edit))
13. Sandro S - Jeko (Original Mix & Dj Compressor Edit)
14. Brian Cid - Jubilee (Dj Compressor Edit)
15. Chemical Disco & Raphael Siqueira & Hadart - Smoke On The Water (Dj Compressor Edit)
16. Solomon Burke - Gotta Travel On
17. Dapa Deep - Useless (Dj Compressor Edit)
18. Karlos Molina - Deci K (Dj Compressor Edit)
19. Suark - Take It Slow (Dj Compressor Edit)
20. Rony Seikaly - Acid Is Coming (Dj Compressor Edit)
21. Fashion Mix 21 03

admin

Post 02-Apr-2021 11:43

[Quote]

Название: Chapter Italo Dance
Исполнитель: Silent Circle
Год: 2021
Страна-производитель: Europe
Аудио кодек: WavPack
Тип рипа: Image+.cue
Жанр: Euro-Disco, Euro-House
Разрядность: 24/192
Продолжительность: 00:47:50
Код класса состояния винила: Mint
Устройство воспроизведения: Denon DP-59M
Головка звукоснимателя: Excel Sound E-70EX
Предварительный усилитель: Luxman E-200 Phono Stage
АЦП: Roland Capture| 6
Программа-оцифровщик: Izotope RX6
Обработка: Izotope RX6 (manual click)

2021 - Chapter Italo Dance (Maschina Records - MASHLP-043)

A1. How Could I Be Right 3:30
A2. Kaido 3:21
A3. Face To Face 3:11
A4. I'm Back To Stay 3:41
A5. Who Took My Girl 3:28
A6. Don't Cry Tonight Stay With Me 3:48
A7. Chalk Is Cheap 3:13
B1. Lost In Space 3:27
B2. In The Air Tonight (Unreleased Version) 3:45
B3. Here Comes The Rain 3:38
B4. Deep In My Heart 3:52
B5. Night After Night (Unreleased Version) 4:10
B6. Touch In The Night 3000 (Album Edit) 3:47

Спектр, АЧХ, Уровень записи

admin

Post 01-Apr-2021 12:19

[Quote]

Название: Дискография
Исполнитель: Mark 'Oh
Год: 1995-2004
Жанр: Eurodance, Rave
Страна: Germany
Продолжительность: 06:35:50
Формат/Кодек: FLAC
Битрейт аудио: Lossless

Трек-лист

1995 - Never Stop That Feeling
01. Oh (Intro) 01:24
02. Love Song (Long version) 05:12
03. Dreaming Of You (U.R.R.Mix) 05:30
04. Tears Don't Lie (Long version) 05:03
05. You Want More? (U.R.R.Mix) 04:02
06. Let's Do It Again 04:07
07. Can You Feel The Rhythm? (U.R.R.Mix) 04:43
08. Friendship (U.R.R.Mix) 04:34
09. How Do I Love You? (U.R.R.Mix) 04:32
10. Randy (Never Stop That Feeling (Original Mix) 04:59
1996 - Magic Power
01. Wake Up And Dream... 01:20
02. The Right Way 05:36
03. Movin' 06:22
04. The Hunt 07:05
05. Fade To Grey 05:37
06. Searching For Love 05:38
07. Lich Lich Shot 06:46
08. I Can't Get No (Wahaha) 06:11
09. The Jazzy Fellows 05:00
10. Rest In Peace 04:32
11. Funky Disco Bus 05:20
12. Tonight's The Night 06:58
13. Magic Power 04:47
1999 - Rebirth
01. The Evidence 01:23
02. Rebirth 03:14
03. Your Love 03:53
04. On The Otherside 03:26
05. Back To Camelot 03:21
06. The Sparrows And The Nightingales 03:18
07. We Are Electric 03:51
08. Should It Begin ... 03:44
09. Forgotten Man 03:22
10. Fallen Angel 03:58
2001 - The Best Of - Never Stopped Livin' That Feeling
01. Never Stop That Feeling 2001 (Video Cut) 03:34
02. Love Song (Original Short Mix) 02:59
03. Tears Don't Lie 2001 03:52
04. Droste Hoerst Du Mich (Original Short Version) 03:41
05. I Can't Get No (Wahaha) (Original Short Version) 03:38
06. Tell Me (Original Radio Edit) 04:07
07. Fade To Grey (Original Radio Version) 03:59
08. The Right Way (Original Radio Edit) 04:11
09. The Team On Tour (Original Short Mix) 03:55
10. The Sparrows And The Nightingales (Original Short Mix) 03:19
11. Your Love (Original Radio Version) 03:43
12. Rebirth (Original Short Mix) 03:16
13. Waves (Original Radio Edit) 03:38
14. Randy (Never Stop That Feeling) (Original Westbam RMX) 05:56
15. Fade To Grey (Original Mark'Oh Remix) 05:34
16. Ultimate (B-Seite Von Tears Don't Lie) 04:05
17. Randy (Never Stop That Feeling) (Original Hardsequencer RMX) 06:16
18. Tears Don't Lie (Original Short Mix) 03:38
2003 - Mark 'Oh (Limited Edition, 2 CD)
CD 1:
01. Where Is Babylon 04:33
02. When The Children Cry 03:54
03. I Surrender 04:58
04. One More Try 05:17
05. Let This Party Never End 03:52
06. Summer Vibes 03:44
07. Rock It 04:56
08. Desire 03:35
09. Face 2 Face 03:47
10. Tokyo Is Calling 04:07
11. Because I Love You 04:10
12. Never Stop That Feeling 03:38
CD 2:
01. Where Is Babylon 07:47
02. I Surrender 07:44
03. Because I Love You (Mark'Oh Rmx) 07:03
04. When The Children Cry 07:58
05. Desire 06:20
06. Let This Party Never End 06:11
07. Summer Vibes 07:36
08. Rock It 06:53
2004 - More Than Words (Limited Edition, 2 CD)
CD 1:
01. More Than Words 03:40
02. You (Album Version) 05:49
03. Stuck On You (Radio Version) 03:59
04. Get Here (Album Version) 05:40
05. Fly Away (Album Version) 04:56
06. Partytime On Planet Earth (Album Version) 07:39
07. I Promise My Love To You (Album Version) 03:45
08. Mystic Symphony (Album Version) 04:14
09. Partytrain (Album Version) 04:04
10. Around The World (Album Version) 04:19
CD 2:
01. Partytrain 03:21
02. I Promise My Love To You 07:02
03. Get Here 07:04
04. Partytime On Planet Earth 08:05
05. Words 07:14
06. Mystic Symphony 05:00
07. You 07:06
08. Fly Away 05:41
09. Stuck On You 06:44
10. Around The World 04:13
2003 - 2004 - Mandy & Randy
Together Forever
01. Nothing's Gonna Stop Us Now 03:20
02. Sunshine 02:59
03. Music Touched My Heart 03:48
04. How Can I Fall 03:49
05. Mandy 03:09
06. Wonderful Land 04:05
07. Everlasting Dream 04:22
08. Let This Party Never End 03:49
09. My Love 03:48
10. Open Your Heart 03:54
11. Together Forever 04:40
Love For Eternity
01. Jump (feat. Skedee Wedee) 03:58
02. You Can Win 03:36
03. Still Believe 03:36
04. Me And You 04:18
05. The Message Is Love 03:33
06. Close To Me 03:34
07. Love For Eternity 03:27
08. A Bird In The Sky 03:18
09. Take My Hand (Have You Seen A Sound) 04:41
10. The Never Ending Story 03:27

admin

Post 01-Sep-2019 16:35

[Quote]

Название: The Zeros Anthology
Исполнитель: Klubbheads
Год: 2019
Жанр: Euro-House, Club, Dance
Продолжительность: 01:56:53
Формат/Кодек: MP3
Битрейт аудио: 320 kbps
Лицензия

Трек-лист

01. Turn Up The Bass (Original Mix) 3:51
02. Hiphopping (Original Mix) 3:25
03. Big Bass Bomb (Original Mix) 3:38
04. Here We Go (Original Mix) 3:13
05. Klubbslang (Original Extended Mix) 6:34
06. Bounce 2 Da Beat (Original Mix) 3:26
07. Bamboo Masters (Original Mix) 5:02
08. Let The Party Begin (Original Mix) 3:35
09. Somebody Skreem! (Original Mix) 3:12
10. M.U.S.I.C. (Original Mix) 5:22
11. Sax-O-Matic (Original Mix) 5:10
12. One Two Three To The Fo' (Original Mix) 5:56
13. I Got The Love (Original Mix) 5:49
14. Don't You Hesitate (Original Mix) 5:39
15. Just For Fun (Original Mix) 5:23
16. You Got Me Hooked (Original Mix) 6:42
17. In The House (Original Mix) 4:42
18. Up In The Air (Original Mix) 5:28
19. Bang To The Beat Of The Drum (Original Mix) 3:59
20. Ubileyniy (Original Mix) 5:32
21. Tomorrow (Original Mix) 3:55
22. Bounce To The Bomb (Original Mix) 4:00
23. Desire (Original Mix) 6:26
24. Mmm Donk (Original Mix) 4:12
25. Zazheeguy (Turn It Up) (Patio Pizza Mix) 2:43

Отчёт Mp3tag

Klubbheads - The Zeros Anthology (2019) | 287,30 MB | Folder Total 1 | 01:56:53 hrs
Folder 001 | Klubbheads - The Zeros Anthology (2019) | Album - Klubbheads - The Zeros Anthology (2019) | 287,30 MB | 25 Files | 01:56:53 hrs
001 | 03:51min | 320kbps CBR | 44100 Hz | Stereo | MP3 | 9,62 MB | 01. Klubbheads - Turn Up The Bass (Original Mix) | Turn Up The Bass (Original Mix)
002 | 03:25min | 320kbps CBR | 44100 Hz | Stereo | MP3 | 8,60 MB | 02. Klubbheads - Hiphopping (Original Mix) | Hiphopping (Original Mix)
003 | 03:38min | 320kbps CBR | 44100 Hz | Stereo | MP3 | 9,10 MB | 03. Klubbheads - Big Bass Bomb (Original Mix) | Big Bass Bomb (Original Mix)
004 | 03:13min | 320kbps CBR | 44100 Hz | Stereo | MP3 | 8,15 MB | 04. Klubbheads - Here We Go (Original Mix) | Here We Go (Original Mix)
005 | 06:34min | 320kbps CBR | 44100 Hz | Stereo | MP3 | 15,83 MB | 05. Klubbheads - Klubbslang (Original Extended Mix) | Klubbslang (Original Extended Mix)
006 | 03:26min | 320kbps CBR | 44100 Hz | Stereo | MP3 | 8,67 MB | 06. Klubbheads - Bounce 2 Da Beat (Original Mix) | Bounce 2 Da Beat (Original Mix)
007 | 05:02min | 320kbps CBR | 44100 Hz | Stereo | MP3 | 12,30 MB | 07. Klubbheads - Bamboo Masters (Original Mix) | Bamboo Masters (Original Mix)
008 | 03:35min | 320kbps CBR | 44100 Hz | Stereo | MP3 | 9,01 MB | 08. Klubbheads - Let The Party Begin (Original Mix) | Let The Party Begin (Original Mix)
009 | 03:12min | 320kbps CBR | 44100 Hz | Stereo | MP3 | 8,11 MB | 09. Klubbheads - Somebody Skreem! (Original Mix) | Somebody Skreem! (Original Mix)
010 | 05:22min | 320kbps CBR | 44100 Hz | Stereo | MP3 | 13,06 MB | 10. Klubbheads - M.U.S.I.C. (Original Mix) | M.U.S.I.C. (Original Mix)
011 | 05:10min | 320kbps CBR | 44100 Hz | Stereo | MP3 | 12,62 MB | 11. Klubbheads - Sax-O-Matic (Original Mix) | Sax-O-Matic (Original Mix)
012 | 05:56min | 320kbps CBR | 44100 Hz | Stereo | MP3 | 14,38 MB | 12. Klubbheads - One Two Three To The Fo' (Original Mix) | One Two Three To The Fo' (Original Mix)
013 | 05:49min | 320kbps CBR | 44100 Hz | Stereo | MP3 | 14,09 MB | 13. Klubbheads - I Got The Love (Original Mix) | I Got The Love (Original Mix)
014 | 05:39min | 320kbps CBR | 44100 Hz | Stereo | MP3 | 13,73 MB | 14. Klubbheads - Don't You Hesitate (Original Mix) | Don't You Hesitate (Original Mix)
015 | 05:23min | 320kbps CBR | 44100 Hz | Stereo | MP3 | 13,12 MB | 15. Klubbheads - Just For Fun (Original Mix) | Just For Fun (Original Mix)
016 | 06:42min | 320kbps CBR | 44100 Hz | Stereo | MP3 | 16,12 MB | 16. Klubbheads - You Got Me Hooked (Original Mix) | You Got Me Hooked (Original Mix)
017 | 04:41min | 320kbps CBR | 44100 Hz | Stereo | MP3 | 11,53 MB | 17. Klubbheads - In The House (Original Mix) | In The House (Original Mix)
018 | 05:28min | 320kbps CBR | 44100 Hz | Stereo | MP3 | 13,29 MB | 18. Klubbheads - Up In The Air (Original Mix) | Up In The Air (Original Mix)
019 | 03:59min | 320kbps CBR | 44100 Hz | Stereo | MP3 | 9,90 MB | 19. Klubbheads - Bang To The Beat Of The Drum (Original Mix) | Bang To The Beat Of The Drum (Original Mix)
020 | 05:32min | 320kbps CBR | 44100 Hz | Stereo | MP3 | 13,46 MB | 20. Klubbheads - Ubileyniy (Original Mix) | Ubileyniy (Original Mix)
021 | 03:55min | 320kbps CBR | 44100 Hz | Stereo | MP3 | 9,77 MB | 21. Klubbheads - Tomorrow (Original Mix) | Tomorrow (Original Mix)
022 | 04:00min | 320kbps CBR | 44100 Hz | Stereo | MP3 | 9,96 MB | 22. Klubbheads - Bounce To The Bomb (Original Mix) | Bounce To The Bomb (Original Mix)
023 | 06:26min | 320kbps CBR | 44100 Hz | Stereo | MP3 | 15,51 MB | 23. Klubbheads - Desire (Original Mix) | Desire (Original Mix)
024 | 04:12min | 320kbps CBR | 44100 Hz | Stereo | MP3 | 10,40 MB | 24. Klubbheads - Mmm Donk (Original Mix) | Mmm Donk (Original Mix)
025 | 02:43min | 320kbps CBR | 44100 Hz | Stereo | MP3 | 7,00 MB | 25. Klubbheads - Zazheeguy (Turn It Up) (Patio Pizza Mix) | Zazheeguy (Turn It Up) (Patio Pizza Mix)

admin

Post 13-Jul-2019 05:14

[Quote]

Название: Dieter feat. Bohlen [Das Mega Album]
Исполнитель: Dieter Bohlen
Год: 2019
Жанр: Pop, Dance
Издание: Sony Music - 19075969592
Источник: Nafta Music
Кодек: FLAC
Битрейт: Lossless
Тип рипа: tracks + .cue
Продолжительность: 00:54:17

Треклист:

01. You're My Heart, You're My Soul (TV-Orchestral-Version)
02. Atlantis Is Calling (S.O.S. for Love) (New DB Version)
03. Cheri, Cheri Lady (New DB Version)
04. Brother Louie (New DB Version)
05. Call My Name (New DB Version)
06. You Can Win If You Want (New DB Version)
07. Midnight Lady (New DB Version)
08. My Bed Is Too Big (New DB Version)
09. Take Me Tonight (New DB Version)
10. Win the Race (New DB Version)
11. Now or Never (New DB Version)
12. We Have a Dream (New DB Version)
13. You're My Heart, You're My Soul (New DB Club-Version)
14. Modern Talking No.1 Hit-Medley 2019 (New DB Version)

Отчёт EAC:

Exact Audio Copy V1.3 from 2. September 2016
EAC extraction logfile from 11. July 2019, 23:11
Dieter Bohlen / Dieter Feat. Bohlen (Das Mega Album)
Used drive : PLEXTOR PX-891SAF PLUS Adapter: 1 ID: 0
Read mode : Secure
Utilize accurate stream : Yes
Defeat audio cache : Yes
Make use of C2 pointers : No
Read offset correction : 6
Overread into Lead-In and Lead-Out : No
Fill up missing offset samples with silence : Yes
Delete leading and trailing silent blocks : No
Null samples used in CRC calculations : Yes
Used interface : Native Win32 interface for Win NT & 2000
Gap handling : Appended to previous track
Used output format : User Defined Encoder
Selected bitrate : 1024 kBit/s
Quality : High
Add ID3 tag : No
Command line compressor : C:Program Files (x86)Exact Audio CopyFlacflac.exe
Additional command line options : -0 -V -T "ARTIST=%artist%" -T "TITLE=%title%" -T "ALBUM=%albumtitle%" -T "DATE=%year%" -T "TRACKNUMBER=%tracknr%" -T "TOTALTRACKS=%numtracks%" -T "GENRE=%genre%" -T "COMMENT=Naftamusic Release!" %source%
TOC of the extracted CD
Track | Start | Length | Start sector | End sector
---------------------------------------------------------
1 | 0:00.00 | 3:46.00 | 0 | 16949
2 | 3:46.00 | 4:01.62 | 16950 | 35086
3 | 7:47.62 | 4:06.01 | 35087 | 53537
4 | 11:53.63 | 3:24.24 | 53538 | 68861
5 | 15:18.12 | 3:44.73 | 68862 | 85734
6 | 19:03.10 | 3:13.16 | 85735 | 100225
7 | 22:16.26 | 4:29.33 | 100226 | 120433
8 | 26:45.59 | 3:44.22 | 120434 | 137255
9 | 30:30.06 | 4:02.60 | 137256 | 155465
10 | 34:32.66 | 3:34.47 | 155466 | 171562
11 | 38:07.38 | 3:16.70 | 171563 | 186332
12 | 41:24.33 | 3:31.67 | 186333 | 202224
13 | 44:56.25 | 3:51.52 | 202225 | 219601
14 | 48:48.02 | 5:28.45 | 219602 | 244246
Track 1
Filename E:Nafta ReleasesDieter Bohlen - Dieter Feat. Bohlen (Das Mega Album 2019)[FLAC] - Naftamusic1 - You're My Heart, You're My Soul (TV-Orchestral-Version).wav
Pre-gap length 0:00:02.00
Peak level 94.6 %
Extraction speed 2.6 X
Track quality 100.0 %
Test CRC 9179258F
Copy CRC 9179258F
Track not present in AccurateRip database
Copy OK
Track 2
Filename E:Nafta ReleasesDieter Bohlen - Dieter Feat. Bohlen (Das Mega Album 2019)[FLAC] - Naftamusic2 - Atlantis Is Calling (S.O.S. for Love) (New DB Version).wav
Pre-gap length 0:00:00.15
Peak level 99.0 %
Extraction speed 3.0 X
Track quality 100.0 %
Test CRC D7220FB8
Copy CRC D7220FB8
Track not present in AccurateRip database
Copy OK
Track 3
Filename E:Nafta ReleasesDieter Bohlen - Dieter Feat. Bohlen (Das Mega Album 2019)[FLAC] - Naftamusic3 - Cheri, Cheri Lady (New DB Version).wav
Pre-gap length 0:00:01.71
Peak level 99.4 %
Extraction speed 2.6 X
Track quality 99.9 %
Test CRC B6AF5FE9
Copy CRC B6AF5FE9
Track not present in AccurateRip database
Copy OK
Track 4
Filename E:Nafta ReleasesDieter Bohlen - Dieter Feat. Bohlen (Das Mega Album 2019)[FLAC] - Naftamusic4 - Brother Louie (New DB Version).wav
Pre-gap length 0:00:01.04
Peak level 99.0 %
Extraction speed 3.4 X
Track quality 100.0 %
Test CRC 04A27196
Copy CRC 04A27196
Track not present in AccurateRip database
Copy OK
Track 5
Filename E:Nafta ReleasesDieter Bohlen - Dieter Feat. Bohlen (Das Mega Album 2019)[FLAC] - Naftamusic5 - Call My Name (New DB Version).wav
Pre-gap length 0:00:00.49
Peak level 99.0 %
Extraction speed 3.6 X
Track quality 100.0 %
Test CRC B3571F73
Copy CRC B3571F73
Track not present in AccurateRip database
Copy OK
Track 6
Filename E:Nafta ReleasesDieter Bohlen - Dieter Feat. Bohlen (Das Mega Album 2019)[FLAC] - Naftamusic6 - You Can Win If You Want (New DB Version).wav
Pre-gap length 0:00:01.27
Peak level 99.9 %
Extraction speed 2.8 X
Track quality 99.9 %
Test CRC 099FED08
Copy CRC 099FED08
Track not present in AccurateRip database
Copy OK
Track 7
Filename E:Nafta ReleasesDieter Bohlen - Dieter Feat. Bohlen (Das Mega Album 2019)[FLAC] - Naftamusic7 - Midnight Lady (New DB Version).wav
Pre-gap length 0:00:01.41
Peak level 94.6 %
Extraction speed 4.1 X
Track quality 100.0 %
Test CRC A4CE3608
Copy CRC A4CE3608
Track not present in AccurateRip database
Copy OK
Track 8
Filename E:Nafta ReleasesDieter Bohlen - Dieter Feat. Bohlen (Das Mega Album 2019)[FLAC] - Naftamusic8 - My Bed Is Too Big (New DB Version).wav
Pre-gap length 0:00:01.29
Peak level 94.6 %
Extraction speed 4.2 X
Track quality 100.0 %
Test CRC 6D468565
Copy CRC 6D468565
Track not present in AccurateRip database
Copy OK
Track 9
Filename E:Nafta ReleasesDieter Bohlen - Dieter Feat. Bohlen (Das Mega Album 2019)[FLAC] - Naftamusic9 - Take Me Tonight (New DB Version).wav
Pre-gap length 0:00:01.20
Peak level 99.8 %
Extraction speed 4.4 X
Track quality 100.0 %
Test CRC DC933FF1
Copy CRC DC933FF1
Track not present in AccurateRip database
Copy OK
Track 10
Filename E:Nafta ReleasesDieter Bohlen - Dieter Feat. Bohlen (Das Mega Album 2019)[FLAC] - Naftamusic10 - Win the Race (New DB Version).wav
Pre-gap length 0:00:01.38
Peak level 97.9 %
Extraction speed 4.5 X
Track quality 100.0 %
Test CRC D018C11E
Copy CRC D018C11E
Track not present in AccurateRip database
Copy OK
Track 11
Filename E:Nafta ReleasesDieter Bohlen - Dieter Feat. Bohlen (Das Mega Album 2019)[FLAC] - Naftamusic11 - Now or Never (New DB Version).wav
Pre-gap length 0:00:01.28
Peak level 99.0 %
Extraction speed 4.6 X
Track quality 100.0 %
Test CRC 1AFB3C8C
Copy CRC 1AFB3C8C
Track not present in AccurateRip database
Copy OK
Track 12
Filename E:Nafta ReleasesDieter Bohlen - Dieter Feat. Bohlen (Das Mega Album 2019)[FLAC] - Naftamusic12 - We Have a Dream (New DB Version).wav
Pre-gap length 0:00:02.18
Peak level 99.0 %
Extraction speed 4.8 X
Track quality 100.0 %
Test CRC E62B4FE4
Copy CRC E62B4FE4
Track not present in AccurateRip database
Copy OK
Track 13
Filename E:Nafta ReleasesDieter Bohlen - Dieter Feat. Bohlen (Das Mega Album 2019)[FLAC] - Naftamusic13 - You're My Heart, You're My Soul (New DB Club-Version).wav
Pre-gap length 0:00:01.62
Peak level 94.6 %
Extraction speed 5.0 X
Track quality 100.0 %
Test CRC 5C82806D
Copy CRC 5C82806D
Track not present in AccurateRip database
Copy OK
Track 14
Filename E:Nafta ReleasesDieter Bohlen - Dieter Feat. Bohlen (Das Mega Album 2019)[FLAC] - Naftamusic14 - Modern Talking No.1 Hit-Medley 2019 (New DB Version).wav
Pre-gap length 0:00:02.15
Peak level 99.6 %
Extraction speed 5.4 X
Track quality 100.0 %
Test CRC 9832C69B
Copy CRC 9832C69B
Track not present in AccurateRip database
Copy OK
None of the tracks are present in the AccurateRip database
No errors occurred
End of status report
==== Log checksum C0E06A4B1AC9F81D4D6293987B2099D51BCD027ADF7EB06839A13EF3C4DE1EA8 ====

admin

Post 05-Jul-2019 21:19

[Quote]

Название: Fashion Mix 19-09
Исполнитель: Dj Compressor
Год: 2019
Жанр: Dance
Страна: Россия
Продолжительность: 01:04:40
Формат/Кодек: MP3
Битрейт аудио: 320

Трек-лист

1. Монас Даша - Титры (Dj Compressor Edit)
2. Arm In Arm - Hunger For Your Vibe (Moonwalk Remix & Dj Compressor Edit)
3. Charlotte Oc - Better Off On My Own
4. Italoconnection - Night City (12' Mix & Dj Compressor Edit)
5. Paula Os - Pearl (Adam Nathan Remix & Dj Compressor Edit)
6. Rnn - Train To The Moon (Original Mix & Dj Compressor Edit)
7. ZZ Top - Can't Stop Rockin' (2019 Remaster)
8. Babert - Upside Down (Extended Mix & Dj Compressor Edit))
9. Dr. Alban - Let The Beat Go On (Kaktuz Remix & Dj Compressor Edit)
10. Post Malone & Sage The Gemini - Wow (BPM Supreme Break Intro)
11. Барских Макс - Берега (Ramirez & Rakurs Remix)
12. Bulow - Sweet Little Lies
13. High Noon At Salinas - Espalmador (Extended Terrace Mix & Dj Compressor Edit)
14. Oliver Anders & Alhambra - Adelante (Terrace Re-Touch)
15. Randy Travis - Highway Junkie
16. Yota - Strangers On Film (Lifelike Remix & Dj Compressor Edit)
17. Chase & Status & New Kidz - Bubble (Dj Compressor Edit)
18. Depeche Mode - Never Let Me Down Again [Tsangarides Mix]
19. Lana Del Rey - Doin' Time
20. Nicky Jam & Ozuna - Te Robare
21. Fashion Mix 19-09

admin

Post 27-May-2019 03:30

[Quote]

Название: Fashion Mix 19-08
Исполнитель: Dj Compressor
Год: 2019
Жанр: Dance
Страна: Россия
Продолжительность: 01:04:00
Формат/Кодек: MP3
Битрейт аудио: 320

Трек-лист

1. Брежнева Вера - Я Не Святая
2. Daniel Glover - Neverlasting (Dj Compressor Edit)
3. Mozaik & Coco - Maria In The Heat (Dj Compressor Edit)
4. X Ambassadors - Baptize Me (Dj Compressor Edit)
5. Carousel - That Night
6. Don't Blink - Break It Down (Original Mix & Dj Compressor Edit)
7. Irson - Если Бы Не Ты
8. Nerutto - Supercharger (Original Mix & Dj Compressor Edit)
9. Yagya - Níundi Stormur (Dj Compressor Edit)
10. Mariano Montori - Connecting The Dots (Original Mix & Dj Compressor Edit)
11. Dj Tarkan & V Sag - Robot City (Tebra Remix & Dj Compressor Edit)
12. Numa Crew & Dub Fx - Basshater (Dj Compressor Edit)
13. Nerso - Limitless Chaos (Dj Compressor Edit)
14. Deep Fog & Cream - Iridium (Plus Thirty Remix & Dj Compressor Edit)
15. Аритмия - Помада (Dj Compressor Edit)
16. James Tw - Incredible
17. Shaggy & Nicky Jam - Body Good (Dj Compressor Edit)
18. Thomas Rhett - Look What God Gave Her
19. Mollono Bass & Ava Asante - Feeling Good (Dj Compressor Edit)
20. Andre Rizo & Oscar - Damsa (Original Mix & Dj Compressor Edit)
21. Fashion Mix 19-08
 

Current time is: 18-Oct 16:43

All times are UTC + 3