Search found 50 matches

Author Message

admin

Post 20-Aug-2021 00:40

[Quote]

Название: Super EuroBeat Megamix
Исполнитель: Ken Laszlo
Год: 2012
Жанр: Italo Disco
Продолжительность: 01:05:30
Формат/Кодек: MP3
Битрейт аудио: 320kbps

Трек-лист

01. Intro
02. Diamonds Never Made A Lady
03. Alright
04. Heart
05. I Love My Geisha
06. Hey Hey Guy dub reload
07. Boys Don`t Cry
08. Happy Song
09. Never Say Never
10. What Is Real
11. Lean On Me
12. Open Your Door
13. My Desire
14. Fantasy
15. Dancing In The Street
16. Tin Box
17. Tokyo Night
18. One More Time
19. I Wanna Shot

admin

Post 13-Jul-2021 02:57

[Quote]

Название: Golden Disco Hits
Исполнитель: Savage
Год: 2002
Жанр: Italo-Disco, Eurodance
Страна: Italy
Продолжительность: 01:19:32
Формат/Кодек: FLAC
Битрейт аудио: Lossless

Трек-лист

01. Only You (3:39)
02. I Just Died In Your Arms (3:25)
03. Computerized Love (3:34)
04. Im Loozing You (3:24)
05. Don't Cry Tonight (3:51)
06. A Love Again (4:28)
07. Radio (4:39)
08. Still I'm Loving You (3:32)
09. Time (4:42)
10. Don't You Want Me (3:49)
11. Don't Leave Me (4:38)
12. Eyes Of The Moon (4:18)
13. Love Is Death (3:52)
14. Fugitive (6:38)
15. A Love Again (Remix) (5:32)
16. Strangelove (3:22)
17. Tonight (3:37)
18. Celebrate (3:10)
19. Goodbye (4:35)

admin

Post 15-Jun-2021 23:21

[Quote]

Название: Masquerade (Les Marionnettes)
Исполнитель: Fancy
Год: 2021
Жанр: Italo Disco, Eurodisco
Продолжительность: 01:01:49
Формат/Кодек: MP3
Битрейт аудио: 320kbps

Треклист

01. I Like Your Smile (3:14)
02. Rockabye Me (3:53)
03. I’m Still A Fool (3:32)
04. Lovers (3:26)
05. Lost In Music (4:01)
06. Take Your Time (3:24)
07. Losing Control (3:13)
08. Tonight (3:18)
09. Can You Feel The Beat (2:30)
10. Summerwine (4:07)
11. Flames Of Love (Bobby To Mix) (3:33)
12. My Way (5:15)
13. I Like Your Smile (Extended) (6:41)
14. Lovers (Extended) (6:02)
15. Flames Of Love (Bobby To Mix Extended) (5:30)

admin

Post 13-Jun-2021 23:13

[Quote]

Название: I Like Your Smile
Исполнитель: Fancy
Год: 2021
Жанр: Italo Disco, Eurodisco
Продолжительность: 00:21:31
Формат/Кодек: MP3
Битрейт аудио: 320kbps

Трек-лист

01. I Like Your Smile
02. I Like Your Smile (Extended)
03. Lovers (Extended)
04. Flames Of Love (Bobby To Mix Extended)

admin

Post 05-Jun-2021 23:24

[Quote]

Название: Greatest Hits
Исполнитель: Toto Cutugno
Страна-производитель диска (релиза): Россия
Жанр: Pop
Год выпуска: 2011
Формат: MP3
Битрейт аудио: 320 kbps
Продолжительность: 02:28:47

Треклист

CD 1 - 01:13:02:


01. L'Italiano
02. Figli
03. Sara
04. Donna Donna Mia
05. La Mia Musica
06. Azzura Malinconia
07. Serenata
08. En Chantand [French Version Of-Cantando]
09. Canzone D'Amore
10. Un Falco Chiuso In Gabbia
11. Innamorati
12. Adulele
13. La Favola Di Debby
14. Soli
15. Gli Amori
16. Voglio L'Anima
17. Maledetto Sogno
18. Tu Sei Mia

CD 2 - 01:15:44:


01. Et Si Tu N'Existais Pas [Oasis]
02. Voici Les Cles [French Version Of-Nel Cuore E Nei Sensi]
03. Solo Noi
04. Anna
05. Voglio Andare A Vivere In Campagna
06. Flash
07. Camminero
08. Le Mamme
09. C'est Veince
10. Simfonia
11. A....Rio
12. Francesca Non Sa
13. Per Te Per Me Per Lui Noi
14. Insieme
15. Emozioni
16. Mademoiselle Ca Va
17. Ill Sognatore
18. 18 Mi Piacerebbe [Andare Al Mare... Al Lunedi]

admin

Post 05-Jun-2021 22:43

[Quote]

Название: Greatest Hits
Исполнитель: Toto Cutugno
Жанр: Pop
Носитель: CD
Страна-производитель диска (релиза): Россия
Год издания: 2011
Издатель (лейбл): Zebra Studio
Страна исполнителя (группы): Italy
Аудиокодек: FLAC (*.flac)
Тип рипа: image+.cue
Битрейт аудио: Lossless
Продолжительность: 02:28:45
Источник (релизер): Рипы с личных CD
Наличие сканов в содержимом раздачи: All Scans 600 DPI

Треклист

CD 1 - 01:13:02:

01. L'Italiano
02. Figli
03. Sara
04. Donna Donna Mia
05. La Mia Musica
06. Azzura Malinconia
07. Serenata
08. En Chantand [French Version Of-Cantando]
09. Canzone D'Amore
10. Un Falco Chiuso In Gabbia
11. Innamorati
12. Adulele
13. La Favola Di Debby
14. Soli
15. Gli Amori
16. Voglio L'Anima
17. Maledetto Sogno
18. Tu Sei Mia

CD 2 - 01:15:44:

01. Et Si Tu N'Existais Pas [Oasis]
02. Voici Les Cles [French Version Of-Nel Cuore E Nei Sensi]
03. Solo Noi
04. Anna
05. Voglio Andare A Vivere In Campagna
06. Flash
07. Camminero
08. Le Mamme
09. C'est Veince
10. Simfonia
11. A....Rio
12. Francesca Non Sa
13. Per Te Per Me Per Lui Noi
14. Insieme
15. Emozioni
16. Mademoiselle Ca Va
17. Ill Sognatore
18. 18 Mi Piacerebbe [Andare Al Mare... Al Lunedi]

Лог создания рипа

CD 1:
Exact Audio Copy V1.0 beta 3 from 29. August 2011
Отчёт EAC об извлечении, выполненном 20. апреля 2015, 20:16
Toto Cutugno / Greatest Hits [CD 1]
Дисковод: Optiarc DVD RW AD-5200S Adapter: 3 ID: 0
Режим чтения : Достоверность
Использование точного потока : Да
Отключение кэша аудио : Да
Использование указателей C2 : Нет
Коррекция смещения при чтении : 48
Способность читать области Lead-in и Lead-out : Нет
Заполнение пропущенных сэмплов тишиной : Да
Удаление блоков с тишиной в начале и конце : Нет
При вычислениях CRC использовались нулевые сэмплы : Да
Интерфейс : Установленный внешний ASPI-интерфейс
Выходной формат : Пользовательский кодировщик
Выбранный битрейт : 32 kBit/s
Качество : Высокий
Добавление ID3-тега : Нет
Утилита сжатия : C:Program FilesExact Audio CopyFLACFLAC.EXE
Дополнительные параметры : -6 -V -T "ARTIST=%artist%" -T "TITLE=%title%" -T "ALBUM=%albumtitle%" -T "DATE=%year%" -T "TRACKNUMBER=%tracknr%" -T "GENRE=%genre%" -T "COMMENT=%comment%" -T "BAND=%albuminterpret%" -T "ALBUMARTIST=%albuminterpret%" -T "COMPOSER=%composer%" %haslyrics%--tag-from-file=LYRICS="%lyricsfile%"%haslyrics% -T "DISCNUMBER=%cdnumber%" -T "TOTALDISCS=%totalcds%" -T "TOTALTRACKS=%numtracks%" %hascover%--picture="%coverfile%"%hascover% %source% -o %dest%
TOC извлечённого CD
Трек | Старт | Длительность | Начальный сектор | Конечный сектор
---------------------------------------------------------------------
1 | 0:00.00 | 4:18.48 | 0 | 19397
2 | 4:18.48 | 4:10.61 | 19398 | 38208
3 | 8:29.34 | 4:01.12 | 38209 | 56295
4 | 12:30.46 | 3:01.35 | 56296 | 69905
5 | 15:32.06 | 4:10.46 | 69906 | 88701
6 | 19:42.52 | 4:20.10 | 88702 | 108211
7 | 24:02.62 | 3:49.65 | 108212 | 125451
8 | 27:52.52 | 4:27.47 | 125452 | 145523
9 | 32:20.24 | 4:38.51 | 145524 | 166424
10 | 36:59.00 | 4:17.13 | 166425 | 185712
11 | 41:16.13 | 3:55.33 | 185713 | 203370
12 | 45:11.46 | 3:48.41 | 203371 | 220511
13 | 49:00.12 | 3:57.35 | 220512 | 238321
14 | 52:57.47 | 4:01.72 | 238322 | 256468
15 | 56:59.44 | 4:18.61 | 256469 | 275879
16 | 61:18.30 | 4:03.08 | 275880 | 294112
17 | 65:21.38 | 3:19.00 | 294113 | 309037
18 | 68:40.38 | 4:20.50 | 309038 | 328587
Характеристики диапазона извлечения и сообщения об ошибках
Выбранный диапазон
Имя файла F:LOSSLESSScansToto Cutugno - Greatest Hits [CD 1].wav
Пиковый уровень 100.0 %
Скорость извлечения 4.5 X
Качество диапазона 100.0 %
CRC теста 485A87DE
CRC копии 485A87DE
Копирование... OK
Ошибок не произошло
AccurateRip: сводка
Трек 1 отсутствует в базе данных
Трек 2 отсутствует в базе данных
Трек 3 отсутствует в базе данных
Трек 4 отсутствует в базе данных
Трек 5 отсутствует в базе данных
Трек 6 отсутствует в базе данных
Трек 7 отсутствует в базе данных
Трек 8 отсутствует в базе данных
Трек 9 отсутствует в базе данных
Трек 10 отсутствует в базе данных
Трек 11 отсутствует в базе данных
Трек 12 отсутствует в базе данных
Трек 13 отсутствует в базе данных
Трек 14 отсутствует в базе данных
Трек 15 отсутствует в базе данных
Трек 16 отсутствует в базе данных
Трек 17 отсутствует в базе данных
Трек 18 отсутствует в базе данных
Ни одного трека нет в базе AccurateRip
Конец отчёта
==== Контрольная сумма отчёта D4F9DAD0FF6531A8601CCB1084B55E5639C1E79284825B82CFDD86051BAF144D ====
CD 2:
Exact Audio Copy V1.0 beta 3 from 29. August 2011
Отчёт EAC об извлечении, выполненном 21. апреля 2015, 5:01
Toto Cutugno / Greatest Hits [CD 2]
Дисковод: Optiarc DVD RW AD-5200S Adapter: 3 ID: 0
Режим чтения : Достоверность
Использование точного потока : Да
Отключение кэша аудио : Да
Использование указателей C2 : Нет
Коррекция смещения при чтении : 48
Способность читать области Lead-in и Lead-out : Нет
Заполнение пропущенных сэмплов тишиной : Да
Удаление блоков с тишиной в начале и конце : Нет
При вычислениях CRC использовались нулевые сэмплы : Да
Интерфейс : Установленный внешний ASPI-интерфейс
Выходной формат : Пользовательский кодировщик
Выбранный битрейт : 32 kBit/s
Качество : Высокий
Добавление ID3-тега : Нет
Утилита сжатия : C:Program FilesExact Audio CopyFLACFLAC.EXE
Дополнительные параметры : -6 -V -T "ARTIST=%artist%" -T "TITLE=%title%" -T "ALBUM=%albumtitle%" -T "DATE=%year%" -T "TRACKNUMBER=%tracknr%" -T "GENRE=%genre%" -T "COMMENT=%comment%" -T "BAND=%albuminterpret%" -T "ALBUMARTIST=%albuminterpret%" -T "COMPOSER=%composer%" %haslyrics%--tag-from-file=LYRICS="%lyricsfile%"%haslyrics% -T "DISCNUMBER=%cdnumber%" -T "TOTALDISCS=%totalcds%" -T "TOTALTRACKS=%numtracks%" %hascover%--picture="%coverfile%"%hascover% %source% -o %dest%
TOC извлечённого CD
Трек | Старт | Длительность | Начальный сектор | Конечный сектор
---------------------------------------------------------------------
1 | 0:00.00 | 4:24.45 | 0 | 19844
2 | 4:24.45 | 4:11.45 | 19845 | 38714
3 | 8:36.15 | 4:05.61 | 38715 | 57150
4 | 12:42.01 | 3:53.54 | 57151 | 74679
5 | 16:35.55 | 4:27.39 | 74680 | 94743
6 | 21:03.19 | 3:17.62 | 94744 | 109580
7 | 24:21.06 | 4:20.08 | 109581 | 129088
8 | 28:41.14 | 4:12.04 | 129089 | 147992
9 | 32:53.18 | 4:28.29 | 147993 | 168121
10 | 37:21.47 | 4:35.61 | 168122 | 188807
11 | 41:57.33 | 3:43.52 | 188808 | 205584
12 | 45:41.10 | 3:37.63 | 205585 | 221922
13 | 49:18.73 | 4:29.32 | 221923 | 242129
14 | 53:48.30 | 4:29.31 | 242130 | 262335
15 | 58:17.61 | 4:11.13 | 262336 | 281173
16 | 62:28.74 | 4:16.71 | 281174 | 300444
17 | 66:45.70 | 4:25.05 | 300445 | 320324
18 | 71:11.00 | 4:32.28 | 320325 | 340752
Характеристики диапазона извлечения и сообщения об ошибках
Выбранный диапазон
Имя файла F:LOSSLESSScansToto Cutugno - Greatest Hits [CD 2].wav
Пиковый уровень 100.0 %
Скорость извлечения 4.5 X
Качество диапазона 100.0 %
CRC теста 4EBE4DEB
CRC копии 4EBE4DEB
Копирование... OK
Ошибок не произошло
AccurateRip: сводка
Трек 1 отсутствует в базе данных
Трек 2 отсутствует в базе данных
Трек 3 отсутствует в базе данных
Трек 4 отсутствует в базе данных
Трек 5 отсутствует в базе данных
Трек 6 отсутствует в базе данных
Трек 7 отсутствует в базе данных
Трек 8 отсутствует в базе данных
Трек 9 отсутствует в базе данных
Трек 10 отсутствует в базе данных
Трек 11 отсутствует в базе данных
Трек 12 отсутствует в базе данных
Трек 13 отсутствует в базе данных
Трек 14 отсутствует в базе данных
Трек 15 отсутствует в базе данных
Трек 16 отсутствует в базе данных
Трек 17 отсутствует в базе данных
Трек 18 отсутствует в базе данных
Ни одного трека нет в базе AccurateRip
Конец отчёта
==== Контрольная сумма отчёта C69B1680C350E2FA02E849A964AB5370B7BF7337BD017B1ECA8B32D31D397DF3 ====

Содержание индексной карты (.CUE)

CD 1:
REM GENRE Pop
REM DATE 2011
REM DISCID EF111D12
REM COMMENT "ExactAudioCopy v1.0b3"
PERFORMER "Toto Cutugno"
TITLE "Greatest Hits [CD 1]"
FILE "Toto Cutugno - Greatest Hits [CD 1].flac" WAVE
TRACK 01 AUDIO
TITLE "L'Italiano"
PERFORMER "Toto Cutugno"
INDEX 01 00:00:00
TRACK 02 AUDIO
TITLE "Figli"
PERFORMER "Toto Cutugno"
INDEX 01 04:18:48
TRACK 03 AUDIO
TITLE "Sara"
PERFORMER "Toto Cutugno"
INDEX 01 08:29:34
TRACK 04 AUDIO
TITLE "Donna Donna Mia"
PERFORMER "Toto Cutugno"
INDEX 01 12:30:46
TRACK 05 AUDIO
TITLE "La Mia Musica"
PERFORMER "Toto Cutugno"
INDEX 01 15:32:06
TRACK 06 AUDIO
TITLE "Azzura Malinconia"
PERFORMER "Toto Cutugno"
INDEX 01 19:42:52
TRACK 07 AUDIO
TITLE "Serenata"
PERFORMER "Toto Cutugno"
INDEX 01 24:02:62
TRACK 08 AUDIO
TITLE "En Chantand [French Version Of-Cantando]"
PERFORMER "Toto Cutugno"
INDEX 01 27:52:52
TRACK 09 AUDIO
TITLE "Canzone D'Amore"
PERFORMER "Toto Cutugno"
INDEX 01 32:20:24
TRACK 10 AUDIO
TITLE "Un Falco Chiuso In Gabbia"
PERFORMER "Toto Cutugno"
INDEX 01 36:59:00
TRACK 11 AUDIO
TITLE "Innamorati"
PERFORMER "Toto Cutugno"
INDEX 01 41:16:13
TRACK 12 AUDIO
TITLE "Adulele"
PERFORMER "Toto Cutugno"
INDEX 01 45:11:46
TRACK 13 AUDIO
TITLE "La Favola Di Debby"
PERFORMER "Toto Cutugno"
INDEX 01 49:00:12
TRACK 14 AUDIO
TITLE "Soli"
PERFORMER "Toto Cutugno"
INDEX 01 52:57:47
TRACK 15 AUDIO
TITLE "Gli Amori"
PERFORMER "Toto Cutugno"
INDEX 01 56:59:44
TRACK 16 AUDIO
TITLE "Voglio L'Anima"
PERFORMER "Toto Cutugno"
INDEX 01 61:18:30
TRACK 17 AUDIO
TITLE "Maledetto Sogno"
PERFORMER "Toto Cutugno"
INDEX 01 65:21:38
TRACK 18 AUDIO
TITLE "Tu Sei Mia"
PERFORMER "Toto Cutugno"
INDEX 01 68:40:38
CD 2:
REM GENRE Pop
REM DATE 2011
REM DISCID 1011BF12
REM COMMENT "ExactAudioCopy v1.0b3"
PERFORMER "Toto Cutugno"
TITLE "Greatest Hits [CD 2]"
FILE "Toto Cutugno - Greatest Hits [CD 2].flac" WAVE
TRACK 01 AUDIO
TITLE "Et Si Tu N'Existais Pas [Oasis]"
PERFORMER "Toto Cutugno"
INDEX 01 00:00:00
TRACK 02 AUDIO
TITLE "Voici Les Cles [French Version Of-Nel Cuore E Nei Sensi]"
PERFORMER "Toto Cutugno"
INDEX 00 04:23:45
INDEX 01 04:24:45
TRACK 03 AUDIO
TITLE "Solo Noi"
PERFORMER "Toto Cutugno"
INDEX 00 08:35:15
INDEX 01 08:36:15
TRACK 04 AUDIO
TITLE "Anna"
PERFORMER "Toto Cutugno"
INDEX 00 12:41:01
INDEX 01 12:42:01
TRACK 05 AUDIO
TITLE "Voglio Andare A Vivere In Campagna"
PERFORMER "Toto Cutugno"
INDEX 00 16:34:55
INDEX 01 16:35:55
TRACK 06 AUDIO
TITLE "Flash"
PERFORMER "Toto Cutugno"
INDEX 00 21:02:19
INDEX 01 21:03:19
TRACK 07 AUDIO
TITLE "Camminero"
PERFORMER "Toto Cutugno"
INDEX 00 24:20:06
INDEX 01 24:21:06
TRACK 08 AUDIO
TITLE "Le Mamme"
PERFORMER "Toto Cutugno"
INDEX 00 28:40:14
INDEX 01 28:41:14
TRACK 09 AUDIO
TITLE "C'est Veince"
PERFORMER "Toto Cutugno"
INDEX 00 32:52:18
INDEX 01 32:53:18
TRACK 10 AUDIO
TITLE "Simfonia"
PERFORMER "Toto Cutugno"
INDEX 00 37:20:47
INDEX 01 37:21:47
TRACK 11 AUDIO
TITLE "A....Rio"
PERFORMER "Toto Cutugno"
INDEX 00 41:56:33
INDEX 01 41:57:33
TRACK 12 AUDIO
TITLE "Francesca Non Sa"
PERFORMER "Toto Cutugno"
INDEX 00 45:40:10
INDEX 01 45:41:10
TRACK 13 AUDIO
TITLE "Per Te Per Me Per Lui Noi"
PERFORMER "Toto Cutugno"
INDEX 00 49:17:73
INDEX 01 49:18:73
TRACK 14 AUDIO
TITLE "Insieme"
PERFORMER "Toto Cutugno"
INDEX 00 53:47:30
INDEX 01 53:48:30
TRACK 15 AUDIO
TITLE "Emozioni"
PERFORMER "Toto Cutugno"
INDEX 00 58:16:61
INDEX 01 58:17:61
TRACK 16 AUDIO
TITLE "Mademoiselle Ca Va"
PERFORMER "Toto Cutugno"
INDEX 00 62:27:74
INDEX 01 62:28:74
TRACK 17 AUDIO
TITLE "Ill Sognatore"
PERFORMER "Toto Cutugno"
INDEX 00 66:44:70
INDEX 01 66:45:70
TRACK 18 AUDIO
TITLE "18 Mi Piacerebbe [Andare Al Mare... Al Lunedi]"
PERFORMER "Toto Cutugno"
INDEX 00 71:10:00
INDEX 01 71:11:00

admin

Post 04-Jun-2021 01:36

[Quote]

Название: Greatest Hits & Remixes: Vol. 2
Исполнитель: Savage
Год: 2021
Страна-производитель: Germany
Аудио кодек: FLAC
Тип рипа: Tracks
Жанр: Italo-Disco, Electronic, Pop
Разрядность: 24/88.2
Продолжительность: 00:49:17
Код класса состояния винила: Mint
Устройство воспроизведения: SONY PS-X800
Головка звукоснимателя: SHURE V15VxMR
Предварительный усилитель: Pro-Ject Phono Box RS
АЦП: TASCAM DA-3000
Программа-оцифровщик: Adobe Audition
Обработка: Не производилась

2021 - Greatest Hits & Remixes (ZYX Music ‎– ZYX 23039-1)

A1 Don't Cry Tonight (Maxi Version) 7:05
A2 So Close (Long Version) 6:40
A3 A Love Again (Maxi Version) 5:24
A4 I Just Died In Your Arms (Extended Version) 5:35
B1 Only You (Extended Version) 6:58
B2 I'm Losing You (Extended Version) 6:12
B3 Radio (Maxi Version) 5:00
B4 Goodbye (Extended Version) 6:40

Спектр, АЧХ, Уровень записи

admin

Post 04-Jun-2021 01:29

[Quote]

Название: Greatest Hits & Remixes
Исполнитель: Savage
Год: 2016
Страна-производитель: Germany
Аудио кодек: FLAC
Тип рипа: Tracks
Жанр: Italo-Disco, Electronic, Pop
Разрядность: 24/192
Продолжительность: 00:46:50
Код класса состояния винила: Mint
Устройство воспроизведения: SONY PS-X800
Головка звукоснимателя: ORTOFON 2M Black
Предварительный усилитель: YAMAHA C-4
АЦП: TASCAM DA-3000
Программа-оцифровщик: Adobe Audition
Обработка: Удалены щелчки в паузах

2016 - Greatest Hits & Remixes (ZYX Music ‎– ZYX 21097-1)

A1 Don't Cry Tonight (7" Version) 3:30
A2 A Love Again (Radio Version) 4:36
A3 Only You (Radio Version) 3:49
A4 I'm Losing You (Radio Version) 3:25
A5 Goodbye (Radio Version) 4:38
A6 Celebrate (Radio Version) 3:13
B1 Radio (Radio Version) 4:44
B2 So Close (Radio Version) 3:28
B3 Love Is Death (Radio Version) 3:52
B4 I Just Died In Your Arms (Single Version) 3:29
B5 Fugitive (7" Version) 3:24
B6 Time (Radio Version) 4:42

Спектр, АЧХ, Уровень записи

admin

Post 20-Apr-2021 21:53

[Quote]

Название: Gentleman
Исполнитель: Digitalo
Год: 2021
Жанр: Italo-Disco, Euro-Disco, Synthpop
Страна: Russia
Продолжительность: 00:55:17
Формат/Кодек: FLAC
Битрейт аудио: Lossless|WEB
Тип рипа: tracks

Трек-лист

01. Gentleman (3:35)
02. In Australia (Remaster) (3:40)
03. Star Girl (Mix 2021) (4:33)
04. Taxi (Remaster) (4:37)
05. Don't Play (feat. S. Kalugin) (Mix 2021) (5:11)
06. Golden Ten (Mix 2021) (3:45)
07. Dancing In The Rain (Mix 2021) (4:14)
08. Superhero (4:07)
09. Just For Us (4:37)
10. Shining (Remaster) (3:43)
11. Time To Love (Mix 2021) (3:45)
12. Digital Whore (4:39)
13. Alien (4:57)

admin

Post 19-Apr-2021 21:06

[Quote]

Название: Greatest Hits & Remixes [2 CD]
Исполнитель: Plastic Mode
Год: 2021
Жанр: Italo-Disco
Страна: Italy
Лейбл: ZYX Music
Продолжительность: 01:46:44
Формат/Кодек: MP3
Битрейт аудио: 320 kbps

Трек-лист

CD 1:
01. Mi Amor (7“ Version)
02. A Jazzy Woman (7“ Version)
03. Digitally (7“ Version Zyx Edit)
04. Summer Time (Album Version)
05. Baja Imperial (Album Version)
06. Mi Amor (7“ U.S. Remix Zyx Edit)
07. N.Y. Life (7“ Version Zyx Edit)
08. Baja Imperial (7“ U.S. Remix Zyx Edit)
09. A Jazzy Woman (Album Version)
Flemming Dalum Short Megamix
10.0. Flemming Dalum Short Megamix (Mi Amor)
10.1. Flemming Dalum Short Megamix (Baja Imperial)
10.2. Flemming Dalum Short Megamix (N.Y. Life)
10.3. Flemming Dalum Short Megamix (Summer Tim)
CD 2:
01. Mi Amor (12“ Version)
02. Baja Imperial (U.S. Remix)
03. N.Y. Life (Vocal Version)
04. A Jazzy Woman (12“ Version)
05. Baja Imperial (Maxi Version)
06. Digitally
07. Mi Amor (U.S. Remix)
08. N.Y. Life (Instrumental)
09. Baja Imperial (12“ Version)
Flemming Dalum Long Megamix
10.0. Flemming Dalum Long Megamix (Mi Amor)
10.1. Flemming Dalum Long Megamix (Baja Imperial)
10.2. Flemming Dalum Long Megamix (N.Y. Life)
10.3. Flemming Dalum Long Megamix (Summer Time)

admin

Post 19-Apr-2021 20:48

[Quote]

Название: Only One We're Need Is Love
Исполнитель: Soulya ID
Год: 2021
Жанр: Italo-Disco, Euro-Disco
Страна: Россия
Продолжительность: 01:03:51
Формат/Кодек: FLAC
Битрейт аудио: Lossless|WEB
Тип рипа: tracks

Трек-лист

01. Intro (0:43)
02. Vampirella's Song (Remastered) (5:27)
03. Everybody (Remastered) (5:19)
04. When I'll See The Sea (Mix 2021) (4:25)
05. Beloved Boy (Remastered) (4:07)
06. Disco Boy (Remastered) (5:14)
07. When You Call My Name (Remastered) (4:39)
08. One, Two, Three... (Remastered) (3:48)
09. Only You And Me (Remastered) (4:56)
10. You Say (Remastered) (3:48)
11. Lie (Remastered) (5:38)
12. Tell Me Why (Remastered) (5:49)
13. Only One We're Need Is Love (Remastered) (5:12)
14. Buongiorno, Italia! (4:12)
15. Outro (0:43)
Дополнительная информация: Анна Сулицына - музыкант, композитор, аранжировщик, певица с мощным голосом, удивительно красивым тембром, преподаватель вокала в Екатеринбургском Театральном Институте, художественный руководитель творческой студии МЧС России г. Екатеринбурга.
Интересно, что Анна является автором одного из вариантов гимна Сочинской олимпиады 2014 года. победившего на конкурсе Авто радио. В последствии этот гимн был записан певицей Валерией.
Один из сольных проектов Анны - SOULYA ID - возник в 2014 году вслед за проектами D. White и DIGITALO, с которыми Анна сотрудничала в качестве автора музыки и текстов и бэк-вокалистки. Автор и исполнитель Анна Сулицына имеет большой опыт в создании качественной музыки. Профессиональный вокалист, аранжировщик, автор музыки и текстов, резидент sound production studio Master of Dreams.

admin

Post 19-Apr-2021 20:00

[Quote]

Название: Where Were You Last Night
Исполнитель: Ankie Bagger
Год: 1990
Жанр: Italo-Disco, Europop, Italodance
Страна: Sweden
Продолжительность: 00:47:57
Формат/Кодек: FLAC
Битрейт аудио: Lossless
Тип рипа: image + .cue
Рип: bvstudio

Трек-лист

01. Where Were You Last Night (4:12)
02. I Was Made For Loving You (4:02)
03. There's No Reason (3:39)
04. Dance The Night Away (3:43)
05. People Say It's In The Air (3:30)
06. Don't You Know Don't You Know (4:54)
07. In My House (3:49)
08. Love Really Hurts Without You (3:29)
09. It's You (4:02)
10. Relax (4:51)
11. Where Were You Last Night (Remix) (7:50)
Дополнительная информация: Ankie - шведская певица, которая начинала выступать в группе Lili & Sussie. Первый успех пришёл с хитом People Say It's In The Air в 1988-ом году, а затем последовали и главные её шлягеры - Where Were You Last Night и I Was Made For Loving You.

admin

Post 09-Apr-2021 13:54

[Quote]

Название: Love Is Blind [Songs from the Motion Picture Pretty Boy]
Исполнитель: Mirko Hirsch
Год: 2021
Жанр: Synthpop, Italo-Disco, AOR
Страна: Germany
Продолжительность: 00:39:05
Формат/Кодек: FLAC
Битрейт аудио: Lossless|WEB
Тип рипа: tracks

Трек-лист

01. Love Is Blind (Long Version) (3:57)
02. Return to Neon (Alternate Ending) (4:37)
03. King Without a Crown (6:12)
04. When Love Said No (4:23)
05. Like Lovers Do (4:32)
06. Let's Dance (Remastered) (6:46)
07. Heaven in Your Eyes (Long Version) (5:15)
08. Love Is Blind: The Sequel (Pretty Boy End Credits) (3:27)

admin

Post 31-Mar-2021 14:51

[Quote]

Название: Starry Night
Исполнитель: Mflex Sounds
Год: 2021
Жанр: Italo Disco
Страна: Hungary
Продолжительность: 00:55:39
Формат/Кодек: MP3
Битрейт аудио: 320 Kbps

Трек-лист

01 - All Night [00:06:11]
02 - Starry Night [00:06:29]
03 - The Last One [00:07:41]
04 - Lost [00:08:07]
05 - Not War (Think Again) [00:06:40]
06 - Invisible Love [00:06:34]
07 - Rain [00:06:33]
08 - My Angel [00:07:22]

admin

Post 31-Mar-2021 14:49

[Quote]

Название: Right Time
Исполнитель: AlimkhanOV A.
Год: 2021
Жанр: Italo, Euro Disco
Страна: Russian Federation
Продолжительность: 00:59:27
Формат/Кодек: MP3
Битрейт аудио: 320 Kbps

Трек-лист

01.Right Time
02.Eyes Of Delight
03.Lonely
04.Hot Nights In The City
05.You're My Fantasy Of Love.
06.Ocean of Fantasy
07.Come Back
08.Battle Cry
09.My Beautiful Sun
10.Cherry On The Top
11.Let Me Dream
 

Current time is: 28-Oct 12:16

All times are UTC + 3