Search found 179 matches

Author Message

admin

Post Today 05:12

[Quote]

Название: Карма
Исполнитель: Ольга Пульга
Год: 2021
Жанр: Поп
Продолжительность: 00:27:57
Формат/Кодек: MP3
Битрейт аудио: 320kbps

Трек-лист

01. Шепотом
02. И лишь ветер
03. На свет
04. В старом замке
05. Серый лес
06. Заболела
07. Мой мир
08. Война
09. На свет

admin

Post Today 05:10

[Quote]

Название: Осень Золотая
Исполнитель: Король Лир
Год: 2021
Жанр: Поп
Продолжительность: 00:37:01
Формат/Кодек: MP3
Битрейт аудио: 320kbps

Трек-лист

01. Пьяный разговор
02. Осень золотая
03. Признание
04. Не хочу такую знать
05. Сон
06. Поговорим
07. Девчонка
08. Ангел хранитель

admin

Post Today 05:07

[Quote]

Название: 18 плюс
Исполнитель: Юлия Holod
Год: 2021
Жанр: Поп
Продолжительность: 00:23:21
Формат/Кодек: MP3
Битрейт аудио: 320kbps

Трек-лист

01. 18 плюс
02. Анальгин
03. Ау
04. Все Вино На Себя
05. Двигайся
06. Дип Тип
07. До Луны
08. Зачем
09. Плохо Себя Вести

admin

Post Today 05:05

[Quote]

Название: Девочка, не плачь
Исполнитель: Артём Качер
Год: 2022
Жанр: Pop
Страна: Россия
Продолжительность: 00:23:28
Формат/Кодек: MP3
Битрейт аудио: 320 kbps

Трек-лист

01. Девочка, не плачь
02. Пьёшь и танцуешь
03. Из-за тебя
04. Один на один (Interlude)
05. Один на один
06. До луны и обратно
07. 100 проблем
08. Материк (feat Ани Лорак)
09. Последний поцелуй

admin

Post 26-Jan-2022 05:43

[Quote]

Название: So Wrong
Исполнитель: Magic Island
Год: 2021
Жанр: Indie-Pop
Страна: Germany
Продолжительность: 00:43:57
Формат/Кодек: MP3
Битрейт аудио: 320 kbps

Трек-лист

01. Intro (01:05)
02. So Wrong (03:53)
03. Wicked Game (03:22)
04. Jeopardize (04:15)
05. Shoot to Kill (03:51)
06. Bury Me Alive (02:12)
07. All or Nothing (02:43)
08. Empire of Desire (02:47)
09. So Right (03:10)
10. Give N Take (03:22)
11. Lovesong for a Broken Heart (03:17)
12. Million Ways (02:54)
13. Closer (03:38)
14. Gonna Hurry (03:28)

admin

Post 26-Jan-2022 05:31

[Quote]

Информация
Название: Кабаре-дуэт Академия - Свадьба
Год выхода: 1997
Жанр: Pop
Исполнитель: Лолита Милявская и Александр Цекало
В ролях: Лолита Милявская, Александр Цекало и комик-труппа "Маски"
О концерте:
Концерт в ГЦКЗ "Россия" 1997 года.

Трек-лист

01. Вступление
02. Жених и невеста
03. Ты не тот и я не та
04. Розовые сны
05. Бог за ниточку ведет
06. Мальчик из джаза
07. Фасон
08. На ты со мною вы не говорите
09. Я обиделась
10. Эти бледные розы
11. Месяц из тумана
12. Не говори до свидания
14. Не смотря - не смотри
15. Что со мной
16. Ты снишься мне
17. Зараза
18. Финал
19. Финальные титры
Страна: Россия
Продолжительность: 01:30:36
Перевод: не требуется
Файл
Кодек: h.264
Качество: VHSRip
Видео: 768x576 (4:3), 25 fps, MPEG-4 AVC, 2500 kbps
Звук: 48 kHz, AAC, 2/0 (L,R) ch, 256 kbps
Семпл

MediaInfo

General
Unique ID : 4806075051452217223434025582639875157 (0x39D9DCB734C11ACC6999C3F866A8455)
Complete name : /Users/schloss/Downloads/Кабаре-дуэт Академия - Свадьба (1997 VHS).mkv
Format : Matroska
Format version : Version 4
File size : 1.75 GiB
Duration : 1 h 30 min
Overall bit rate : 2 759 kb/s
Movie name : Кабаре-дуэт Академия - Свадьба (1997 VHS)
Encoded date : UTC 2022-01-24 19:44:27
Writing application : mkvmerge v61.0.0 ('So') 64-bit
Writing library : libebml v1.4.2 + libmatroska v1.6.4
Attachments : akademia-svadba-1.jpg
Video
ID : 1
Format : AVC
Format/Info : Advanced Video Codec
Format profile : High@L4.2
Format settings : CABAC / 15 Ref Frames
Format settings, CABAC : Yes
Format settings, Reference frames : 15 frames
Codec ID : V_MPEG4/ISO/AVC
Duration : 1 h 30 min
Bit rate : 2 500 kb/s
Width : 768 pixels
Height : 576 pixels
Display aspect ratio : 4:3
Frame rate mode : Constant
Frame rate : 25.000 FPS
Color space : YUV
Chroma subsampling : 4:2:0
Bit depth : 8 bits
Scan type : Progressive
Bits/(Pixel*Frame) : 0.226
Stream size : 1.58 GiB (91%)
Title : Core Media Video
Writing library : x264 core 161 r3049 55d517b
Encoding settings : cabac=1 / ref=16 / deblock=1:0:0 / analyse=0x3:0x111 / me=umh / subme=11 / psy=1 / psy_rd=0.80:0.20 / mixed_ref=1 / me_range=24 / chroma_me=1 / trellis=2 / 8x8dct=1 / cqm=0 / deadzone=21,11 / fast_pskip=0 / chroma_qp_offset=-3 / threads=28 / lookahead_threads=4 / sliced_threads=0 / nr=0 / decimate=1 / interlaced=0 / bluray_compat=0 / constrained_intra=0 / bframes=16 / b_pyramid=1 / b_adapt=2 / b_bias=0 / direct=2 / weightb=1 / open_gop=0 / weightp=2 / keyint=250 / keyint_min=25 / scenecut=40 / intra_refresh=0 / rc_lookahead=40 / rc=2pass / mbtree=1 / bitrate=2500 / ratetol=1.0 / qcomp=0.50 / qpmin=0 / qpmax=51 / qpstep=4 / cplxblur=20.0 / qblur=0.5 / vbv_maxrate=62500 / vbv_bufsize=78125 / nal_hrd=none / filler=0 / ip_ratio=1.40 / aq=3:1.00
Default : Yes
Forced : Yes
Color range : Limited
Matrix coefficients : BT.709
Audio
ID : 2
Format : AAC LC
Format/Info : Advanced Audio Codec Low Complexity
Codec ID : A_AAC-2
Duration : 1 h 30 min
Bit rate : 256 kb/s
Channel(s) : 2 channels
Channel layout : L R
Sampling rate : 48.0 kHz
Frame rate : 46.875 FPS (1024 SPF)
Compression mode : Lossy
Stream size : 166 MiB (9%)
Title : AAC
Language : Russian
Default : Yes
Forced : No
Menu
00:00:00.000 : Вступление
00:00:40.880 : Жених и невеста
00:05:02.440 : Ты не тот и я не та
00:11:25.920 : Розовые сны
00:18:41.960 : Бог за ниточку ведет
00:23:19.120 : Мальчик из джаза
00:28:40.080 : Фасон
00:35:39.320 : На ты со мною вы не говорите
00:38:56.200 : Я обиделась
00:43:23.120 : Эти бледные розы
00:48:24.120 : Месяц из тумана
00:54:49.120 : Не говори до свидания
01:00:10.520 : Дом на высокой горе
01:05:15.240 : Не смотря - не смотри
01:11:09.640 : Что со мной
01:15:44.120 : Ты снишься мне
01:21:05.600 : Зараза
01:24:56.160 : Финал
01:29:34.480 : Финальные титры

Скриншоты

admin

Post 26-Jan-2022 05:19

[Quote]

Название: Ягода малинка
Исполнитель: Хабиб
Год: 2021
Жанр: Pop
Страна: Russia
Продолжительность: 00:51:10
Формат/Кодек: FLAC
Тип рипа: Tracks
Битрейт аудио: Lossless
Носитель: WEB Deezer

Трек-лист

01. Ягода малинка
02. Разрывная
03. Грустинка
04. Дискотанцы (Feat. Galibri & Mavik)
05. На 4 этаже
06. Моменты (Feat. Коля Кировский)
07. Девчонка со двора
08. Беги (Feat. DJ Smash)
09. Ой, мороз
10. Открытка (Feat. Ваня Дмитриенко)
11. Черноглазая
12. Дискотека
13. Шантай
14. Недотрога
15. Лето любовь
16. Половина моя (Feat. Артём)
17. Дикая
18. Эйя
19. Фосфор
20. Моё сердце с тобой (Feat. Евгения Майер)

Лог проверки качества
-----------------------
DON'T MODIFY THIS FILE
-----------------------
PERFORMER: auCDtect Task Manager, ver. 1.6.0 RC1 build 1.6.0.1
Copyright (c) 2008-2010 y-soft. All rights reserved
http://y-soft.org
ANALYZER: auCDtect: CD records authenticity detector, version 0.8.2
Copyright (c) 2004 Oleg Berngardt. All rights reserved.
Copyright (c) 2004 Alexander Djourik. All rights reserved.
FILE: 01. Ягода малинка.flac
Size: 18473414 Hash: 3FAD514D24EB65C539DE330700A18728 Accuracy: -m8
Conclusion: CDDA 100%
Signature: AFA24457DFD163520985CE44B972212A4A94BC6B
FILE: 02. Разрывная.flac
Size: 14692117 Hash: 3BF58B3063F7CFE9FE279E04027C3EFF Accuracy: -m8
Conclusion: CDDA 100%
Signature: FFAB0E91D59C986BF2FF3CECE9D5AA62EB93D0A4
FILE: 03. Грустинка.flac
Size: 17417904 Hash: 50DD9FB65C1219DB5790EF25722FF0C0 Accuracy: -m8
Conclusion: CDDA 100%
Signature: 584EC6E8E97AC8360A9B8C785954FD35C6D5E583
FILE: 04. Дискотанцы (Feat. Galibri & Mavik).flac
Size: 18782190 Hash: 71D8E9F98A67828D7F07AADAF214A303 Accuracy: -m8
Conclusion: CDDA 100%
Signature: D76D47CB10B7298542C1EAEE1CA146F97CA37BCD
FILE: 05. На 4 этаже.flac
Size: 18084950 Hash: 78AFB88ACAFCE11F9BD8632097604440 Accuracy: -m8
Conclusion: CDDA 100%
Signature: A206F2E131B6F770DE07398CBFA9192B70CD580B
FILE: 06. Моменты (Feat. Коля Кировский).flac
Size: 15654734 Hash: 751FB28FE4D583A2B78D59645129F4C8 Accuracy: -m8
Conclusion: CDDA 100%
Signature: 57C8DDB0445201791878FC26D97154EBCCAE7F5C
FILE: 07. Девчонка со двора.flac
Size: 16516912 Hash: 7DAB478AAE72517C2968F2E3A5260564 Accuracy: -m8
Conclusion: CDDA 100%
Signature: EA1C014D502EDA4E5F79E8FDE4D1DA5CBCC1E375
FILE: 08. Беги (Feat. DJ Smash).flac
Size: 18104408 Hash: E1C916A1B8B6C8BB3C942D1814C17262 Accuracy: -m8
Conclusion: CDDA 100%
Signature: A5B1DD67B3FDF23E92E8167A3A35C6363DD9F047
FILE: 09. Ой, мороз.flac
Size: 16154815 Hash: AE373D4449647F0EF1C3D79C995F7D54 Accuracy: -m8
Conclusion: CDDA 100%
Signature: 51197DE31D96CC279D88935A5571A0E84463A212
FILE: 10. Открытка (Feat. Ваня Дмитриенко).flac
Size: 19132178 Hash: 07E6AA3E05C13596E8AA09A608B20753 Accuracy: -m8
Conclusion: CDDA 100%
Signature: 314710CD0DA8A67E96DD61846E459086C6CF85DA
FILE: 11. Черноглазая.flac
Size: 23606062 Hash: B5375EFE4E01CB1DBF93865AB10E4011 Accuracy: -m8
Conclusion: CDDA 100%
Signature: 4177EBC5A07A84815094F6D4A4168143BC0EE5DF
FILE: 12. Дискотека.flac
Size: 16787881 Hash: 6F32065DA96AB1DC0D4E42A32C4A725C Accuracy: -m8
Conclusion: CDDA 99%
Signature: 948D1D58F4A580DE0C45E62F2D7A87C5C9547DB5
FILE: 13. Шантай.flac
Size: 20552679 Hash: 8F61603F4811EE285B8AA086B4D244E2 Accuracy: -m8
Conclusion: CDDA 100%
Signature: AB5AA12619251FF96DFBCC0FAA02953C17DD2D56
FILE: 14. Недотрога.flac
Size: 15811527 Hash: 55C6FD89A15CF02D6630566132070A1B Accuracy: -m8
Conclusion: CDDA 100%
Signature: 448CCE156B6C22C42500DA9FFBB1A1E2A61D9B49
FILE: 15. Лето любовь.flac
Size: 24031192 Hash: 3C4DCCC6D460EAEF5EF541100A75AB9B Accuracy: -m8
Conclusion: MPEG 100%
Signature: 4F82BF3E9DB95EDAC8A071E48F9F508FF8B541BA
FILE: 16. Половина моя (Feat. Артём).flac
Size: 20713674 Hash: D18D286B2A9AC261E0404570C71DFE51 Accuracy: -m8
Conclusion: CDDA 100%
Signature: 9BE591F0CEA816302125533EB2AB4D89999A7F60
FILE: 17. Дикая.flac
Size: 19776787 Hash: B7454B2C9C07DDC5F8DA2BEC520424EC Accuracy: -m8
Conclusion: CDDA 100%
Signature: BAD44EF2A13E2F3D78E3A1EB4CEE34DAA676070D
FILE: 18. Эйя.flac
Size: 18046841 Hash: E37F4325EAF8EEA9C392717823C6A40F Accuracy: -m8
Conclusion: CDDA 100%
Signature: BD33D3036A277F704BE1B48E51E942757D3EF980
FILE: 19. Фосфор.flac
Size: 20136922 Hash: D61B11E8E4DD56BFB768FD41CEC86BD6 Accuracy: -m8
Conclusion: MPEG 95%
Signature: 1A534CC1A8D4B9CBCB484CEC2D33E3D7E7C9D4E6
FILE: 20. Моё сердце с тобой (Feat. Евгения Майер).flac
Size: 26002920 Hash: 05D8AEED2F0927EC910E387E09413EBE Accuracy: -m8
Conclusion: CDDA 100%
Signature: 2DAB69082407EE7071745565E454705C789CC94A

admin

Post 21-Jan-2022 17:12

[Quote]

Название: Новое и Лучшее
Исполнитель: TIMOFEEW
Год: 2022
Жанр: Дансе
Продолжительность: 01:22:16
Формат/Кодек: MP3
Битрейт аудио: 320kbps

Трек-лист

01. TIMOFEEW - На каждой кассете
02. TIMOFEEW, 140 ударов в минуту - Зараза
03. TIMOFEEW, DANLY - Наши 90-е
04. TIMOFEEW, Александр Гужов - Выпускной
05. TIMOFEEW - Ты замуж выходишь
06. TIMOFEEW, DANLY - Бармен
07. TIMOFEEW - Под треки Шатунова
08. TIMOFEEW, DANLY - Уходи навсегда
09. TIMOFEEW - Я парень плохой
10. TIMOFEEW, 140 ударов в минуту - Зараза (Kolya Dark & Alex Shik Remix)
11. D1N, TIMOFEEW - Последний шанс
12. TIMOFEEW, Турбомода - 8 марта
13. TIMOFEEW, Elena ICE - Дружили
14. TIMOFEEW - Тебя не забыть (feat. Igor Nova)
15. TIMOFEEW, DANLY - Видишь, как вышло
16. TIMOFEEW - Под треки Шатунова (KalashnikoFF Mix)
17. TIMOFEEW, Оксана Ковалевская - Дура
18. TIMOFEEW, 140 ударов в минуту - Пусть в этот Новый Год
19. TIMOFEEW, Marina Evans - Чужая невеста
20. TIMOFEEW, 140 ударов в минуту - Зараза (KalashnikoFF Mix)
21. TIMOFEEW, SERPO - Бывшая
22. DANLY, TIMOFEEW - Как ты могла
23. TIMOFEEW, DANLY - Наши 90-е (KalashnikoFF Mix)
24. TIMOFEEW, Александр Гужов - Выпускной (Radio Version)

admin

Post 20-Jan-2022 13:08

[Quote]

Название: Песни о хорошем
Исполнитель: Андрей Державин
Год: 2022
Жанр: Pop
Страна: Russia
Продолжительность: 01:19:18
Формат/Кодек: FLAC
Тип рипа: Tracks
Битрейт аудио: Lossless
Носитель: WEB

Трек-лист

01. Не плачь, Алиса! (4:35)
02. Ночной город (4:17)
03. Когда ты уйдёшь (4:55)
04. Звёзды (4:31)
05. Верю (7:23)
06. Та, которая уходит в дождь (4:33)
07. Забудь обо мне (3:50)
08. Я подожду (4:17)
09. С днём рождения, друг! (4:13)
10. Без тебя (4:13)
11. Катя-Катерина (4:14)
12. Чужая свадьба (4:00)
13. Наташа (3:22)
14. Журавли (4:59)
15. Песня о 1-й любви (2:56)
16. Связь (2:42)
17. Брат (2:43)
18. Рождество (3:25)
19. Если ты уйдёшь (4:06)

DRM + Лог проверки качества
foobar2000 1.5.5 / Замер динамического диапазона (DR) 1.1.1
--------------------------------------------------------------------------------
Анализ: Андрей Державин / Песни о хорошем
--------------------------------------------------------------------------------
DR Пики RMS Продолжительность трека
--------------------------------------------------------------------------------
DR11 -0.47 дБ -12.02 дБ 4:35 01-Не плачь, Алиса!
DR11 -0.35 дБ -12.26 дБ 4:17 02-Ночной город
DR12 -0.07 дБ -13.30 дБ 4:55 03-Когда ты уйдёшь
DR11 -0.02 дБ -12.24 дБ 4:31 04-Звёзды
DR12 -0.01 дБ -13.99 дБ 7:23 05-Верю
DR12 -0.02 дБ -13.46 дБ 4:33 06-Та, которая уходит в дождь
DR12 -0.36 дБ -15.60 дБ 3:50 07-Забудь обо мне
DR11 -0.28 дБ -12.17 дБ 4:17 08-Я подожду
DR11 -0.45 дБ -14.97 дБ 4:13 09-С днём рождения, друг!
DR10 -0.02 дБ -11.39 дБ 4:13 10-Без тебя
DR11 -0.20 дБ -12.28 дБ 4:14 11-Катя-Катерина
DR11 -0.09 дБ -13.58 дБ 4:00 12-Чужая свадьба
DR12 -0.07 дБ -13.02 дБ 3:22 13-Наташа
DR12 -0.03 дБ -13.99 дБ 4:59 14-Журавли
DR12 0.00 дБ -12.66 дБ 2:56 15-Песня о 1-й любви
DR10 -0.22 дБ -12.54 дБ 2:42 16-Связь
DR12 -0.13 дБ -13.40 дБ 2:43 17-Брат
DR11 -0.01 дБ -13.88 дБ 3:25 18-Рождество
DR11 -0.02 дБ -13.81 дБ 4:06 19-Если ты уйдёшь
--------------------------------------------------------------------------------
Количество треков: 19
Реальные значения DR: DR11
Частота: 44100 Гц
Каналов: 2
Разрядность: 16
Битрейт: 716 кбит/с
Кодек: FLAC
================================================================================
-----------------------
DON'T MODIFY THIS FILE
-----------------------
PERFORMER: auCDtect Task Manager, ver. 1.6.0 RC1 build 1.6.0.1
Copyright (c) 2008-2010 y-soft. All rights reserved
http://y-soft.org
ANALYZER: auCDtect: CD records authenticity detector, version 0.8.2
Copyright (c) 2004 Oleg Berngardt. All rights reserved.
Copyright (c) 2004 Alexander Djourik. All rights reserved.
FILE: 01. Не плачь, Алиса!.flac
Size: 25927196 Hash: 35760468A76B2EF495022F1BEF05BD13 Accuracy: -m8
Conclusion: CDDA 100%
Signature: 2D88F36E9CFC6E209278EA3AE2A1A45EF112FBD7
FILE: 02. Ночной город.flac
Size: 25151236 Hash: 886941405EA78646AFBBFA1F819FCC82 Accuracy: -m8
Conclusion: CDDA 100%
Signature: 6D7FFC092CD7A0DB515EA6FF5CF2B9534546D3DC
FILE: 03. Когда ты уйдёшь.flac
Size: 26907871 Hash: B8FFCD8D854FB57379EF6A883FCF4DC4 Accuracy: -m8
Conclusion: CDDA 100%
Signature: FCEC1FAC209C3DF95E83C81263F7F60CB614AD06
FILE: 04. Звёзды.flac
Size: 25324213 Hash: F7D2B3D3615149AA97C2942D5B3F2593 Accuracy: -m8
Conclusion: CDDA 99%
Signature: C436C3C91E2D93535BE37E1B28EDE43ACCF1445F
FILE: 05. Верю.flac
Size: 39810088 Hash: 3F01A97DD71F08A9532A4A619E015855 Accuracy: -m8
Conclusion: CDDA 100%
Signature: 23F556100FAA08820B607EF33DAFB21B55E49A60
FILE: 06. Та, которая уходит в дождь.flac
Size: 24474870 Hash: EDFB768AAE8E6E565943772244902A06 Accuracy: -m8
Conclusion: CDDA 100%
Signature: F21EF0169FF95419B64A366FF78C12F2EB8BB6E7
FILE: 07. Забудь обо мне.flac
Size: 21032761 Hash: 202B04D938B02F014CF85740E7EE2BD9 Accuracy: -m8
Conclusion: CDDA 99%
Signature: EDEC420CCF15CCB74962DB40818D99CA67B98541
FILE: 08. Я подожду.flac
Size: 23298556 Hash: 1D23B161B0E074D16AC1907E09A234AE Accuracy: -m8
Conclusion: CDDA 100%
Signature: D3061EEBEAD059E0BFAB95FA3DCDCD6EEDF0FA83
FILE: 09. С днём рождения, друг!.flac
Size: 23728332 Hash: 1E6D3E775CEAADBF44B48EEE33CFED03 Accuracy: -m8
Conclusion: CDDA 100%
Signature: 1D47273FC4E3B6F5CD56C4CE594E890A126EB4DB
FILE: 10. Без тебя.flac
Size: 23184842 Hash: 3B20CF857CF42A2EF9C1223261B2534B Accuracy: -m8
Conclusion: CDDA 100%
Signature: 9563E85A347B4BC407827F5D29D7B0844D1C86A1
FILE: 11. Катя-Катерина.flac
Size: 23291624 Hash: CA0DEB267E38FE17D9F2DF54017DC534 Accuracy: -m8
Conclusion: CDDA 100%
Signature: 53331109DDEFAF305C7875A9DF5B0E78B20746DA
FILE: 12. Чужая свадьба.flac
Size: 22487407 Hash: 5E067115D1EB98EA7528318202D54693 Accuracy: -m8
Conclusion: CDDA 100%
Signature: 94CE5B34310D9F0FA90CFBA120BDB012E9D37F65
FILE: 13. Наташа.flac
Size: 19604689 Hash: 1CA63B4F04C7C2ACA840832C1C67D2B4 Accuracy: -m8
Conclusion: CDDA 100%
Signature: A46F1ABBEDFAB5A444B1D8C6311B5CAA9125E574
FILE: 14. Журавли.flac
Size: 27515941 Hash: 15ECCF678936E023EF34D9520769B690 Accuracy: -m8
Conclusion: CDDA 100%
Signature: 264AE410F009E86AE2F59E023128C9B12D3391DF
FILE: 15. Песня о 1-й любви.flac
Size: 16164252 Hash: E07DA207B28767D4C4419AA65FCA46AB Accuracy: -m8
Conclusion: CDDA 100%
Signature: 3440DA814BC25E9F4779373C08B9D9C4B92EB4A2
FILE: 16. Связь.flac
Size: 13643002 Hash: 7AF68A5C06336FFD8DD48859B7E21FA0 Accuracy: -m8
Conclusion: CDDA 100%
Signature: F0F66A4DD8715DEE66D3416EE5CC9987FDAE11EA
FILE: 17. Брат.flac
Size: 15462307 Hash: EA2565F487AC531CCB29033E47DF95E8 Accuracy: -m8
Conclusion: CDDA 100%
Signature: 22B13F32AE1DBEAF448603C877112A2C5DB08EE8
FILE: 18. Рождество.flac
Size: 19539226 Hash: 6E741C8388F0A5822B761FC3CBFFF168 Accuracy: -m8
Conclusion: CDDA 100%
Signature: A400A24157BA24755111039FE1C91481DB8F5623
FILE: 19. Если ты уйдёшь.flac
Size: 22169843 Hash: 64CCB14A8E2D6F637D04EEE42E3D666A Accuracy: -m8
Conclusion: CDDA 100%
Signature: 008049FA933054CC3AA8A5111FE1AFC068C7E965

admin

Post 14-Jan-2022 04:19

[Quote]

Название: Коллекция [15 Альбомов]
Исполнитель: Андрей Державин и группа Сталкер
Жанр: Pop
Страна: СССР, РФ
Годы: 1986-2004
Формат/Кодек: FLAC
Продолжительность: 12:37:34

Информация о...

Группа «Сталкер» была создана в 1985 году. Организовал группу Андрей Державин - молодой композитор, автор всей музыки и аранжировок. Помогал ему его друг Сергей Костров - профессиональный диск-жокей, автор текстов всех песен группы. В тот момент они учились в Ухтинском индустриальном институте. Стилем группы стал «электропоп». Ребята играли в молодёжных клубах и дискотеках.
В первое время группа представляла собой чисто студийный проект (не могли найти вокалиста). Андрею Державину, как автору "Сталкера", в общем просто пришлось со временем стать вокалистом группы. Ребята хотели создать новую музыку, используя все достижения современной техники с применением синтезаторов, секвенсоров, компьютеров. Сергей взялся за тексты, а присоединившейся к ним Александр Чувашов за барабаны
7 июля 1985 года была записана первая песня группы - "Звёзды". Этот день считается днём рождения группы «Сталкер».
17 июня 1985 года выходит первый проект группы Stalker "Disco Tech" (на студии Propeller Records). Общее настроение проекта было выражено в стиле Rap, авторами которого выступили Державин и Костров. Кассета разошлась среди знакомых ди-джеев. В группу приходят: Александр Барбарин и Александр Ершов (оба из г. Кирова).
И в этом составе, осенью 1985 года, выходит второй проект группы - "Нам нужен мир", 1985 (Propeller Records).
Этот проект позволил уберечься от нападок комсомольских вожаков и разного другого идейно-политического начальства, обвинявших группу в бездуховности и антисоветчине. По песне с одноимённым названием, исполненной на каком-то очередном "Празднике Комсомола и Молодежи" ещё долго судили о стиле группы. В определённом смысле, сами авторы считают песню культовой, так как в черновом варианте альбома "Звёзды" песня эта открывала все программы. Авторы же расценивают данный шедевр как разумный компромисс в борьбе с коммунистическим идиотизмом. Этот проект записан в составе:
Андрей Державин - муз. руководитель, клавишные, аранжировка, бэк-вокал, автор музыки;
Сергей Костров - звукооператор;
Александр Барбарин - вокал, гитара;
Александр Чувашов - ударные инструменты, бэк-вокал;
Александр Ершов- бас-гитара, бэк-вокал.
Затем в группу приходят Виталий Лихтенштейн и Сергей Терентьев, а кировские ребята покидают группу .
Покинув стены горячо любимого вуза, ребята записывают первый альбом «Звёзды» (Trio/Propeller Records), вышедший под новый 1986 год, в городе Ухта, Коми АССР.
Песни группы сразу же привлекли слушателей своей мелодичностью, искренностью текстов, танцевальностью. Альбом расходится по стране с невероятной быстротой, количество поклонников растёт, «Сталкеру» предлагают двухгодичный контракт с филармонией Коми АССР (г. Ухта) и начинаются длительные гастроли группы по городам страны…
Во время гастролей ребята готовят к записи новый альбом. Но свободного времени для работы в студии практически нет, и Андрей решает записывать его прямо в поездке. Так появляются на свет «Новости из первых рук». Песня «Я подожду» сразу же становится хитом и дважды занимает 1-е место в передаче «Музыкальный турнир». Продолжается гастрольное турне…
Концерты везде проходили с огромным успехом, видимо, ещё и потому, что «Сталкер» категорически отказывается от фонограммы. Ребята использовали на своих концертах компьютеры, синтезаторы, сэмплеры, великолепно владея этой сложной техникой.
Состав группы «Сталкер»:
Андрей Державин (20.09.1963) - клавишные инструменты, вокал,
Виталий Лихтенштейн (03.06.1967) - клавишные инструменты, бэк-вокал,
Сергей Терентьев - бас-гитара, секвенсоры, программист,
Александр Чувашев (11.12.1963) - ударные инструменты, ритм-бокс,
Сергей Костров (25.09.1961) - звукорежиссер.
В конце 1988 года, во время гастролей в г. Севастополе, случай сводит Андрея Державина с Александром Кутиковым из «Машины времени». Побывав между выступлениями «Машины» на концертах «Сталкера», Александр предлагает Андрею записать новый альбом и два диска-гиганта в своей студии «Синтез». А. Державин и С. Костров принимают приглашение и приезжают в Москву.
В январе 1989 года начинается работа по записи альбома «Жизнь в придуманном мире» в студии «Синтез». Александр Кутиков, ставший саунд-продюсером «Сталкера», успешно формирует новое – «сталкеровское» звучание. Почти полгода длится запись этого материала. Интерес к нему проявляют представители зарубежных фирм грамзаписи. Параллельно ребята снимаются в нескольких видеоклипах для Центрального телевидения, участвуют во многих радиопередачах… Так же «Сталкер» перезаписыват ранее вышедшие альбомы «Звёзды» и «Новости из первых рук».
Состав:
Андрей Державин - синтезаторы, вокал;
Сергей Костров - тексты песен;
Александр Кутиков - саундпродюсер.
В июле 1989 года «Сталкер» отправился в полугодичное гастрольное турне. Ребят ждали встречи со зрителями Украины, Белоруссии, Прибалтики, Кавказа, Средней Азии, Дальнего Востока…
В 1990г. в составе группы - клавишник, детский бэк-вокал - Кристиан Лейних.
В 1990 и 1991 годах песни группы «Сталкер» «Не плачь, Алиса!» и «Первые цветы» приносят музыкантам звания Лауреатов конкурса «Песня года».
Группа популярна и любима, немаловажную роль играет то, что участники группы отказываются от использования на концертах фонограммы. "Артист должен чувствовать прямой контакт со зрителями, только живое общение с публикой может доставить радость и тем и другим", - считает Андрей Державин, композитор, мультиинструменталист и певец, руководитель группы "Сталкер".
В конце 1994 года в ГЦКЗ "Россия" проходит сольный концерт Андрея Державина и группы "Сталкер" в составе:
Андрей Державин - синтезаторы, вокал;
Александр Пономарев - клавиши;
Алексей Коломийцев - гитара;
Сергей Щукин - ударные;
Геннадий Берков - гитара.
В мае 1996 году впервые за 10 лет вышел альбом, в котором о названии "Сталкер" не было ни слова - Андрей Державин "Сам по себе" 1996. В записи пластинке принимали участие: Андрей Державин - музыка, вокал; Сергей Костров - текст песен; Евгений Маргулис - гитара; Владислав Агафонов - бэк-вокал.
Но этот альбом не значит, что группы не существует. Она существует как проект "Сталкер" и в её состав входят основатели этой группы, Андрей Державин и Сергей Костров. Очень популярны из этого альбома песни "Наташа" и "Весёлые качели".
В июне 1998 года - выходит песня "Полетаем", которая часто звучит по радио, в том числе по радио "Золотой граммофон". А первое исполнение её, можно считать, на концерте 1 июня 1998 года, посвящённому международному дню защиты детей. Песня входит в такие сборники, как: Хит-парад 98, Автохиты-2, Русский хит-7 и др. А 27 сентября 1998 г. выходит клип на эту песню.
В 1998 г. - Андрей участвует в записи альбома Евгений Маргулис и "Шанхай" - "7+1".
C 13 января 2000 года - Андрей Державин становится клавишником группы "Машина времени". И его первый концерт в составе МВ состоялся 16 января 2000 года в КЗ Олимпийской деревни. По словам Андрея Макаревича, Андрей полностью вписался в рамки коллектива. Весь год они гастролировали по городам нашей страны и зарубежья с программой "50 лет на двоих" вместе с группой "Воскресенье". В обоих этих группах играет Евгений Маргулис.
Александр Кутиков рассказывал так: "... числа 10-го декабря Державин у себя дома показал мне один трек. Я сказал: "Какая восхитительная музычка! Набурчи мне". Он и набурчал какие-то приблизительные слова, мотивчик. Я говорю: "Вот, завтра, на пьянке, ты нам покажешь". И вот, когда мы собрались, я говорю: "А вот у нашего мальчика в загашнике есть абсолютно замечательнейшая композиция. Ну-ка, поставь..." Он поставил - и все офигели. Вот так, своим творчеством Андрей вошел в наш коллектив". 11 декабря у Андрея Макаревича был День рождения. И на этом Дне рождения была показана песня "Крылья и небо" (А.Державин - С. Костров). Эта песня вошла в альбом «Место где свет».
2001 год — время выхода нового альбома «Место где свет» — первого альбома группы «Машина Времени» с участием Андрея Державина. Программы «50х2», «Просто Машина».
2003 год — Андрей Державин пишет музыку к фильму «Танцор».
2004 год — юбилейный концерт на Красной площади, посвященный 35-летию группы «Машина Времени», альбом «Машинально».
2005 год — пишет музыку к мультфильму «Ну, погоди!» (19-20 серии).
2007 год — пишет музыку к фильму «Лузер».
2007 год — впервые после одиннадцатилетнего перерыва под аккомпанемент «Машины Времени» Андрей исполнил свой самый известный хит «Не плачь, Алиса…»
2008 год — пишет музыку к мультфильму «Удивительные приключения Хомы»
2009 год — пишет музыку к фильму «Аптекарь»
2009 год — пишет музыку к сериалу «Цыганки»
2010 год — пишет музыку к фильму «Женить миллионера»
Игрок Футбольного клуба звёзд эстрады «Старко».
Дискография:

1986 - Звёзды 43:22 ~3168 kb/s 993 Mb


Треклист:
01. Просто так [4:14]
02. Звёзды [4:24]
03. В последний раз [5:43]
04. Твои глаза [5:24]
05. Как жаль [2:57]
06. Я хочу дождя [4:14]
07. Ветер (Instrumental) [2:48]
08. Без тебя [5:11]
09. Анна [3:08]
10. Осколки разбитых зеркал [5:19]

1988 - Новости из первых рук 42:15 ~3026 kb/s 915 Mb


Треклист:
01. Intro [2:17]
02. Ночной город [4:35]
03. Я подожду [4:39]
04. Расставанье [6:10]
05. Не спеши [6:54]
06. Верю [6:48]
07. Новости из первых рук [3:13]
08. Странный вечер [7:07]
09. Coda [0:32]

1988 - Новости из первых рук (2nd Version) 42:28 ~3098 kb/s 953 Mb


Треклист:
01. Intro [2:19]
02. Город ночной [4:37]
03. Я подожду [4:36]
04. Верю [6:59]
05. Новости из первых рук [3:15]
06. Часть вторая [0:04]
07. Странный вечер [7:09]
08. Расставанье [6:12]
09. Не спеши [6:47]
10. Outro [0:30]

1989 - Лучшие вещи 39:07 ~1735 kb/s 486 Mb


Треклист:
01. Хрустальный колокол [2:40]
02. Было или не было [3:04]
03. Забытые сны [3:41]
04. Три недели [3:05]
05. Когда ты уйдёшь [4:30]
06. Без тебя [5:20]
07. Звёзды [4:27]
08. Жизнь в придуманном мире [3:53]
09. Девочка [4:02]
10. С днём рождения, друг! [4:25]

1991 - Не плачь, Алиса! 41:32 ~5143 kb/s 1.50 Gb


Треклист:
01. Жизнь в придуманном мире [4:01]
02. Когда ты уйдёшь [4:32]
03. Я подожду [4:35]
04. Грустная девчонка [4:52]
05. Три недели [3:06]
06. Не плачь, Алиса! [4:51]
07. Верю [6:59]
08. Без тебя [4:07]
09. С днём рождения, друг... [4:31]

1993 - Лучшие песни 56:01 ~840 kb/s 339 Mb


Треклист:
01. Чужая свадьба [4:25]
02. Катя-Катерина [4:17]
03. Верю... [7:05]
04. Когда ты уйдёшь [4:49]
05. Не плачь, Алиса [4:33]
06. Забудь обо мне [4:04]
07. Песня про брата [2:48]
08. Хрустальный колокол [2:54]
09. Стариннный вечер [7:00]
10. Грустная девчонка [5:02]
11. С днём рождения, друг! [4:27]
12. Звёзды [4:36]

1994 - Андрей Державин 54:04 ~847 kb/s 330 Mb


Треклист:
01. Песня про брата [2:43]
02. Чужая свадьба [4:27]
03. Катя-Катерина [4:14]
04. Забудь обо мне [4:02]
05. Не плачь, Алиса [4:33]
06. Верю [7:02]
07. Когда ты уйдёшь [4:39]
08. Странный вечер [6:58]
09. Ночной город [4:27]
10. Забытые сны [3:44]
11. Хрустальный колокол [2:51]
12. С днём рождения, друг! [4:24]

1994 - Жизнь в придуманном мире 49:54 ~934 kb/s 336 Mb


Треклист:
01. Жизнь в придуманном мире [4:05]
02. Забытые сны [3:45]
03. Верю [7:00]
04. Без тебя [4:15]
05. Новости из первых рук [3:14]
06. Девочка [4:13]
07. Хрустальный колокол [2:52]
08. Странный вечер [6:47]
09. Я подожду [4:40]
10. Ночной город [4:28]
11. Звёзды [4:34]

1994 - Лирические песни 45:26 ~913 kb/s 315 Mb


Треклист:
01. Журавли [5:01]
02. Верю... [6:59]
03. Когда ты уйдёшь... [4:41]
04. Девочка [4:12]
05. Странный вечер [6:46]
06. Грустная девочка [5:01]
07. Чужая свадьба [4:21]
08. Забудь обо мне [4:03]
09. С днём рождения, друг! [4:22]

1994 - Не плачь, Алиса 46:35 ~920 kb/s 327 Mb


Треклист:
01. Не плачь, Алиса [4:33]
02. Когда ты уйдёшь [4:42]
03. Всё как всегда [6:04]
04. Было или не было [3:13]
05. Грустная девчонка [5:00]
06. Три недели [3:11]
07. С днём рождения, друг [4:26]
08. Катя-Катерина [4:17]
09. Забудь обо мне [4:03]
10. Песня про брата [2:47]
11. Чужая свадьба [4:19]

1994 - Чужая свадьба 35:02 ~5377 kb/s 1.32 Gb


Треклист:
01. Чужая свадьба [4:30]
02. Катя-Катерина [4:19]
03. Верю... [7:06]
04. Когда ты уйдёшь [4:50]
05. Не плачь, Алиса [4:38]
06. Забудь обо мне [4:05]
07. Песня про брата [2:45]
08. Хрустальный колокол [2:50]

1996 - Сам по себе 41:28 ~850 kb/s 266 Mb


Треклист:
01. Сам по себе [3:31]
02. Наташа [3:32]
03. Весёлые качели [2:47]
04. Не пиши мне... [3:38]
05. Последний поезд на юг [3:14]
06. Как это было давно [2:46]
07. Песня о первой и чистой любви [3:15]
08. Ветер уносит... [3:59]
09. Журавли [5:00]
10. Прощай! [3:37]
11. Так далеко... [2:26]
12. Я хочу дождя [3:44]

2002 - Звёздная коллекция 01:16:18 ~947 kb/s 519 Mb


Треклист:
01. Не плачь, Алиса [4:30]
02. Без тебя [4:12]
03. Верю [6:56]
04. Хрустальный колокол [2:45]
05. Катя-Катерина [4:12]
06. Песня про брата [2:41]
07. Чужая свадьба [4:15]
08. Всё как всегда [5:59]
09. Странный вечер [6:43]
10. Когда ты уйдёшь [4:46]
11. Я подожду [4:36]
12. Звёзды [4:28]
13. Девочка [4:09]
14. Журавли [4:56]
15. Забытые сны [3:41]
16. Три недели [3:07]
17. С днём рождения [4:22]

2003 - Лучшие песни 01:08:26 ~925 kb/s 462 Mb


Треклист:
01. Не плачь, Алиса [4:32]
02. Верю [6:55]
03. Всё как всегда [6:01]
04. Три недели [3:08]
05. Когда ты уйдёшь [4:38]
06. Чужая свадьба [4:19]
07. Грустная девчонка [4:57]
08. Журавли [4:58]
09. Забудь обо мне [4:01]
10. Катя-Катерина [4:14]
11. С днём рождения, друг! [4:24]
12. Без тебя [4:13]
13. Хрустальный колокол [2:51]
14. Я подожду [4:39]
15. Звёзды [4:34]

2004 - Grand Collection 01:15:37 ~909 kb/s 498 Mb


Треклист:
01. Катя-Катерина [4:15]
02. Не плачь, Алиса [4:34]
03. Чужая свадьба [4:23]
04. Журавли [4:57]
05. Я подожду [4:39]
06. Грустная девчонка [5:00]
07. Брат [2:45]
08. Верю [6:58]
09. Когда ты уйдёшь [4:41]
10. Три недели [3:10]
11. Забытые сны [3:45]
12. Забудь обо мне [4:02]
13. Странный вечер [6:46]
14. Хрустальный колокол [2:51]
15. Без тебя [4:14]
16. С днём рождения, друг [4:27]
17. Девочка [4:10]

admin

Post 28-Dec-2021 01:52

[Quote]

Название: Наше время пришло
Исполнитель: Комиссар
Год: 1991/2021
Жанр: Pop
Страна: Russian Federation
Сканы: Да
Продолжительность: 00:42:24
Формат/Кодек: MP3
Битрейт аудио: 320 Kbps

Трек-лист

A1 Интро
A2 Наше время пришло
A3 Песня зовёт
A4 Всё изменится
A5 Твой поцелуй как преступление
A6 Ты скажешь
B1 Ты уйдёшь
B2 Эти глаза
B3 Нежный мотив
B4 Твой поцелуй как преступление 2000
B5 Ты уйдёшь 2000 (Unreleased version)

admin

Post 22-Dec-2021 02:17

[Quote]

Название: Сажа
Исполнитель: Эмгэ
Год: 2021
Жанр: Indie-Pop, Electro-Clash, Cabaret
Страна: Россия
Продолжительность: 00:36:33
Формат/Кодек: FLAC
Тип рипа: Tracks
Битрейт аудио: Lossless
Носитель: WEB

Трек-лист

01. Другого Цвета (03:46)
02. Нормально, Да (04:09)
03. А То Не (06:10)
04. Могила Тайн (03:29)
05. Очень Невменяем (03:56)
06. Сладкая Соль (03:26)
07. Дырки Пещер (03:13)
08. Строго Держать (03:52)
09. Сажа и Узлы (04:32)

DRM + Лог проверки качества
foobar2000 1.6.2 / Замер динамического диапазона (DR) 1.1.1
--------------------------------------------------------------------------------
Анализ: Эмгэ / Сажа
--------------------------------------------------------------------------------
DR Пики RMS Продолжительность трека
--------------------------------------------------------------------------------
DR6 -0.29 дБ -7.58 дБ 3:46 01-Другого Цвета
DR8 -0.32 дБ -9.71 дБ 4:09 02-Нормально, Да
DR7 -0.27 дБ -8.32 дБ 6:10 03-А То Не
DR9 -0.32 дБ -10.69 дБ 3:29 04-Могила Тайн
DR9 -0.32 дБ -10.84 дБ 3:56 05-Очень Невменяем
DR7 -0.30 дБ -8.62 дБ 3:26 06-Сладкая Соль
DR9 -0.32 дБ -10.82 дБ 3:13 07-Дырки Пещер
DR7 -0.28 дБ -8.41 дБ 3:52 08-Строго Держать
DR9 -0.32 дБ -10.55 дБ 4:32 09-Сажа и Узлы
--------------------------------------------------------------------------------
Количество треков: 9
Реальные значения DR: DR8
Частота: 44100 Гц
Каналов: 2
Разрядность: 16
Битрейт: 928 кбит/с
Кодек: FLAC
================================================================================
AUDIOCHECKER v2.0 beta (build 457) - by Dester - opdester@freemail.hu
~~~~~~~~~~~~~~~~~~~~~~~~~~~~~~~~~~
Started at: вторник, 21. 12. 2021. - 10:53.26
9 files found
1 -===- E:UPLOAD torrentsEMGE - Grime - (2021) FLAC�1 - Different Color.flac
Extracted successfully
Conclusion: this track is CDDA with probability 100%
Tempfile successfully deleted.
2 -===- E:UPLOAD torrentsEMGE - Grime - (2021) FLAC�2 - Ok Yes.flac
Extracted successfully
Conclusion: this track is CDDA with probability 100%
Tempfile successfully deleted.
3 -===- E:UPLOAD torrentsEMGE - Grime - (2021) FLAC�3 - A To He.flac
Extracted successfully
Conclusion: this track is CDDA with probability 100%
Tempfile successfully deleted.
4 -===- E:UPLOAD torrentsEMGE - Grime - (2021) FLAC�4 - Grave Of Secrets.flac
Extracted successfully
Conclusion: this track is CDDA with probability 99%
Tempfile successfully deleted.
5 -===- E:UPLOAD torrentsEMGE - Grime - (2021) FLAC�5 - Very Deranged.flac
Extracted successfully
Conclusion: this track is CDDA with probability 100%
Tempfile successfully deleted.
6 -===- E:UPLOAD torrentsEMGE - Grime - (2021) FLAC�6 - Sweet Salt.flac
Extracted successfully
Conclusion: this track is CDDA with probability 100%
Tempfile successfully deleted.
7 -===- E:UPLOAD torrentsEMGE - Grime - (2021) FLAC�7 - Holes Of Caves.flac
Extracted successfully
Conclusion: this track is CDDA with probability 100%
Tempfile successfully deleted.
8 -===- E:UPLOAD torrentsEMGE - Grime - (2021) FLAC�8 - Strictly Keep.flac
Extracted successfully
Conclusion: this track is CDDA with probability 100%
Tempfile successfully deleted.
9 -===- E:UPLOAD torrentsEMGE - Grime - (2021) FLAC�9 - Grime and Knots.flac
Extracted successfully
Conclusion: this track is CDDA with probability 100%
Tempfile successfully deleted.
Finished at: вторник, 21. 12. 2021. - 10:55.36 (operation time: 0:02.09)

admin

Post 22-Dec-2021 01:48

[Quote]

Название: Дискография [9 Альбомов, 6 Сборников, Сингл]
Исполнитель: Комиссар, Алексей Щукин, Планета Земля
Годы: 1991-2021
Жанр: Dance, Pop
Страна: РФ
Продолжительность: 13:47:36
Формат/Кодек: FLAC, WV

Информация о...

Перенесемся в прошлое, а точнее в начало 90-х годов, когда слово «Комиссар» плотно ассоциировалось у народа либо с политработником, либо с Каттани, либо, а это немаловажно, с группой "Комиссар". Песню "Ты уйдёшь" знали тогда все. Самое интересное, что организаторы концертов готовы были приглашать группу "Комиссар" в программу с одной единственной песней (альбома, даже первого, еще не было), но аншлаг был гарантирован.
Успех проекта, а в то время это был именно проект, был практически предрешен. Достаточно взглянуть на состав имен, стоящих у истока создания:
- Валерий Соколов – поэт (автор шести из семи песен первого альбома группы, автор и соавтор ряда песен последующих альбомов группы), к тому времени фигура в шоу-бизнесе культовая.
- Леонид Величковский – композитор, бывший клавишник группы «Технология» (Автор музыки шести из семи песен первого альбома. Всего в арсенале группы «Комиссар» семь песен этого композитора.).
- Вадим Володин – аранжировщик, известный в кругу профессионалов как Питон. Весь первый альбом – его рук дело.
- Алексей Щукин – диджей самой крупной в то время в Москве дискотеки «Класс».
К 1991 году проект окончательно перерастает в группу «Комиссар». Группа участвует в крупных сборных концертах и подает уверенные надежды в хит-парадах и фестивалях. К лету 1991 года закончена запись первого альбома «Наше время пришло», начинаются сольные концерты по городам и весям.
В сентябре 1991 года группа получает приглашение на телевизионный фестиваль «Звёздный дождь» канала РТР и успешно лидирует по итогам первого тура. В октябре 1991 года группа получает премию «Овация» за песню «Ты уйдёшь». О песне «Ты уйдёшь» можно рассказывать много и отдельно. По сей день – это визитная карточка группы и без этой песни не обходится практически ни один концерт.
Период с 1991 по 1993 год – звёздный для коллектива. Группа массово востребована на гастролях, выпускает аудио-кассеты и в 1994 году – CD, становится дипломантом фестиваля «Звёздный дождь», лауреатом фестиваля «Звуковая дорожка» газеты «Московский Комсомолец», диплом фестиваля «Золотой ключ» тоже ложится в коллекцию наград коллектива. Но не об этом.
Как известно, жизнь похожа на зебру. Белая полоса начинает плавно переходить в противоположность. Успех первого альбома приводит к творческому кризису. В 1994-1995 группа по инерции катается и участвует, но предложений становится все меньше. Основной вопрос «что делать?» становится жизненно важным, но находит свое логическое разрешение лишь к концу 1997 года. Головокружение от успехов прошло, тяжелые времена встряхнули и… С новыми силами к творческим победам, но через эксперименты. Первой ласточкой нового становится песня «Какая же ты», более известная как «Падла». Автор музыки и слов этого скандального произведения является композитор С. Кузнецов (фигура тоже небезызвестная). В последствии в творческом списке появится много творений этого композитора. Наиболее известной из его наследия суждено будет стать песне «Дрянь». Она же станет заглавной в альбоме 1998 года, который явился вторым дыханием группы и толчком «с ускорением» к возврату в чарты и хит-парады. Хочется отметить, что в 1997 году произошло еще одно историческое событие – группа начала сотрудничество с новым аранжировщиком Александром Кирпичниковым, что определило новое звучание группы.
Первые два альбома получились практически авторские, но дальнейшая дискография группы нарушит эту зарождающуюся традицию, и в последующих альбомах будут достойные песни достойных авторов К. Брейтбург, В. Адаричев, А. Покутный, А. Вишня, И. Корсуков, А. Мишаев, Е. Ваенга, Д. Коновалов, А. Кирсанов, Н. Рудина и др.
Но вернемся к альбомонаписанию. Накопившиеся идеи, энергия и новые мысли в аранжировке в кратчайшие, для группы, сроки дают плоды в виде альбома «Музыка нового тысячелетия» или «Комиссар-2000», датированного 2000 годом. Тем самым группа «Комиссар» успешно вошла в новый век. Вдогонку выпускается альбом «Новое и лучшее». Альбом «2000» получился весьма-весьма удачным и попадает в лидеры продаж на CD и MC рынке. Все это происходит на фоне массовой продажи пиратски тиражированной продукции группы. Появляется идея и начинает собираться коллекция левых (пиратских) изданий. Пиратская коллекция пополняется и по сей день. Она представлена на официальном сайте. Газета “Московский Комсомолец» в «Звуковой дорожке» отметила, что ни у одной группы нет столь уникальной и разнообразной коллекции (МК ЗД 23.08.2002, статья «Комиссарские принципы», автор А. Гаспарян).
Попав в струю и почти на гребень, надо уметь удержаться. Летом 2002 года группа подписывает первый серьезный контракт с одной из ведущих, на тот момент, рекордс-лейблом «АРС» и выпускает очередной номерной альбом «Любовь – это яд». К этому альбому группа снимает свое первое неконцертное видео. Видео-клип на песню «Любовь - это яд» группа снимает на Мосфильме. Режиссер Федор Бондарчук. Первый клип показывают (не много) по центральным ТВ-каналам, но в связи с тем, что у группы концертов достаточно, «АРС» прекращает рекламную компанию и... Достаточно быстро погасив вложенную в раскрутку коллектива сумму, группа разрывает контракт с компанией «АРС» и уходит, в привычное для нее, свободное плавание.
В дальнейшем группа «Комиссар» выпустила несколько альбомов и продолжает гастролировать по сегодняшний день..
Альбомы

1991 - Наше время пришло [MB] 28:52 FLAC ~6025 kb/s 1.21 Gb


Треклист:
01. Студия «Питон» - Вступление [0:32]
02. Ты уйдёшь [5:03]
03. Наше время пришло [3:48]
04. Всё изменится [4:54]
05. Твой поцелуй как преступление [3:49]
06. Эти глаза [2:42]
07. Ты скажешь: «Да» [3:26]
08. Песня зовёт [4:39]

1994 - Наше время пришло 29:57 FLAC ~985 kb/s 227 Mb


Треклист:
01. Ты уйдёшь [5:07]
02. Наше время пришло [3:51]
03. Всё изменится [4:57]
04. Твой поцелуй как преступление [3:51]
05. Эти глаза [4:04]
06. Ты скажешь: «Да» [3:30]
07. Песня зовёт [4:37]

1994 - Remix 39:51 FLAC ~1024 kb/s 299 Mb


Треклист:
01. Ты уйдёшь [5:32]
02. Наше время пришло [5:42]
03. Всё изменится [4:05]
04. Твой поцелуй как преступление [5:33]
05. Эти глаза [4:16]
06. Ты скажешь: «Да» [4:31]
07. Песня зовёт [5:19]
08. Нежный мотив [4:52]

1998 - Дрянь 01:05:43 FLAC ~952 kb/s 456 Mb


Треклист:
01. Дрянь [4:50]
02. Телефон (Сгорая огнём) [4:49]
03. Первый полёт [5:16]
04. Падла (Какая же ты) [4:30]
05. Чтож ты, лето [4:54]
06. Тот, кто с нею был [4:37]
07. Скорость [4:14]
08. Сказочные сны [4:53]
09. Анжелика [6:22]
10. Клофелин [5:23]
11. Я так устал [10:20]
12. Что ж ты, лето (Remix) [5:34]

2000 - 2000 46:32 FLAC ~973 kb/s 337 Mb


Треклист:
01. Королева снежная [4:35]
02. Нам с тобой любовь пророчили [3:14]
03. Я тебе объявляю войну [4:17]
04. Ты вернёшься [4:13]
05. Туман-туманище [4:09]
06. BFG 2000 [3:26]
07. Не обижайся [5:05]
08. Адреналин [4:08]
09. Сказочные сны (House Version) [4:22]
10. Дрянь '2000 [5:04]
11. Нежный мотив (New Edit) [4:00]

2000 - Наше время пришло 29:56 FLAC ~997 kb/s 216 Mb


Треклист:
01. Ты уйдёшь [5:06]
02. Наше время пришло [3:51]
03. Всё изменится [4:57]
04. Твой поцелуй как преступление [3:51]
05. Эти глаза [4:04]
06. Ты скажешь: «Да» [3:30]
07. Песня зовёт [4:37]

2003 - Любовь - это яд 49:35 FLAC ~964 kb/s 343 Mb


Треклист:
01. Любовь - это яд (High Gear Stuff Ver.) [3:59]
02. А если честно сказать [3:35]
03. Всё напрасно [4:01]
04. Лёха (New Prod. Ver.) [3:07]
05. Ангел [3:23]
06. Скорость (Addicted 2 Jersey Ver.) [3:52]
07. Если ты когда-нибудь ко мне вернёшься [3:00]
08. Любовь - это яд (Up'p'End Ver.) [4:14]
09. Вкус цвета огня (Next Prod. Ver.) [3:27]
10. Только ты (Classic SND Ver.) [5:57]
11. Мне бы (fStar Disco Ver.) [3:23]
12. Комиссар feat. DJ Vig - Любовь - это яд (Trimmermania Ver.) [4:06]
13. Комиссар feat. DJ Vig - Nu-Device [3:32]

2013 - Короли 01:00:33 FLAC ~947 kb/s 441 Mb


Треклист:
01. Короли [3:35]
02. Сказка о любви [4:00]
03. Голубоглазая [3:36]
04. Небо [3:42]
05. Забудь моё имя [3:28]
06. Всё, кончено всё (Drum & Bass Piano Version) [4:17]
07. Слёзы любви [3:17]
08. Волчья кровь [4:55]
09. BFG-2012 [3:20]
10. Переходим на Вы [3:49]
11. А если честно сказать (DJ Vital Ver.) [4:27]
12. Наташка [4:07]
13. Я так устал (Full Rain & Moon Version) [10:23]
14. Короли (High Gear Ver.) [3:37]

2021 - Наше время пришло [LP] 42:25 WV 6313 kb/s 1.94 Gb


Треклист:
01. Интро [0:31]
02. Наше время пришло [3:50]
03. Песня зовёт [4:38]
04. Всё изменится [4:57]
05. Твой поцелуй как преступление [3:50]
06. Ты скажешь: «Да» [3:29]
07. Ты уйдёшь [5:05]
08. Эти глаза [4:03]
09. Нежный мотив [4:02]
10. Твой поцелуй как преступление 2000 [3:39]
11. Ты уйдёшь 2000 [4:20]
Сборники

2000 - Новое и лучшее 2000 53:26 FLAC ~1013 kb/s 388 Mb


Треклист:
01. Лёха [3:08]
02. Твой поцелуй '2000 (Millenium Mix) [3:39]
03. Адреналин [4:07]
04. Туман-туманище [4:08]
05. Сказочные сны (House Version) [4:25]
06. Королева снежная [4:34]
07. Нам с тобой любовь пророчили [3:14]
08. Дисбат [4:25]
09. Ты вернёшься [4:12]
10. Я тебе объявляю войну [4:18]
11. Нежный мотив (New Edit) [4:01]
12. Не обижайся [5:05]
13. Дрянь '2000 (Radio Version) [4:08]

2001 - Звёздная коллекция 01:16:20 FLAC ~974 kb/s 539 Mb


Треклист:
01. Наташка [4:05]
02. Ты уйдёшь [5:06]
03. Наше время пришло [3:52]
04. Твой поцелуй [3:50]
05. Дрянь [4:51]
06. Падла [4:30]
07. Что ж ты, лето (Remix) [5:36]
08. Сгорая огнём [4:49]
09. Солнце [5:16]
10. Скорость [4:14]
11. Сказочные сны [4:53]
12. Клофелин [5:23]
13. Я так устал [10:20]
14. Всё изменится [4:58]
15. Песня зовёт [4:38]

2009 - Не пиратский 01:14:00 FLAC ~980 kb/s 519 Mb


Треклист:
01. Небо [3:40]
02. Сказка о любви [3:59]
03. Ангел [3:23]
04. Королева снежная [4:33]
05. Ты вернёшься [4:11]
06. Любовь - это яд [4:10]
07. Первый полёт [5:13]
08. BFG 2000 [3:25]
09. Дрянь '2000 (Radioedit) [4:10]
10. Что ж ты, лето... [4:55]
11. Только ты [6:19]
12. Мне бы [3:24]
13. Сказочные сны [4:55]
14. Сгорая огнём [4:50]
15. Если ты когда-нибудь... [3:02]
16. Клофелин [5:25]
17. Падла [4:26]

2010 - Grand Collection 01:17:16 FLAC ~999 kb/s 557 Mb


Треклист:
01. Королева снежная [4:33]
02. Нам любовь пророчили [3:17]
03. Туман-туманище [4:09]
04. А если честно сказать [3:35]
05. Дрянь [4:49]
06. Я так устал [6:25]
07. Адреналин [4:08]
08. Я тебе объявляю войну [4:17]
09. Ты вернёшься [4:12]
10. Nu-Device [3:34]
11. Любовь - это яд (Up. End. Ver.) [4:15]
12. Не обижайся [5:07]
13. Если ты когда-нибудь ко мне вернёшься [3:01]
14. Скорость [3:52]
15. Дисбат [4:26]
16. Первый полёт [5:13]
17. Вкус цвета огня [3:29]
18. Что ж ты, лето... (Dance Version) [4:53]

2010 - Романтика 01:03:44 FLAC ~946 kb/s 457 Mb


Треклист:
01. Всё, всё... (Acoustic Piano Ver.) [4:17]
02. Что ж ты, лето [4:55]
03. Ангел [3:23]
04. Всё напрасно [4:02]
05. Небо [3:41]
06. А если честно сказать... [3:35]
07. Ты вернёшься [4:12]
08. Анжелика [6:23]
09. Мне бы... [3:24]
10. Я так устал [6:25]
11. Сказочные сны [4:55]
12. Если ты когда-нибудь... [3:01]
13. Первый полёт [5:14]
14. Только ты [6:17]

2013 - Super Hits Collection 01:18:50 FLAC ~970 kb/s 564 Mb


Треклист:
01. Королева снежная [4:34]
02. Туман-туманище [4:08]
03. Голубоглазая [3:35]
04. Дрянь [4:51]
05. Слёзы любви [3:14]
06. Падла [3:54]
07. Нам с тобой любовь пророчили [3:15]
08. Забудь моё имя [3:27]
09. Небо [3:40]
10. Что ж ты, лето [3:48]
11. Наташка [4:06]
12. Сказочные сны [4:52]
13. Адреналин [3:41]
14. Я тебе объявляю войну [3:34]
15. Переходим на Вы [3:47]
16. Сказка о любви [3:31]
17. Сгорая огнём [4:06]
18. Первый полёт [3:39]
19. Анжелика [4:55]
20. Ты вернёшься [4:11]
Сингл

2011 - Адреналин 2.0.1.1. 10:37 FLAC ~1008 kb/s 77 Mb


Треклист:
01. Адреналин 2.0.1.1. (Original Version) [3:28]
02. Адреналин 2.0.1.1. (Instrumental Version) [3:28]
03. Небо [3:40]

admin

Post 17-Dec-2021 13:39

[Quote]

Название: Дискография
Исполнитель: Фабрика
Год: 2003-2010
Жанр: Pop
Страна: Россия
Продолжительность: 03:47:57
Формат/Кодек: MP3
Битрейт аудио: 320 Кбит/с

Трек-лист

2003 - Девушки фабричные
01. Девушки фабричные
02. Про любовь
03. 5 Минут
04. Море зовёт
05. Ой, мама, я влюбилась
06. Отпустить любовь
07. Мыльные пузыри
08. Не всерьёз
09. Он
10. Заболела тобой
11. Лёлик
12. Понимаешь
13. Рыбка
14. Девушки фабричные (Remix)
15. Рыбка (Dynamite remix)
16. Рыбка (Energy remix)
2004 - Рыбка
01. Рыбка
02. Про любовь
03. Лелик
04. Море зовет
05. Девушки фабричные
06. 5 минут
07. Мыльные пузыри
08. Ой, мама, я влюбилась
09. Невсерьез
10. Отпусти любовь
11. Понимаешь
12. Заболела тобой
13. Он
2009 - Мы такие разные
01. Мы такие разные
02. Не виноватая я
03. Рыбка
04. Романтика
05. Зажигают огоньки
06. Je tame
07. Белым-белым...
08. Давай с тобой поговорим
09. Малина
10. Облако волос
11. Девушки фабричные
12. Про любовь
13. Море зовет
14. Лёлик
15. Он
16. Понимаешь
2010 - Star Hit
01. Романтика
02. А любить так хочется
03. Про любовь
04. Зажигают огоньки
05. Не виноватая я
06. Je T'Aime
07. Море зовет
08. Лелик
09. Понимаешь
10. Рыбка
11. Мы такие разные
12. 5 минут
13. Белым-белым
14. Он
15. Давай с тобой поговорим
16. Девушки фабричные

admin

Post 15-Dec-2021 16:31

[Quote]

Название: Вы любите эти песни
Исполнитель: Вячеслав Добрынин
Год: 1993-1998
Жанр: Pop
Страна: Россия
Продолжительность: 03:28:01
Формат/Кодек: FLAC
Битрейт аудио: Lossless

Трек-лист

01. Синий туман
02. Акулина
03. Случайная ночь
04. Не сыпь мне соль на рану
05. Никто тебя не любит
06. Пиковая дама
07. Бабушки-старушки
08. Киса
09. Две свечи
10. Не обижай
11. Качается вагон
12. Нежная
13. У фонтана
14. Ах, какая женщина
15. Льётся музыка
16. А кому какое дело
17. Я боюсь твоей любви
18. Будет праздник
19. Заблудился
20. Я своё отгулял
21. Солнце отгорело
22. Загнал коней
23. Сумасшедший дождь
24. Казино
25. Маленькое чудо
26. Пустые разговоры
27. Ты меня пожалей
28. Не берите в голову
29. Пропадаю
30. Я и гроша не дам
31. Выходной
32. Измена
33. Когда-нибудь
34. Любовники
35. Где же ты была
36. Стена
37. Капитан запаса
38. Улыбнись мне, моя отрада
39. Колдовское озеро
40. Успокойся
41. Была не была
42. Вот и расстались
43. На юге дальнем
44. Как скажешь так и будет
45. Спасатель
46. Зажгите огонь
47. Вспомни
48. Уходишь ты
49. Не понимаю
50. Сегодня вечером
51. Нескучный сад
52. Раскаянье
53. Не забывайте друзей!

DRM + Лог проверки качества
foobar2000 1.5.5 / Замер динамического диапазона (DR) 1.1.1
--------------------------------------------------------------------------------
Анализ: Вячеслав Добрынин / Вы любите эти песни
--------------------------------------------------------------------------------
DR Пики RMS Продолжительность трека
--------------------------------------------------------------------------------
DR10 0.00 дБ -11.99 дБ 3:54 01-Синий туман
DR12 -0.10 дБ -13.92 дБ 3:14 02-Акулина
DR10 -0.10 дБ -12.71 дБ 3:34 03-Случайная ночь
DR11 -0.10 дБ -13.21 дБ 5:09 04-Не сыпь мне соль на рану
DR11 -0.10 дБ -12.38 дБ 5:00 05-Никто тебя не любит
DR15 -0.10 дБ -16.23 дБ 4:06 06-Пиковая дама
DR12 -0.10 дБ -14.01 дБ 3:15 07-Бабушки-старушки
DR12 -0.10 дБ -13.21 дБ 2:52 08-Киса
DR12 0.00 дБ -13.11 дБ 5:26 09-Две свечи
DR12 -0.10 дБ -13.27 дБ 3:51 10-Не обижай
DR12 -0.10 дБ -13.35 дБ 4:15 11-Качается вагон
DR11 -0.10 дБ -12.26 дБ 3:51 12-Нежная
DR11 -0.10 дБ -12.40 дБ 2:57 13-У фонтана
DR12 -0.10 дБ -13.91 дБ 5:16 14-Ах, какая женщина
DR12 -0.10 дБ -13.65 дБ 4:12 15-Льётся музыка
DR12 0.00 дБ -13.71 дБ 3:34 16-А кому какое дело
DR10 -0.10 дБ -11.07 дБ 4:55 17-Я боюсь твоей любви
DR11 -0.10 дБ -12.76 дБ 4:05 18-Будет праздник
DR12 -0.10 дБ -13.44 дБ 3:03 19-Заблудился
DR13 -0.10 дБ -14.90 дБ 3:11 20-Я своё отгулял
DR11 -0.10 дБ -12.42 дБ 4:45 21-Солнце отгорело
DR10 -0.10 дБ -11.50 дБ 3:26 22-Загнал коней
DR10 -0.10 дБ -12.94 дБ 5:11 23-Сумасшедший дождь
DR13 -0.10 дБ -14.37 дБ 4:10 24-Казино
DR12 0.00 дБ -13.16 дБ 3:14 25-Маленькое чудо
DR12 -0.10 дБ -13.03 дБ 3:41 26-Пустые разговоры
DR12 -0.10 дБ -13.39 дБ 4:03 27-Ты меня пожалей
DR12 0.00 дБ -12.90 дБ 4:26 28-Не берите в голову
DR11 -0.10 дБ -13.64 дБ 4:17 29-Пропадаю
DR9 -0.10 дБ -11.26 дБ 3:28 30-Я и гроша не дам
DR11 0.00 дБ -12.85 дБ 4:17 31-Выходной
DR10 -0.10 дБ -12.19 дБ 3:19 32-Измена
DR10 -0.10 дБ -12.08 дБ 4:21 33-Когда-нибудь
DR11 -0.10 дБ -13.01 дБ 3:45 34-Любовники
DR12 0.00 дБ -13.92 дБ 3:51 35-Где же ты была
DR11 -0.10 дБ -11.94 дБ 4:32 36-Стена
DR10 -0.10 дБ -11.10 дБ 3:05 37-Капитан запаса
DR10 -0.10 дБ -11.54 дБ 4:33 38-Улыбнись мне моя отрада
DR12 0.00 дБ -13.92 дБ 2:47 39-Колдовское озеро
DR12 -0.10 дБ -15.50 дБ 3:01 40-Успокойся
DR13 -0.10 дБ -15.13 дБ 4:11 41-Была не была
DR11 -0.10 дБ -12.24 дБ 6:31 42-Вот и расстались
DR14 -0.10 дБ -15.22 дБ 4:07 43-На юге дальнем
DR10 -0.10 дБ -11.62 дБ 3:50 44-Как скажешь, так и будет
DR13 -0.10 дБ -14.24 дБ 3:26 45-Спасатель
DR11 -0.10 дБ -13.89 дБ 3:29 46-Зажгите огонь
DR12 -0.10 дБ -13.25 дБ 4:03 47-Вспомни
DR10 -0.10 дБ -12.35 дБ 4:15 48-Уходишь ты
DR11 -0.10 дБ -12.78 дБ 2:58 49-Не понимаю
DR11 -0.10 дБ -12.29 дБ 3:03 50-Сегодня вечером
DR10 -0.10 дБ -11.66 дБ 3:15 51-Нескучный сад
DR10 -0.10 дБ -11.40 дБ 3:43 52-Раскаянье
DR14 -0.10 дБ -15.65 дБ 4:20 53-Не забывайте друзей!
--------------------------------------------------------------------------------
Количество треков: 53
Реальные значения DR: DR11
Частота: 44100 Гц
Каналов: 2
Разрядность: 16
Битрейт: 923 кбит/с
Кодек: FLAC
================================================================================
-----------------------
DON'T MODIFY THIS FILE
-----------------------
PERFORMER: auCDtect Task Manager, ver. 1.6.0 RC1 build 1.6.0.1
Copyright (c) 2008-2010 y-soft. All rights reserved
http://y-soft.org
ANALYZER: auCDtect: CD records authenticity detector, version 0.8.2
Copyright (c) 2004 Oleg Berngardt. All rights reserved.
Copyright (c) 2004 Alexander Djourik. All rights reserved.
FILE: 01. Синий туман.flac
Size: 28227851 Hash: AD64508F96E950DE749C3713390B8F40 Accuracy: -m8
Conclusion: CDDA 100%
Signature: 13D66A37A7C4C0A06224CE0CA060FDA61F647C15
FILE: 02. Акулина.flac
Size: 23194324 Hash: A6284C0523CE4E3A7BEAA1F06BF1BF7D Accuracy: -m8
Conclusion: CDDA 100%
Signature: C2233D753C5D8DE7F347484B364A2D100BA870D5
FILE: 03. Случайная ночь.flac
Size: 25981755 Hash: E54B7F67CF508192669A7D6EF6127B98 Accuracy: -m8
Conclusion: CDDA 100%
Signature: B201367BC8F09C29CA09544A7C373482DB8BDFB9
FILE: 04. Не сыпь мне соль на рану.flac
Size: 36232152 Hash: 7080A34E150647A1431448696ADF8286 Accuracy: -m8
Conclusion: CDDA 99%
Signature: 80E7706DC68302B52A4C3FB310129DBE4458EB6E
FILE: 05. Никто тебя не любит так как я.flac
Size: 36623554 Hash: 6D03B225F239F8F62056D4652707A8F0 Accuracy: -m8
Conclusion: CDDA 100%
Signature: 5BEF11338BE393F474109EF9ED7CB05C24B6F486
FILE: 06. Пиковая дама.flac
Size: 31182604 Hash: 2A846D2A698DE280D55509F575F53AA4 Accuracy: -m8
Conclusion: CDDA 100%
Signature: D8E4C691E961C5BB0B974FE61D59991139184BD4
FILE: 07. Бабушки-старушки.flac
Size: 22737959 Hash: E388342051A091A9099E66DFBA075166 Accuracy: -m8
Conclusion: CDDA 100%
Signature: F42B3A9227650536374AEAA41E3D8839340BB212
FILE: 08. Киса.flac
Size: 21102205 Hash: 0349BA0A5EA690C4C8F93F17AD9EC74C Accuracy: -m8
Conclusion: CDDA 100%
Signature: 42AF510EA84E21BFD8C256934D23811C91F3D9E8
FILE: 09. Две свечи.flac
Size: 40364998 Hash: 059AFC16534B09F026F341E790552E8E Accuracy: -m8
Conclusion: CDDA 100%
Signature: 98378C17D01D45381D03F68457F1684D09DE74B1
FILE: 10. Не обижай меня судьба.flac
Size: 29190100 Hash: 3B01A18D4342247012B9E4CBC8771E2E Accuracy: -m8
Conclusion: CDDA 100%
Signature: 35E29F264E3C3A65A0068D73570AD19E9478F4F4
FILE: 11. Качается вагон.flac
Size: 33330944 Hash: 58A7DBB8D9FCD9C80F94E5DC44B87466 Accuracy: -m8
Conclusion: CDDA 100%
Signature: 4BB24FC95B28C807186383FA9B59CE335B1E05E0
FILE: 12. Нежная.flac
Size: 28093714 Hash: 181B055E9D8B47BF69B3AEDC97543267 Accuracy: -m8
Conclusion: CDDA 100%
Signature: BE04A94C4598BD4FA2F28905B7451BCAB157E9DC
FILE: 13. У фонтана.flac
Size: 21461301 Hash: 01C2EF9B97189D0B66915DF1B5C21F30 Accuracy: -m8
Conclusion: CDDA 99%
Signature: 4FF6368C16C462DCC36399D70DB82FC51F21DA41
FILE: 14. Ах, какая женщина.flac
Size: 34686286 Hash: 0701CDD1AD28B11CD70EF4F7A5185332 Accuracy: -m8
Conclusion: CDDA 62%
Signature: 02EB6A0D9CF6FA2B6D806F1611B9F405403861B7
FILE: 15. Льётся музыка.flac
Size: 30533413 Hash: 450F86459476B59A85B90648FD416BE0 Accuracy: -m8
Conclusion: CDDA 100%
Signature: 057BAF3AA6A605D436FD1CFFD4D8821F2B0343B9
FILE: 16. А кому какое дело.flac
Size: 27641174 Hash: 9913D8F373E4F83A105717A1D04E2DED Accuracy: -m8
Conclusion: CDDA 99%
Signature: EED39C71876BE5E5F301BAAF4D7FBBC5EE043960
FILE: 17. Я боюсь твоей любви.flac
Size: 36162714 Hash: CE9D4A71B4536CF03554A6495195E661 Accuracy: -m8
Conclusion: CDDA 100%
Signature: 29CAF70176AF2E0A72EC81FD25B160A8434A735B
FILE: 18. Будет праздник.flac
Size: 27543646 Hash: 21935AD605C96CB0BED636FE8EE1A6A0 Accuracy: -m8
Conclusion: CDDA 100%
Signature: 4B3A704F3F4C3313E93486023A42B9B1DF3DE612
FILE: 19. Заблудился.flac
Size: 21976675 Hash: 4400F6DF13276068C0A08D8EEEF0D7FA Accuracy: -m8
Conclusion: CDDA 99%
Signature: 217AE94B91B1A600300F4C2E06CED63ED2270632
FILE: 20. Я своё отгулял.flac
Size: 23637370 Hash: 5E471EBDA45C7E6C69232B444E7002E1 Accuracy: -m8
Conclusion: CDDA 99%
Signature: F7B1E71E3F09F3225AF76DC2899780EB5A8D749B
FILE: 21. Солнце отгорело.flac
Size: 33808797 Hash: 23E9FF79A4FAC659ADFB9F74BFD4DAF8 Accuracy: -m8
Conclusion: CDDA 100%
Signature: 83405966C4AFBF15EE9B74FFEFB3616C603DD032
FILE: 22. Загнал коней.flac
Size: 24867801 Hash: 5A2F8CFE30609E19C4B45A2B77598C13 Accuracy: -m8
Conclusion: CDDA 100%
Signature: 1DBB2809D35E08AA76E06AD74C33D17CC8DD2C0B
FILE: 23. Сумасшедший дождь.flac
Size: 36537066 Hash: 753839EB9B5C6BE36C96DDE5771ED21F Accuracy: -m8
Conclusion: CDDA 85%
Signature: 2FE668CC271AFF207F17DC5C3B6A712C7299CE27
FILE: 24. Казино.flac
Size: 30767062 Hash: 37C82EEFFD66E3268BA6E169EF438BFE Accuracy: -m8
Conclusion: CDDA 100%
Signature: 14A58B526354B8E6EC12F3CC1B7B1EEC89D39F20
FILE: 25. Маленькое чудо.flac
Size: 24080891 Hash: 8D297A45B36F0048BC5B2E14FE223CA5 Accuracy: -m8
Conclusion: CDDA 100%
Signature: 97F7ECC931DF23246AF923610A57D06C1B6FE3BC
FILE: 26. Пустые разговоры.flac
Size: 28758796 Hash: 03606CD4118556E3368B6FAED54CDF0E Accuracy: -m8
Conclusion: CDDA 100%
Signature: 7B6EDFF69897A525C519AD8980384C7BBF34AD7D
FILE: 27. Ты меня пожалей.flac
Size: 31510956 Hash: B1D5605F910C50D88271214799B809A4 Accuracy: -m8
Conclusion: CDDA 99%
Signature: 6B1A8F28D2DDB0936A99EC4DA3C482AEC4CBB2AE
FILE: 28. Не берите в голову.flac
Size: 34655791 Hash: 67E6DB649CDF7591CF239E7759D66939 Accuracy: -m8
Conclusion: CDDA 100%
Signature: 5B2090B884CC95D8AD6EC4902B6320FC45399567
FILE: 29. Пропадаю.flac
Size: 27568258 Hash: 063FA9B526DD9FBCCA7920E585CD392D Accuracy: -m8
Conclusion: CDDA 100%
Signature: 1DE4FF72CDBC7CF967110240B48FD40BEEB05DAF
FILE: 30. Я и гроша не дам.flac
Size: 25082786 Hash: 5D6D678D9E93F9903FED0E13A6486D75 Accuracy: -m8
Conclusion: CDDA 76%
Signature: 5850C931B722214A31C2F19F7FE307FD2E25B94F
FILE: 31. Выходной.flac
Size: 32136228 Hash: 9AC8873D8D903B996DC5B5BDE8F72844 Accuracy: -m8
Conclusion: CDDA 100%
Signature: A26FF030191273FB4214F5046001377EFD95A92F
FILE: 32. Измена.flac
Size: 23516195 Hash: 51AFAE5A5A681B29312535C25949FD1A Accuracy: -m8
Conclusion: CDDA 100%
Signature: 19CD332293FB104E9BA07AE8375B5981E0519780
FILE: 33. Когда-нибудь.flac
Size: 28848343 Hash: D57CDE46DBB8219E5D997388192FE544 Accuracy: -m8
Conclusion: CDDA 85%
Signature: 8070FDD154A9F6F94EF8010EBD8E7F060983EA1A
FILE: 34. Любовники.flac
Size: 27063288 Hash: 9FC841863DF605BC26114E4481A7E7D7 Accuracy: -m8
Conclusion: CDDA 100%
Signature: B1FCC28F18464BF99F14E40295A54356E4A16F8F
FILE: 35. Где же ты была.flac
Size: 26053287 Hash: 126C29C8BC8576B3AFCD64BEE3D9803A Accuracy: -m8
Conclusion: CDDA 94%
Signature: FB3B2D39AA0BEC8BC0CD83E085786B0A1F3F26D9
FILE: 36. Стена.flac
Size: 32315443 Hash: A0BE3EA6D3AD9EBF141F52AF0DADCDF6 Accuracy: -m8
Conclusion: CDDA 100%
Signature: C0C38601C1884C4212E2B6028D87042BD5B77AAA
FILE: 37. Капитан запаса.flac
Size: 23389863 Hash: 21CE791D96356612CE48D2F44D006591 Accuracy: -m8
Conclusion: CDDA 100%
Signature: 6DBB1D5E1F30630676A3E9CD2FB5E98A3E717245
FILE: 38. Улыбнись мне, моя отрада.flac
Size: 32785348 Hash: ED9647E92D8C340EA797825B00B9D57B Accuracy: -m8
Conclusion: CDDA 92%
Signature: 5193C62D9ED4768323C7FB608E5E9AE552011DA9
FILE: 39. Колдовское озеро.flac
Size: 20179277 Hash: 1EDDB9F5B7CA8D5D4E20D0F03827FAE1 Accuracy: -m8
Conclusion: CDDA 100%
Signature: A0AAD89450B6430DF6576C73FF356EF76C65ED12
FILE: 40. Успокойся.flac
Size: 19508520 Hash: 751D69C94C489410942FAC3F83E619A2 Accuracy: -m8
Conclusion: CDDA 100%
Signature: E406A6C1C53B72A77E235C4D6C61646B40D56929
FILE: 41. Была не была.flac
Size: 27616056 Hash: 857A905F134ADAE8B968B2404B9561CA Accuracy: -m8
Conclusion: CDDA 100%
Signature: F7486A1E8B04C65B38BB17E7813FB8D2511E22CD
FILE: 42. Вот и расстались.flac
Size: 47346028 Hash: 4BA677F75BD65E4CDD92364ABC31A445 Accuracy: -m8
Conclusion: CDDA 100%
Signature: 73E652C162DFD23C9C969EFC5D060345B87EF548
FILE: 43. На юге дальнем.flac
Size: 32269892 Hash: BD7A2E7D1F33774CDF2A6D9C1365B7F6 Accuracy: -m8
Conclusion: CDDA 100%
Signature: 354107717D401AA55A5C06D6055296524D205F3F
FILE: 44. Как скажешь так и будет.flac
Size: 26934504 Hash: 17AAE7E9E261B46C7E0B4EDE6E124644 Accuracy: -m8
Conclusion: CDDA 100%
Signature: F587893E2DFEAFA726C95290005852E1E0EA00B9
FILE: 45. Спасатель.flac
Size: 23626638 Hash: 237CB72F2FAF0559765C6E870D1A747E Accuracy: -m8
Conclusion: CDDA 100%
Signature: C12C14F353CCE9EF38C41C1CA51BBE5B10894E42
FILE: 46. Зажгите огонь.flac
Size: 25507740 Hash: 105323495E93197E5FF2F495B1FE8352 Accuracy: -m8
Conclusion: CDDA 100%
Signature: 05FFAEDCB13C1F43656F93D876A269C8C94E6C73
FILE: 47. Вспомни.flac
Size: 31157030 Hash: 8D5D8B07F92A25ADE01D5330F63B7D6D Accuracy: -m8
Conclusion: CDDA 100%
Signature: D5BC6FCBD0FBBB17BB6FD3D0B8B761E3D4D91B63
FILE: 48. Уходишь ты.flac
Size: 33139097 Hash: B37C873B85E103500D0B40DADBF59EAB Accuracy: -m8
Conclusion: CDDA 100%
Signature: 3996E3425C09D2971EFF3A657955F9FD03984BF7
FILE: 49. Не понимаю.flac
Size: 23717027 Hash: 62865F2D49777381A8F7455D1602480C Accuracy: -m8
Conclusion: CDDA 100%
Signature: BE0B9439346CF3FF2037AE81833730F85785181B
FILE: 50. Сегодня вечером.flac
Size: 22982379 Hash: 9E24190CFA6C65341DDEA6C1B0E5DF5F Accuracy: -m8
Conclusion: CDDA 100%
Signature: 1DA34D47941FD0B0F9E03C6273829E3C29DB00C6
FILE: 51. Нескучный сад.flac
Size: 22688753 Hash: 30F4A68B4CAB3887E9767A35CAE6C8A5 Accuracy: -m8
Conclusion: CDDA 100%
Signature: 02BCCB87034BA552A64B7A3FF746E627D74076C5
FILE: 52. Раскаянье.flac
Size: 28015216 Hash: 76EA39CA20639AC85C2E74F4177C9AF5 Accuracy: -m8
Conclusion: CDDA 100%
Signature: FD71F14A4B934704AA22E70336032ADAD8CC57AE
FILE: 53. Не забывайте друзей!.flac
Size: 30126219 Hash: 72857A98836063D0F91DF1EBA9FCBB4A Accuracy: -m8
Conclusion: CDDA 100%
Signature: 276CFE1DF6E6D329D5B2CF9E1DF079AAC38B727B
 

Current time is: 29-Jan 08:01

All times are UTC + 3