Search found 209 matches

Author Message

admin

Post 23-Jun-2022 13:10

[Quote]

Название: Коллекция [51 Альбом]
Исполнитель: Ласковый май, Шатунов Юрий, Разин Андрей
Жанр: Pop
Страна: СССР, РФ
Годы: 1988-2012
Формат/Кодек: FLAC
Общая продолжительность: 43:37:22
Информация о...
Группа была создана 6 декабря 1986 года в Оренбургской школе-интернате № 2 руководителем музыкального кружка Сергеем Кузнецовым и тринадцатилетним учеником школы Юрием Шатуновым.
Группа начала свою сценическую карьеру в 1988 году у себя в Оренбурге в составе Сергея Кузнецова и Константина Пахомова. Бывший в то время продюсером группы Мираж Андрей Разин перевозит группу в Москву, где участники группы «Ласковый май» жили в Московском интернате №24 (Сколковское шоссе, 6), там же работала студия «Ласковый май».
«Ласковый май» стал первой юношеской группой, ориентированной на подростков в СССР, которая приобрела огромную популярность не только среди подростков, но и среди людей всех возрастов. Во многом это произошло благодаря симпатии общества к участию в группе подростков из детских домов, эксплуатации в песнях темы сиротства; сыграла свою роль и грамотная раскрутка группы Андреем Разиным.
Благодаря невероятному успеху группы, в 1989 году на пике популярности «Ласкового мая» разнообразные «клоны» группы с названием «Ласковый май» гастролировали одновременно в разных городах. В 1989 году была основана студия, в которой прослушивались одаренные дети. Сам же «Ласковый май» собирал многотысячные стадионы (40-60 тысяч человек) и установил рекорд по количеству концертов в день. Количество достигало восьми концертов за день и более сорока концертов за месяц.
Российская эстрада столкнулась с феноменом, до сих пор необъяснимым. Песни, на первый взгляд простые, оказались не по зубам многим композиторам и поэтам, которые уже давно работали в шоу-бизнесе. Попытки создания новых песен, таких, как «Розовый вечер» и «Белые розы» и другие хиты, не имели такого успеха, как и копирование самого стиля группы «Ласковый май».
Вместе с тем «Ласковый май» был группой, оказывавшей огромное влияние на формирование жанра поп-музыки в России. Повторить феноменальный успех группы «Ласковый май» пока в нашей стране не удалось никому. По некоторым данным, каждый третий житель России хоть раз, но был на концерте группы...
Коллекция

1988 - 1-й альбом (Белые розы) [Оренбург] 28:10 ~1046 kb/s 211 Mb

Трек-лист:
01. Белые розы [05:14]
02. Лето [03:24]
03. Ну что же ты [04:45]
04. Пусть будет ночь [05:13]
05. Седая ночь [06:04]
06. Я откровенен только лишь с Луною [03:27]

1988 - 1-й альбом (Белые розы) [Оренбург] [24/96] 30:05 ~2765 kb/s 595 Mb


Треклист:
01. Лето [3:38]
02. Ну, что же ты [5:05]
03. Седая ночь [6:30]
04. Пусть будет ночь [5:33]
05. Я откровенен только лишь с Луною [3:47]
06. Белые розы [5:31]

1988 - 1-й альбом (Белые розы) [Москва, студия 'Рекорд'] 30:13 ~948 kb/s 205 Mb


Трек-лист:
01. Белые розы [05:40]
02. Я откровенен только лишь с Луною [04:00]
03. Лето [03:29]
04. Пусть будет ночь [05:08]
05. Седая ночь [06:59]
06. Ну что же ты [04:54]

1988 - 2-й альбом (Лето обмануло нас) 37:29 ~2844 kb/s 763 Mb


Треклист:
01. Вступление [1:15]
02. Шатунов Юрий - Медленно уходит осень [5:29]
03. Пахомов Константин - Желаю счастья [4:22]
04. Пахомов Константин - Ветер холодной зимы [6:26]
05. Пахомов Константин - Берег Крма [5:36]
06. Немного о себе (Instrumental) [4:33]
07. Пахомов Константин - Что ж ты, лето? [5:09]
08. Пахомов Константин - Цветы [4:39]

1988 - 3-й альбом (Старый лес) 28:53 ~1018 kb/s 210 Mb


Треклист:
01. Разин Андрей - Старый лес [5:58]
02. Разин Андрей - Гадкий утёнок [4:23]
03. Инструментал [4:35]
04. Разин Андрей - Ветер холодной зимы [6:09]
05. Разин Андрей - Маскарад [3:12]
06. Разин Андрей - Желаю счастья [4:36]

1988 - 4-й альбом (Разбитая любовь) 21:55 ~3101 kb/s 486 Mb


Треклист:
01. Куликовы Юрий и Виктор - Мне больше не нужно [3:42]
02. Куликовы Юрий и Виктор - Не нужна мне твоя любовь [4:13]
03. Куликовы Юрий и Виктор - Я хочу [4:29]
04. Куликовы Юрий и Виктор - Я мечтаю только о тебе [4:45]
05. Куликовы Юрий и Виктор - Милая мадам [4:45]

1989 - 5-й альбом (8 Марта) 28:48 ~3036 kb/s 625 Mb


Треклист:
01. Вступление [1:11]
02. Шатунов Юрий - Тающий снег [5:25]
03. Разин Андрей - Берег Кр-ма [5:00]
04. Разин Андрей - Мне больше не нужно [4:31]
05. Разин Андрей - Нас покидает осень [4:43]
06. Разин Андрей - Филин [3:45]
07. Пахомов Константин - Холодный берег [4:13]

1989 - 6-й альбом (Розовый вечер) 45:55 ~3091 kb/s 1 Gb


Треклист:
01. Вступление [2:55]
02. Розовый вечер [4:11]
03. Медленно уходит осень [5:37]
04. Телефонный роман [4:18]
05. Всё [6:31]
06. Инструментальная пьеса [5:38]
07. Пусть будет ночь [5:13]
08. Взрослые [6:10]
09. Заключение [0:24]
10. Ну, что же ты [4:58]

1989 - 7-й альбом (На крыше) 30:55 ~2976 kb/s 658 Mb


Треклист:
01. Вступление [1:15]
02. Шатунов Юрий - Бездомный пёс [5:15]
03. Шатунов Юрий - Месяц июль [4:42]
04. Шатунов Юрий - На крыше [4:24]
05. Разин Андрей - Летний дождь [5:55]
06. Шатунов Юрий - Взрослые [6:01]
07. Инструментал [3:23]

1989 - 8-й альбом (Гудбай, беби!) 32:44 ~3021 kb/s 708 Mb


Треклист:
01. Вступление [2:25]
02. Разин Андрей - Гудбай, беби! [3:55]
03. Разин Андрей - Калейдоскоп [4:34]
04. Шурочкин Владимир - Ласковый май [5:18]
05. Шурочкин Владимир - Ночь [4:17]
06. Шурочкин Владимир - Пожелание [4:22]
07. Шурочкин Владимир - Кто-то другой [3:27]
08. Шурочкин Владимир - Месяц май [4:27]

1989 - 9-й альбом (Баллада о любви) 38:30 ~3040 kb/s 837 Mb


Треклист:
01. Пахомов Константин - Ты, я и море [4:06]
02. Пахомов Константин - Светлана [4:26]
03. Пахомов Константин - Ласковое лето [4:28]
04. Пахомов Константин - Баллада о любви [6:14]
05. Пахомов Константин - Цветы [5:05]
06. Пахомов Константин - Первый полёт [4:48]
07. Пахомов Константин - Холодный берег [4:19]
08. Пахомов Константин - Что ж ты, лето? [5:05]

1989 - 10-й альбом (Сказочный берег) 26:03 ~849 kb/s 158 Mb


Треклист:
01. Вступление Студии Мастер [0:34]
02. Intro [2:50]
03. Гуров Андрей - Ты, я и море [4:21]
04. Куликовы Юрий и Виктор - Сказочный берег [4:55]
05. Куликовы Юрий и Виктор - Незнакомая девушка [4:08]
06. Куликовы Юрий и Виктор - Только ты [3:37]
07. Куликовы Юрий и Виктор - Разлука [4:18]
09. Реклама Студии Мастер [0:48]
10. Реклама Студии Мастер 2 [0:32]

1989 - 11-й альбом (Именины у Кристины) 44:44 ~986 kb/s 316 Mb


Треклист:
01. Вступление [1:54]
02. Разин Андрей - Именины у Кристины [3:38]
03. Разин Андрей - Брошенный котёнок [5:25]
04. Разин Андрей - Красный лимузин [4:44]
05. Разин Андрей - Пресса [4:26]
06. Разин Андрей - Дядя Миша [4:40]
07. Разин Андрей - Атаман [4:24]
08. Extro [1:44]
09. Разин Андрей - Похолодало [3:08]
10. Разин Андрей - Недотрога [2:57]
11. Разин Андрей - Я вас любил [3:34]
12. Разин Андрей - Розовый вечер [4:11]

1989 - Белые розы 12:44 ~2834 kb/s 269 Mb


Треклист:
01. Белые розы [5:47]
02. Седая ночь [6:56]

1989 - Гадкий утёнок 13:39 ~2837 kb/s 287 Mb


Треклист:
01. Разин Андрей - Гадкий утёнок [4:09]
02. Разин Андрей - Маскарад [3:17]
03. Разин Андрей - Вечер холодной зимы [6:13]

1989 - Маскарад 43:24 ~2824 kb/s 888 Mb


Треклист:
01. Гудбай, бэби! [4:02]
02. Калейдоскоп [4:39]
03. Маскарад [3:17]
04. Ласковый май [5:27]
05. Тающий снег [5:45]
06. Лето [3:30]
07. Я откровенен только лишь с Луной [3:58]
08. Белые розы [5:50]
09. Седая ночь (Bonus) [6:56]

1989 - Птицы 28:03 ~3029 kb/s 608 Mb


Треклист:
01. Птицы [5:39]
02. Колесо [4:26]
03. Любимая девчонка [4:35]
04. Я пожелать хочу [4:27]
05. Татьяна [3:17]
06. Телефон [5:40]

1990 - 12-й альбом (Глупые снежинки) 43:08 ~2435 kb/s 753 Mb


Треклист:
01. Метель в чужом городе [8:27]
02. Ты просто был [6:45]
03. Глупые снежинки [6:18]
04. Осенний парк [6:40]
05. Весенний дождь [4:55]
06. Всё напрасно [5:11]
07. От улыбок и слёз [4:52]

1990 - 13-й альбом (Машка-матрёшка) 30:11 ~982 kb/s 213 Mb


Треклист:
01. Шурочкин Владимир - Коллаж (Попурри) [3:48]
02. Шурочкин Владимир - Осень [4:50]
03. Шурочкин Владимир - Машка-матрёшка [4:52]
04. Шурочкин Владимир - Вирджиния [3:18]
05. Шурочкин Владимир - Уходит лето [4:27]
06. Шурочкин Владимир - Тень [4:35]
07. Шурочкин Владимир - Замкнутый круг [4:21]

1990 - 14-й альбом (Озорная девчонка) 53:28 ~2937 kb/s 1.09 Gb


Треклист:
01. Вступление [1:24]
02. Крестовский Олег - Озорная девчонка [4:38]
03. Крестовский Олег - Кончилось лето [5:09]
04. Крестовский Олег - Незабудки [4:32]
05. Крестовский Олег - Подснежники [5:18]
06. Крестовский Олег - Не лги мне, девочка [6:20]
07. Крестовский Олег - Я не хочу [5:23]
08. Крестовский Олег - Без тебя [4:28]
09. Корнилов Игорь и группа Дети Арбата - Эй, капитан [4:00]
10. Корнилов Игорь и группа Дети Арбата - Возьми моё сердце [4:44]
11. Корнилов Игорь и группа Дети Арбата - Последний дождь [4:31]
12. Корнилов Игорь и группа Дети Арбата - Поезд унесёт [2:59]

1990 - 15-й альбом (Возвращайся) 40:05 ~3078 kb/s 883 Mb


Треклист:
01. Вступление [1:03]
02. Гуров Юрий - Летняя вьюга [5:16]
03. Гуров Юрий - Не грусти [4:49]
04. Гуров Юрий - Возвращайся [5:02]
05. Гуров Андрей - Что мне делать - не знаю [4:52]
06. Гуров Андрей - Серебряные розы [5:38]
07. Гуров Андрей - Случайное счастье [5:13]
08. Гуров Андрей - Телефонный роман [4:18]
09. Гуров Андрей - День рождения [3:55]

1990 - 16-й альбом (Остров на двоих) 42:22 ~2658 kb/s 806 Mb


Треклист:
01. Вступление [0:20]
02. Разин Андрей - Остров на двоих [5:36]
03. Разин Андрей - Если ты помнишь [5:06]
04. Разин Андрей - Наш маленький дом [3:00]
05. Extro [0:20]
06. Разин Андрей - Останься [4:04]
07. Разин Андрей - Синий ветер [4:20]
08. Extro 2 [0:13]
09. Разин Андрей - Эльдорадо [4:55]
10. Разин Андрей - Инструментал [2:57]
11. Корнилов Игорь и группа Дети Арбата - Эй, капитан [3:52]
12. Корнилов Игорь и группа Дети Арбата - Дождь [4:22]
13. Корнилов Игорь и группа Дети Арбата - Талый снег [3:16]

1991 - 17-й альбом (Фатима) 38:46 ~968 kb/s 269 Mb


Треклист:
01. Разин Андрей - Фатима [4:07]
02. Разин Андрей - На белом покрывале января [4:39]
03. Разин Андрей - К любимой бабушке [5:10]
04. Шатунов Юрий - Новый год [3:59]
05. Шатунов Юрий - Закрой за мной дверь [4:30]
06. Шатунов Юрий - Ради тебя [5:29]
07. Матяш Юрий - Фрегат [5:36]
08. Разин Андрей - Америка [5:14]

1992 - 18-й альбом (Случайная встреча) 22:56 ~1012 kb/s 166 Mb


Треклист:
01. Барабаш Юрий - Младшая сестрёнка [3:58]
02. Барабаш Юрий - Случайная встреча [3:54]
03. Барабаш Юрий - Скорый поезд [3:56]
04. Барабаш Юрий - Я не верю [4:20]
05. Барабаш Юрий - Всё, что было раньше [3:46]
06. Барабаш Юрий - Это не любовь [3:02]

1993 - Знаешь... 28:20 ~894 kb/s 182 Mb


Треклист:
01. Детство [4:15]
02. Вот и кончается лето... [5:24]
03. Знаешь... [4:30]
04. Рано ушедшая осень [4:14]
05. Я хочу, чтобы вечер длился [4:43]
06. Девочка моей мечты [5:15]

1995 - От белых роз до Эльдорадо 01:15:21 ~911 kb/s 494 Mb


Треклист:
01. Остров на двоих [5:59]
02. Если ты помнишь [5:05]
03. Маленький дом [3:20]
04. Останься [4:11]
05. Синий ветер [4:31]
06. Эльдорадо [5:12]
07. Атаман [4:24]
08. Брошенный котёнок [5:26]
09. Фатима [4:10]
10. Похолодало [3:08]
11. Старый лес [5:57]
12. Мне больше не нужно [4:37]
13. Красный лимузин [4:44]
14. Розовый вечер [4:11]
15. На белом покрывале [4:41]
16. Шатунов Юрий - Белые розы [5:46]

1995 - Ты помнишь... 55:30 ~783 kb/s 342 Mb


Треклист:
01. Звёздная ночь [4:17]
02. Клянусь [4:18]
03. Чужая боль [6:59]
04. Письмо [6:16]
05. Мама [6:00]
06. И упав на колени [4:15]
07. Старый дом [5:56]
08. Утренний снег [6:05]
09. Беглец [6:48]
10. Детский дом [4:35]

1996 - 19-й альбом (Искусственное дыхание) 01:06:12 ~807 kb/s 388 Mb


Треклист:
01. Метель в чужом городе [7:46]
02. Седая ночь [6:52]
03. Я откровенен только лишь с Луною [6:31]
04. Ну, что же ты? [6:25]
05. Всё напрасно [6:05]
06. Тающий снег [7:20]
07. Лето [5:49]
08. Белые розы [5:44]
09. Розовый вечер [7:50]
10. Месяц июль [5:50]

1996 - Лучшее 01:13:22 ~964 kb/s 514 Mb


Треклист:
01. Intro [1:12]
02. Шатунов Юрий - Белые розы [5:45]
03. Петлюра - Младшая сестрёнка [4:02]
04. Шатунов Юрий - Рано ушедшая осень [4:14]
05. Разин Андрей - Фатима [4:10]
06. Петлюра - Случайная встреча [3:56]
07. Шатунов Юрий - Детство [4:15]
08. Шатунов Юрий - Девочка моей мечты [5:15]
09. Разин Андрей - Кот [5:26]
10. Разин Андрей - Бабушка [5:01]
11. Разин Андрей - Автомобиль [4:44]
12. Разин Андрей - Старый лес [5:57]
13. Разин Андрей - Дядя Миша [4:42]
14. Разин Андрей - На белом покрывале января [4:41]
15. Разин Андрей - Калейдоскоп [4:38]
16. Шурочкин Владимир - Ласковый май [5:23]

1996 - Розовый вечер 01:06:39 ~918 kb/s 444 Mb


Трек-лист:
01. Розовый вечер [04:10]
02. Метель в чужом городе [08:09]
03. Глупые снежинки [06:11]
04. Ты просто был [06:44]
05. Дождь [04:50]
06. Осенний парк [06:35]
07. Ради тебя [05:31]
08. Всё напрасно [05:10]
09. Закрой за мной дверь [04:32]
10. Девочка моей мечты [05:15]
11. Детство [04:14]
12. Бездомный пёс [05:14]

1998 - 20-й альбом (И вот тогда приходит кайф...) 34:09 ~895 kb/s 223 Mb


Треклист:
01. Кучеров Андрей - Анжелика [4:05]
02. Кучеров Андрей - Девочка из бара [3:20]
03. Кучеров Андрей - Дед Мороз [4:06]
04. Кучеров Андрей - Life is Life [3:23]
05. Кучеров Андрей - Распутница [3:34]
06. Кучеров Андрей - Дикий пляж [2:56]
07. Кучеров Андрей - Не гони меня [3:52]
08. Кучеров Андрей - Награда [4:27]
09. Кучеров Андрей - Девочки!!! [4:28]

2000 - Белые розы 01:03:22 ~923 kb/s 419 Mb


Треклист:
01. Белые розы [5:45]
02. Я откровенен только лишь с Луною [4:01]
03. Лето [3:29]
04. Тающий снег [5:45]
05. Седая ночь [7:04]
06. Ну, что же ты [4:53]
07. Всё... [6:32]
08. Медленно уходит осень [5:42]
09. Телефонный роман [4:18]
10. Пусть будет ночь [5:09]
11. Взрослые [6:06]
12. Месяц июль [4:39]

2000 - Легенды 02:14:58 ~986 kb/s 964 Mb


Треклист CD1:
01. Шатунов Юрий - Я не хочу [5:19]
02. Разин Андрей - Филин [4:06]
03. Крестовский Олег - Озорная девочка [4:40]
04. Гуров Юрий - Летняя вьюга [5:13]
05. Прико Александр - Я так жду [5:47]
06. Разин Андрей - Осень [4:50]
07. Гуров Андрей - День рождения [3:51]
08. Куликов Юрий - Разлука [4:19]
09. Барабаш Юрий - Скорый поезд [3:56]
10. Крестовский Олег - Не забывай [4:30]
Треклист CD2:
01. Крестовский Олег - Подснежник [5:09]
02. Крестовский Олег - Знаю [6:12]
03. Гуров Юрий - Я прошу тебя [4:56]
04. Матяш Юрий - Фрегат [5:36]
05. Разин Андрей - Атаман [4:23]
06. Барабаш Юрий - Я не верю [4:20]
07. Куликов Юрий - Я мечтаю о тебе [4:39]
08. Шатунов Юрий - Всё напрасно [5:03]
09. Разин Андрей - Дом с трубой [3:02]
Треклист CD3:
01. Гуров Юрий - Не грусти [4:42]
02. Разин Андрей - Гадкий утенок [4:26]
03. Барабаш Юрий - Всё, что было раньше [3:46]
04. Крестовский Олег - Кончилось лето [5:08]
05. Шатунов Юрий - А я... [4:47]
06. Гуров Андрей - Что делать, я не знаю [4:49]
07. Крестовский Олег - А без тебя [4:28]
08. Разин Андрей - Маскарад [3:22]
09. Барабаш Юрий - Это не любовь [3:02]
10. Прико Александр - Кончено все [6:35]

2000 - Ты ещё это не слышал! 35:30 ~858 kb/s 218 Mb


Треклист:
01. А ночь темна [3:37]
02. А помнишь... [5:20]
03. Вокзал [4:00]
04. Если хочешь (Просто мечты) [3:57]
05. Июльский дождь [3:51]
06. Отзвенело лето [2:54]
07. Последний снег [3:55]
08. Слёзы твои [3:49]
09. Случайная встреча [4:06]

2000 - Ты одна на всей Земле! 40:04 ~994 kb/s 296 Mb


Треклист:
01. Я устал [3:58]
02. Дожди [4:25]
03. Всё кончается внезапно [4:08]
04. Такси [3:23]
05. Шуз-блюз [4:11]
06. Игрок [3:26]
07. Море [4:25]
08. Ты одна на всей Земле! [3:40]
09. Юлия [3:34]
10. Лист осенний [4:55]

2001 - Вспомни май 39:42 ~961 kb/s 274 Mb


Треклист:
01. Забудь [3:22]
02. Лето [3:41]
03. Твой дневник [4:05]
04. Напиши [3:33]
05. Государство детство [3:50]
06. Я теряю [3:06]
07. Вспомни [3:25]
08. Я не люблю этот парк [4:45]
09. Я перессорился с дождем [4:15]
10. Вечер вдвоём [3:15]
11. Листопад [2:25]

2001 - Вспомни о первой встрече 01:19:29 ~974 kb/s 578 Mb


Треклист:
01. Вспомни [3:22]
02. Лето (Version 2001) [3:38]
03. Белые розы [5:41]
04. Забудь [3:19]
05. Розовый вечер [4:06]
06. Седая ночь [6:57]
07. Лето (Original Version) [3:25]
08. Глупые снежинки [6:05]
09. Листопад [2:23]
10. Вечер вдвоём [3:10]
11. Ради тебя [5:27]
12. Всё напрасно [5:06]
13. Детство [4:11]
14. Ну, что же ты.... [4:48]
15. Пусть будет ночь [5:05]
16. Телефонный роман [4:13]
17. Я теряю [3:03]
18. Белые розы (Remix) [5:29]

2002 - New 2002 53:22 ~982 kb/s 378 Mb


Треклист:
01. Белые розы [4:35]
02. Седая ночь [4:14]
03. Ну, что же ты [4:33]
04. Пёс [4:50]
05. Кончено всё [4:14]
06. Дождь [4:12]
07. Ты просто был [4:23]
08. Осень [4:13]
09. Я откровенен лишь с Луной [4:19]
10. Розовый вечер [3:51]
11. На белом покрывале января [4:37]
12. Белые розы (Remix) [5:20]

2002 - Золотой альбом 01:08:26 ~987 kb/s 531 Mb


Треклист:
01. Звёздная ночь [4:13]
02. Детство [4:13]
03. Лето [3:27]
04. Ты просто был [6:42]
05. Седая ночь [6:59]
06. Розовый вечер [4:06]
07. Ну, что же ты [4:49]
08. И упав на колени [4:13]
09. Взрослые [6:03]
10. А я [4:46]
11. Бездомный пёс [5:11]
12. Я не хочу [5:20]
13. Белые розы - Белые розы (Dance-remix 2002) [5:03]
14. Белые розы - Художник (Dance-remix 2002) [3:20]

2002 - Падают листья 53:21 ~995 kb/s 380 Mb


Треклист:
01. Я не люблю этот парк (Remix 2002) [4:02]
02. Падают листья (Remix 2002) [3:31]
03. Седая ночь [5:35]
04. Вспомни [3:25]
05. Детство [3:36]
06. Вечер вдвоём [3:14]
07. Я теряю (Remix 2002) [3:22]
08. Забудь (Remix 2002) [4:14]
09. Я перессорился с дождем [4:14]
10. Вечер холодной зимы [5:11]
11. Твой дневник [4:05]
12. Фенечка [3:49]
13. Медленно уходит осень [5:05]

2002 - Седая ночь 56:09 ~1002 kb/s 409 Mb


Треклист:
01. Седая ночь [5:37]
02. Что же ты, лето? [4:46]
03. Фенечка [3:50]
04. Медленно уходит осень [5:07]
05. Вечер холодной зимы [5:15]
06. Падают листья [3:35]
07. Снег в сентябре [4:02]
08. Облако ночь [4:18]
09. Детство [3:37]
10. Цветы [4:22]
11. Этот вечер [3:59]
12. Я теряю (Remix 2002) [3:25]
13. Забудь (Remix 2002) [4:16]

2003 - Неизданное и лучшее 01:18:21 ~980 kb/s 550 Mb


Трек-лист:
01. Ласковый май [05:23]
02. Старый лес [05:54]
03. Филин [03:59]
04. Скорый поезд [03:56]
05. На белом покрывале [04:39]
06. Калейдоскоп [04:34]
07. Дядя Миша [04:39]
08. Гадкий утёнок [04:27]
09. Младшая сестра [03:59]
10. Кот [05:24]
11. Ветер холодной зимы [06:05]
12. Летний дождь [05:47]
13. Гуд-бай, бэби [03:59]
14. Америка [05:14]
15. Бабушка [05:10]
16. Я так жду [05:03]

2003 - Розовый вечер вновь 01:16:21 ~968 kb/s 529 Mb


Треклист:
01. Розовый вечер [4:07]
02. Седая ночь [6:58]
03. Глупые снежинки [6:10]
04. Я откровенен лишь с Луной [3:56]
05. Метель в чужом городе [8:07]
06. А я [4:47]
07. Тающий снег [5:41]
08. Дождь [6:33]
09. Ну, что же ты [4:50]
10. Ради тебя... [5:30]
11. Медленно уходит осень [5:40]
12. Всё напрасно [5:08]
13. Пусть уходит ночь [5:08]
14. Белые розы - Розовый вечер (Dance-remix 2003) [3:47]

2004 - Все хиты 45:13 ~1046 kb/s 371 Mb


Треклист:
01. Розовый вечер [4:22]
02. Белые розы [5:16]
03. Луна [5:14]
04. Осень [5:45]
05. Зимний вечер [4:44]
06. А я так жду [5:08]
07. На белом покрывале января [4:23]
08. Старый лес [5:39]
09. Скрипач [4:43]

2004 - Если хочешь... не бойся... 50:41 ~998 kb/s 362 Mb


Треклист:
01. Не бойся [3:38]
02. Если хочешь... [4:33]
03. Мне трудно говорить [3:11]
04. Цветы [5:03]
05. Ну, что же ты [5:01]
06. Дождь-дождь [4:22]
07. Белые розы [5:32]
08. Я откровенен [3:44]
09. Лето [3:36]
10. Дни уходят [3:07]
11. Пусть будет ночь [5:24]
12. Мой дождик [3:31]

2006 - Запиши мой голос 01:03:06 ~994 kb/s 455 Mb


Треклист:
01. Запиши мой голос на кассету [3:25]
02. После выпускного [3:32]
03. Летние ночи [3:50]
04. Землю обойду [2:40]
05. Сколько можно [3:38]
06. Ты прости меня, прости [3:25]
07. Две минуты [3:31]
08. А помнишь... [3:50]
09. Рассвет для двоих [3:20]
10. Мой зайчик [4:04]
11. Розовый вечер [4:07]
12. Тающий снег [5:55]
13. Детство [3:45]
14. Белые розы [5:41]
15. Забудь [3:19]
16. Медленно уходит осень [5:04]

2007 - Звезда (Все хиты) 01:06:02 ~1009 kb/s 508 Mb


Треклист:
01. Дождь [4:27]
02. Сын [4:06]
03. В небе звезда [4:14]
04. Снежинки для рассвета [3:18]
05. Разин Андрей и Лейних Крис - За тобой [4:40]
06. Разин Андрей и Бурлак Николай - Я так жду [5:07]
07. Кучеров Андрей - Кончено всё [4:20]
08. Белые розы [5:14]
09. Розовый вечер [4:19]
10. Осенний парк [5:42]
11. Пусть будет ночь [4:42]
12. Старый лес [5:38]
13. Разин Андрей и Шатунов Юрий - Седая ночь [5:34]
14. Разин Андрей и DJ Andrio - Biale Roze [4:42]

2007 - Твоя коллекция 02:37:57 ~979 kb/s 1.10 Gb


Треклист CD1:
01. Белые розы [5:42]
02. Тающий снег [5:38]
03. Я откровенен лишь с Луной [3:48]
04. Розовый вечер [4:06]
05. Лето [3:26]
06. Седая ночь [6:58]
07. Глупые снежинки [6:07]
08. Детство [4:12]
09. Ради тебя [5:29]
10. Всё напрасно [5:03]
11. Осенний парк [4:48]
12. Ты просто был [6:42]
13. Кончено всё [6:29]
14. Ну, что же ты [4:49]
15. Взрослые [6:03]
Треклист CD2:
01. Бездомный пёс [5:11]
02. Метель в чужом городе [8:06]
03. Девочка моей мечты [5:13]
04. Закрой за мной дверь [4:30]
05. Я не хочу [5:21]
06. На белом покрывале января [4:39]
07. Я так жду [5:46]
08. Али-Баба [4:07]
09. Грустная девчонка [3:59]
10. Скорый поезд [3:56]
11. Гуд-бай, бэби! [3:59]
12. Ветер холодной зимы [6:05]
13. Маскарад [3:21]
14. Дядя Миша [4:39]
15. Я не верю [4:20]
16. Ласковый май [5:24]

2008 - Все хиты 01:14:35 ~1038 kb/s 625 Mb


Треклист:
01. Метель в чужом городе [5:06]
02. А я [3:55]
03. Глупые снежинки [6:07]
04. Разин Андрей и Титов Юрий - Я так жду [5:07]
05. Рассвет [4:42]
06. Всё напрасно [5:20]
07. Знаешь [4:30]
08. Веселовский Димитрий - Мне трудно говорить [3:06]
09. Разин Андрей и Шатунов Юрий - Седая ночь [5:34]
10. Кучеров Андрей - Бродяга дождь [3:16]
11. Розовый вечер [4:19]
12. Разин Илья - Мальчишка играет [4:42]
13. Белые розы [5:14]
14. Осенний парк [5:42]
15. Дождь [4:25]
16. Бабье лето [3:30]

2010 - Оригинальные записи (1988-1989) 01:49:13 ~1016 kb/s 832 Mb


Трек-лист CD1:
01. Белые розы [05:42]
02. Я откровенен только лишь с Луною [03:54]
03. Лето [03:26]
04. Тающий снег [05:39]
05. Ну, что же ты... [04:49]
06. Медленно уходит осень [05:02]
07. Месяц июль [04:40]
08. Всё [06:29]
09. Бездомный пёс [05:11]
10. Взрослые [06:05]
Трек-лист CD2:
01. Седая ночь [06:57]
02. Пусть будет ночь [05:07]
03. Розовый вечер [04:07]
04. Метель в чужом городе [08:05]
05. Глупые снежинки [06:08]
06. Ты просто был [06:39]
07. Осенний парк [06:32]
08. А я [04:48]
09. Ради тебя [05:29]
10. Телефонный роман [04:16]

2012 - Я верю... 01:18:44 ~1035 kb/s 602 Mb


Треклист:
01. А лето цвета [4:43]
02. Без тебя [3:53]
03. От белых роз [4:11]
04. Это лето [3:50]
05. Не хочу [3:56]
06. Улыбка [3:12]
07. Глупые снежинки [6:15]
08. Майский вечер [3:12]
09. Я верю [3:09]
10. Тет-а-тет [3:45]
11. Ромашки [3:41]
12. Летний ливень [2:59]
13. Отпусти меня [3:49]
14. Разве можно [3:49]
15. Минорные аккорды [4:45]
16. Огромное небо [3:16]
17. Мой малыш [4:33]
18. Поиграем в прятки [4:09]
19. Я набираю номер твой [4:10]
20. Привет [3:27]

admin

Post 08-Jun-2022 04:09

[Quote]

Название: The Very Best Of
Исполнитель: Александр Серов
Год: 2013
Жанр: Pop
Страна: Россия
Продолжительность: 02:02:52
Формат/Кодек: FLAC
Тип рипа: Tracks
Битрейт аудио: Lossless
Носитель: WEB

Трек-лист

01. Музыка венчальная (2:57)
02. Мадонна (3:38)
03. Я люблю тебя до слез (4:31)
04. Сюзанна (3:42)
05. Как быть (4:32)
06. Ушла любовь (4:20)
07. Ты меня любишь (4:04)
08. Свет надежды (4:33)
09. Я не верю (3:11)
10. Осенняя свадьба (4:45)
11. Поезд Киев-Москва (3:20)
12. Я в тебя давно влюблен (4:08)
13. Сказочный Версаль (3:40)
14. Дождливый вечер (4:51)
15. Бесконечная любовь (4:04)
16. Моя богиня (4:04)
17. Свечи (4:23)
18. Обледенелая дверь (4:43)
19. Элизабет (4:00)
20. Ворованная ночь (4:37)
21. Капель (3:03)
22. Прости меня (3:34)
23. Звездопад (5:47)
24. Осенняя роса (4:57)
25. Воскресенье (2:34)
26. Ностальгия по тебе (3:26)
27. Мария (3:33)
28. Курортный роман (4:58)
29. Good Bye (4:47)
30. Я одинокий (4:11)

Лог проверки качества
-----------------------
DON'T MODIFY THIS FILE
-----------------------
PERFORMER: auCDtect Task Manager, ver. 1.6.0 RC1 build 1.6.0.1
Copyright (c) 2008-2010 y-soft. All rights reserved
http://y-soft.org
ANALYZER: auCDtect: CD records authenticity detector, version 0.8.2
Copyright (c) 2004 Oleg Berngardt. All rights reserved.
Copyright (c) 2004 Alexander Djourik. All rights reserved.
FILE: 01 - Музыка венчальная.flac
Size: 23038898 Hash: 6C8F812AAB5B4FDEB35C34CCDC5F8758 Accuracy: -m8
Conclusion: CDDA 100%
Signature: 82F97D9AF3B14D7A96BC226FEBCB8F8646A7BADC
FILE: 02 - Мадонна.flac
Size: 29503641 Hash: 3AD77E41F8E411805BA1A67EF1662346 Accuracy: -m8
Conclusion: CDDA 100%
Signature: 2AE99A8CB8EC9D90E88EC5EB79D4391836D56954
FILE: 03 - Я люблю тебя до слез.flac
Size: 38442606 Hash: BC10217EFB8A817843EF6FBC3DA92CDD Accuracy: -m8
Conclusion: CDDA 100%
Signature: 379C2E743A050E52682405BB9B2B2B4FE43B98A8
FILE: 04 - Сюзанна.flac
Size: 30653125 Hash: 17ADD8BA38ADF417B6FDAF4F0DF59595 Accuracy: -m8
Conclusion: CDDA 100%
Signature: FB93F68F3CBA4CEB3C281FDFF7997D54B17F6DEF
FILE: 05 - Как быть.flac
Size: 35200357 Hash: CC2969AB8D5B23A37936CE0DD9B41B9E Accuracy: -m8
Conclusion: CDDA 100%
Signature: C40414A31777FC225697C72768A74A4981689C05
FILE: 06 - Ушла любовь.flac
Size: 35914892 Hash: 6D7D4C64840A7D8C811D919E434F8941 Accuracy: -m8
Conclusion: CDDA 100%
Signature: A2DEF1C22B578CCEE5C9416159BEAFEC7DC45A2D
FILE: 07 - Ты меня любишь.flac
Size: 31783934 Hash: B9316FAD03F250977BF34C73A24F270E Accuracy: -m8
Conclusion: CDDA 100%
Signature: BBD84BDB79456BD2ABE1A6E4772F8B535C9B2FE1
FILE: 08 - Свет надежды.flac
Size: 35764293 Hash: 6F267F417BB9AD981B980D0EB257ECF4 Accuracy: -m8
Conclusion: CDDA 99%
Signature: B6A92613E8D043D2C8218CB67B77EC44ADFF8574
FILE: 09 - Я не верю.flac
Size: 25795854 Hash: 0E8BD6F0139BC2E33284D2A4819D3A4B Accuracy: -m8
Conclusion: CDDA 100%
Signature: BA5845F0847E20AE2F941802AA3DC7BD99D5B341
FILE: 10 - Осенняя свадьба.flac
Size: 32663815 Hash: EA9609CE2F0DE362FADE7E62C63FAD0C Accuracy: -m8
Conclusion: CDDA 100%
Signature: A19247F70DDFE3764FB7E585EC18CED6068A32D0
FILE: 11 - Поезд Киев-Москва.flac
Size: 25038545 Hash: 9E02C669E78A73264FB48DBD500CB703 Accuracy: -m8
Conclusion: CDDA 99%
Signature: 5F5517A8B5724676B73E8513D7943D137D9218CE
FILE: 12 - Я в тебя давно влюблен.flac
Size: 33328347 Hash: 2DBE2CDB4BDCE210F2CA5CF19A2B0931 Accuracy: -m8
Conclusion: CDDA 100%
Signature: 0A3B023BC73990F8AC0BDAD952290473FC8229AF
FILE: 13 - Сказочный Версаль.flac
Size: 28794716 Hash: C15CAE6A3220A04DFDB89A2D978BDB60 Accuracy: -m8
Conclusion: CDDA 100%
Signature: 0CF39EA2180EA99EB88A68A499E11F95BDCE7279
FILE: 14 - Дождливый вечер.flac
Size: 36382282 Hash: 5A8EA87925C8AB84D5EA41670C78E10C Accuracy: -m8
Conclusion: CDDA 100%
Signature: 08A42B3FF697B33E54F8356728D2EDF6B4F325F3
FILE: 15 - Бесконечная любовь.flac
Size: 30803477 Hash: C36C51F2A3B0D09408A8EF402340DB89 Accuracy: -m8
Conclusion: CDDA 100%
Signature: 5947568C9C816BA67F5B1D7EDD44AD0BED40D6D0
FILE: 16 - Моя богиня.flac
Size: 30608196 Hash: AA8088B6ACB16C15925CC24F5B7B4DDD Accuracy: -m8
Conclusion: CDDA 100%
Signature: C95BF6BC78192CFEC8DEEEC60B5C5E24F9638867
FILE: 17 - Свечи.flac
Size: 34789889 Hash: 5F046ACBC57DA7E47CECD32A0C238E6D Accuracy: -m8
Conclusion: CDDA 100%
Signature: BD26B7F40CFB8BFF48BC6E3E8A85C770B11B1281
FILE: 18 - Обледенелая дверь.flac
Size: 37858356 Hash: 424AE83639E2C8F607F5461781CE9A01 Accuracy: -m8
Conclusion: CDDA 100%
Signature: E9415658D46FF2201DC641928D24770A765C6839
FILE: 19 - Элизабет.flac
Size: 30961289 Hash: 491A6C9ADD824C0976D094F776158472 Accuracy: -m8
Conclusion: CDDA 100%
Signature: E4CE900C564AF3076CFFF5576F34AD800E65DBFE
FILE: 20 - Ворованная ночь.flac
Size: 35151654 Hash: 9627752AC3F3BD7F9C19AB6A3388BFC1 Accuracy: -m8
Conclusion: CDDA 58%
Signature: 4D45143A5032625AF901240BA073D26AEA42CB62
FILE: 21 - Капель.flac
Size: 24091373 Hash: 739C139670A4A00EAACFFD52464D4B78 Accuracy: -m8
Conclusion: CDDA 100%
Signature: FECF52AC08148607762CE87DE50E988CDFEC8F47
FILE: 22 - Прости меня.flac
Size: 28744483 Hash: 27A62BE8FA783F72DD4E029BA8D8D535 Accuracy: -m8
Conclusion: CDDA 100%
Signature: 394F2C1EDDEE19E015A3CDFC237B44D570D7FA67
FILE: 23 - Звездопад.flac
Size: 45596761 Hash: 2435247621EB1B34DF1FA9F9FE665596 Accuracy: -m8
Conclusion: CDDA 100%
Signature: 6BE12F9A42F545BF5F5CAC8C46E086A611CE2F0F
FILE: 24 - Осенняя роса.flac
Size: 35956628 Hash: 8ACBDFE4D00167C21D081921A7A32DC6 Accuracy: -m8
Conclusion: CDDA 100%
Signature: E16A08516D8A555E25327F4EE460840AE156193A
FILE: 25 - Воскресенье.flac
Size: 20935908 Hash: 5A557A5C90F29293BC13F10BB5A6708E Accuracy: -m8
Conclusion: CDDA 100%
Signature: 3162A4527E892D74879A1CE3029C888C48366AF7
FILE: 26 - Ностальгия по тебе.flac
Size: 24322062 Hash: B6A1CFC2D96722D5DAF9CD9849D38320 Accuracy: -m8
Conclusion: CDDA 100%
Signature: 3D6F244C4BDF47004700DD38FCE634A4E2280245
FILE: 27 - Мария.flac
Size: 28091651 Hash: 9B281AA0A5F47C56A2ADEF17F0BF95B5 Accuracy: -m8
Conclusion: CDDA 100%
Signature: F72232548067A148493ED83E1CEAD9AE80E7CDBB
FILE: 28 - Курортный роман.flac
Size: 30408105 Hash: E2B5EB58B12355A7E714291F2DE96C79 Accuracy: -m8
Conclusion: CDDA 100%
Signature: 7027E9BD37B88EB7CF5F98151CC9C183CACC1EF8
FILE: 29 - Good Bye.flac
Size: 37769843 Hash: DF297A8AAC5FDDA4B0E94F90A854442B Accuracy: -m8
Conclusion: CDDA 100%
Signature: 76028FDC9D954AEE110748F479FC1006D46C2703
FILE: 30 - Я одинокий.flac
Size: 32299830 Hash: 3544C477DAB39D4468A80E1D6F5A43E9 Accuracy: -m8
Conclusion: CDDA 100%
Signature: 1769032934D1AD5D257B30D023F5F0DF8B042545

admin

Post 07-Jun-2022 06:09

[Quote]

Название: Оригинальные записи 1988-1989
Исполнитель: Ласковый Май
Год: 2010
Жанр: Pop
Страна: Россия
Продолжительность: 01:49:13
Формат/Кодек: FLAC
Тип рипа: Image+.cue
Битрейт аудио: Lossless
Носитель: CD

Трек-лист

CD 1
01. Белые розы
02. Я откровенен только лишь с луною
03. Лето
04. Тающий снег
05. Ну, что же ты...
06. Медленно уходит осень
07. Месяц июль
08. Всё
09. Бездомный пес
10. Взрослые
CD 2
01. Седая ночь
02. Пусть будет ночь
03. Розовый вечер
04. Метель в чужом городе
05. Глупые снежинки
06. Ты просто был
07. Осенний парк
08. А я
09. Ради тебя
10. Телефонный роман

DRM
foobar2000 1.5.5 / Замер динамического диапазона (DR) 1.1.1
--------------------------------------------------------------------------------
Анализ: Ласковый Май / Оригинальные записи 1988-1989 - CD 1
--------------------------------------------------------------------------------
DR Пики RMS Продолжительность трека
--------------------------------------------------------------------------------
DR8 -0.50 дБ -9.32 дБ 5:42 01-Белые розы
DR8 -0.40 дБ -9.98 дБ 3:54 02-Я откровенен только лишь с луною
DR7 -0.81 дБ -8.57 дБ 3:27 03-Лето
DR8 -0.50 дБ -8.89 дБ 5:39 04-Тающий снег
DR8 -0.68 дБ -9.56 дБ 4:50 05-Ну, что же ты...
DR7 -1.00 дБ -9.16 дБ 5:02 06-Медленно уходит осень
DR7 -1.30 дБ -9.09 дБ 4:41 07-Месяц июль
DR7 -0.57 дБ -8.36 дБ 6:30 08-Всё
DR8 -0.53 дБ -9.37 дБ 5:11 09-Бездомный пес
DR7 -0.79 дБ -8.66 дБ 6:05 10-Взрослые
--------------------------------------------------------------------------------
Количество треков: 10
Реальные значения DR: DR7
Частота: 44100 Гц
Каналов: 2
Разрядность: 16
Битрейт: 1007 кбит/с
Кодек: FLAC
================================================================================
foobar2000 1.5.5 / Замер динамического диапазона (DR) 1.1.1
--------------------------------------------------------------------------------
Анализ: Ласковый Май / Оригинальные записи 1988-1989 - CD 2
--------------------------------------------------------------------------------
DR Пики RMS Продолжительность трека
--------------------------------------------------------------------------------
DR9 -0.83 дБ -11.08 дБ 6:58 01-Седая ночь
DR8 -0.89 дБ -9.47 дБ 5:07 02-Пусть будет ночь
DR8 -0.51 дБ -8.90 дБ 4:08 03-Розовый вечер
DR9 -0.73 дБ -10.59 дБ 8:05 04-Метель в чужом городе
DR9 -0.50 дБ -10.50 дБ 6:08 05-Глупые снежинки
DR8 -0.86 дБ -9.95 дБ 6:39 06-Ты просто был
DR7 -0.74 дБ -8.81 дБ 6:32 07-Осенний парк
DR8 -0.88 дБ -9.67 дБ 4:48 08-А я
DR8 -0.77 дБ -9.99 дБ 5:29 09-Ради тебя
DR9 -0.40 дБ -10.89 дБ 4:17 10-Телефонный роман
--------------------------------------------------------------------------------
Количество треков: 10
Реальные значения DR: DR8
Частота: 44100 Гц
Каналов: 2
Разрядность: 16
Битрейт: 1008 кбит/с
Кодек: FLAC
================================================================================

admin

Post 07-Jun-2022 06:08

[Quote]

Название: Коллекция
Исполнитель: Ласковый Май
Год: 1988
Страна-производитель: СССР, Россия
Аудио кодек: FLAC, WavPack
Тип рипа: Image+.cue
Жанр: Pop
Разрядность: 24 Bit/192 kHz, 32 Bit/192 kHz
Продолжительность: 04:09:12
Код класса состояния винила: Mint
Устройство воспроизведения: Rega RP3
Головка звукоснимателя: Elys-2, Goldring 1022 GX
Предварительный усилитель: Cambridge Audio Azur 651P
АЦП: ASUS Xonar Essence STX
Программа-оцифровщик: WaveLab 6
Обработка: iZotope RX3

Трек-лист

1989 - Маскарад (Мелодия - АЗГ С60 29171 007)
A1. Гудбай, бэби! (В.Шурочкин - А.Гольцева)
A2. Калейдоскоп (В.Шурочкин - А.Гольцева)
A3. Маскарад (муз. и сл. С.Кузнецов)
A4. Ласковый май (В.Шурочкин - А.Гольцева)
B1. Тающий снег (муз. и сл. С.Кузнецов)
B2. Лето (муз. и сл. С.Кузнецов)
B3. Я откровенен только лишь с луной (муз. и сл. С.Кузнецов)
B4. Белые розы (муз. и сл. С.Кузнецов)
2013 - Белые розы (МируМир - MIR 100431, White Clear Vinyl)
А1. Белые розы
А2. Ради тебя
А3. Седая ночь
А4. Ну что же ты?
В1. Летний дождь
В2. Пусть будет ночь
В3. А я
В4. Месяц июль
В5. Ах, Кристина, ах!
2013 - Белые розы (МируМир - MIR 100431, Reissue 2016, Black Vinyl)
А1. Белые розы
А2. Ради тебя
А3. Седая ночь
А4. Ну что же ты?
В1. Летний дождь
В2. Пусть будет ночь
В3. А я
В4. Месяц июль
В5. Ах, Кристина, ах!
2013 - Розовый вечер (МируМир - MIR 100430, Pink Clear Vinyl)
A1. Розовый вечер
A2. Глупые снежинки
A3. Тающий снег
A4. Лето
A5. На крыше
B1. Ты просто был
B2. Взрослые
B3. Бездомный пёс
B4. Старый лес
2013 - Розовый вечер (МируМир - MIR 100430, Reissue 2016, Black Vinyl)
A1. Розовый вечер
A2. Глупые снежинки
A3. Тающий снег
A4. Лето
A5. На крыше
B1. Ты просто был
B2. Взрослые
B3. Бездомный пёс
B4. Старый лес
1989 - Ласковый май (Мелодия - АЗГ С62 28083 003, EP)
A. Белые розы
B. Седая ночь
1989 - Андрей Разин (Мелодия - АЗГ С62 27937 005, EP)
A1 Гадкий утёнок (муз. и сл. В.Бойко)
A2 Маскарад (муз. и сл. С.Кузнецов)
B1 Вечер холодной зимы (муз. и сл. С.Кузнецов)

admin

Post 07-Jun-2022 06:06

[Quote]

Название: Мадонна
Исполнитель: Александр Серов
Год: 1988
Страна-производитель: СССР
Аудио кодек: FLAC
Тип рипа: Image+.cue
Жанр: Pop
Разрядность: 24 Bit/192 kHz
Продолжительность: 00:36:21
Код класса состояния винила: Mint
Устройство воспроизведения: Rega RP3
Головка звукоснимателя: Elys-2
Предварительный усилитель: Cambridge Audio Azur 651P
АЦП: ASUS Xonar Essence STX
Программа-оцифровщик: WaveLab 6
Обработка: iZotope RX3

1988 - Мадонна: Песни Игоря Крутого (Мелодия ‎– С 60 26807 000)

A1. Мадонна
A2. Донкихоты
A3. Буду ждать
A4. Судьбе назло
A5. Спорт - твой друг
B1. Вдохновение
B2. Не надо
B3. Авиапочта
B4. Признание
B5. Ты

Спектр, АЧХ, Уровень записи

admin

Post 26-May-2022 07:21

[Quote]

Название: Черная смородина
Исполнитель: Sevenrose
Год: 2022
Жанр: Поп
Продолжительность: 00:41:00
Формат/Кодек: MP3
Битрейт аудио: 320kbps

Трек-лист

01. Черная смородина
02. Моя звезда
03. Проводи домой
04. Ты оглянись
05. Ночь на двоих
06. Алая роза
07. Прощайте, голуби
08. Облака
09. Январская любовь
10. Тает снег

admin

Post 26-May-2022 07:20

[Quote]

Название: Караоке
Исполнитель: Валерий Залкин
Год: 2022
Жанр: Поп
Продолжительность: 00:35:24
Формат/Кодек: MP3
Битрейт аудио: 320kbps

Трек-лист

01. Если ты такая гордая (Version 2020)
02. Карантин
03. Караоке
04. Кресты поэтов
05. Моя звезда
06. Моя мамочка
07. Облетает листва
08. Одинокая ветка сирени (Clubmix)
09. Поминки по любви
10. Давай потанцуем
11. Капали слезы

admin

Post 08-May-2022 01:06

[Quote]

Название: Дискография [8 Альбомов]
Исполнитель: Алиса Мон и группа Лабиринт
Годы: 1988-2005
Жанр: Pop
Страна: СССР, РФ
Продолжительность: 05:52:20
Формат/Кодек: FLAC
Информация о...
Алиса Мон (настоящее имя Светлана Владимировна Безух; род. 15 августа 1964, Слюдянка, Иркутская область, СССР) — советская и российская эстрадная певица.
Факты творческой биографии
В музыкальной карьере Алисы Мон можно выделить два этапа:
Первый - работа с группой "Лабиринт". Хиты того времени - "Подорожник-трава", "Золотые горы", "Обещаю".
Второй этап - самостоятельный, и песня "Алмаз" в первых строках хит-парадов.
2004 12 мая 2004 года в Кремле Алисе Мон вручена почетная награда Совета по общественным наградам России "Лучший из лучших"
2001 Выход двух CD-альбомов-сборников "Потанцуй со мной" и "Погрусти со мной" в фирме "ТРЕЙД-АРС" и музыкальном издательстве "Союз"
1999 Выход авторского CD-альбома "День вдвоем" в фирме "ОРТ-РЕКОРДС"
1997 Выход авторского CD-альбома "Алмаз" в фирме "Союз"
1993 Участие в первом музыкально-развлекательном шоу с живым звуком "Хит-парад Останкино" с песней "Мальчик для битья"
1991 Исполнение баллады "Верни мне радость" в телевизионной программе "Песня года-91"
1991 Участие в конкурсе "Ступень к Парнасу"
1991 Алиса Мон стала дипломантом конкурса Midnight Sun ("Полночное солнце") в г. Лахти в Финляндии, исполнив одну песню на финском, а другую на английском языках
1990 Запись двойного гиганта в фирме "Мелодия" на английском языке
1989 Исполнение песни "Платок" в телевизионной программе "Песня года-89"
1989 Выход граммпластинки "Согрей меня" в фирме "Мелодия"
1988 Выход граммпластинки "Возьми мое сердце" в фирме "Мелодия"
1988 Первое место по количеству зрительских голосов в телевизионной программе "Песня года-88" с песней "Подорожник-трава"
1988 Премьера песни "Подорожник-трава" в телевизионной программе "Утренняя почта"
1987 Первый эфир на телевидении в телевизионной программе "Утренняя почта" с песней "Обещаю"
1987 Образование группы "Лабиринт"
Дискография

1988 - Возьми моё сердце 37:00 5314 kb/s 1.37 Gb

Треклист:
01. Обещаю [5:07]
02. Горизонт [4:49]
03. Возьми моё сердце [4:43]
04. Прощай [3:47]
05. Подорожник [4:42]
06. Золотая середина [4:12]
07. Скрипка, скрипочка, играй... [4:40]
08. Твои слова [5:00]

1988 - Возьми моё сердце [MB] 42:44 ~3048 kb/s 940 Mb

Треклист:
01. Обещаю [5:03]
02. Прощай [3:47]
03. Подорожник [4:41]
04. Горизонт [4:53]
05. Возьми моё сердце [4:43]
06. Горячий дождь любви [5:40]
07. Твои слова [5:05]
08. Золотая середина [4:14]
09. Скрипка, скрипочка, играй... [4:38]

1991 - Согрей меня 38:05 5299 kb/s 1.41 Gb

Треклист:
01. Птичка в клетке [4:21]
02. Cогрей меня [4:09]
03. Длинная дорога [3:07]
04. Здравствуй и прощай [6:31]
05. Золотые горы [3:58]
06. Платок [3:59]
07. Я волнуюсь [3:49]
08. Я не кукла [4:22]
09. Воздушные мосты [3:48]

1997 - Алмаз 44:02 1005 kb/s 317 Mb

Треклист:
01. Алмаз [3:42]
02. Ё-мое [2:46]
03. Тет-а-тет [3:49]
04. Я больше не твоя [3:35]
05. Долюби [3:43]
06. А+Б [2:59]
07. Ты мой свет [4:05]
08. Мальчик для битья [4:15]
09. Вот и всё [4:05]
10. Попурри [11:04]

1998 - День вдвоём 49:21 948 kb/s 335 Mb

Треклист:
01. Синий дирижабль [3:42]
02. Клубничный поцелуй [3:44]
03. Господин [3:03]
04. Бабочка [4:34]
05. Снежинка [3:34]
06. Стань моим [4:10]
07. Стой, чувство [3:57]
08. День вдвоём [3:21]
09. Голос [3:30]
10. Летучая мышь [4:02]
11. Звезда [3:50]
12. Я люблю тебя [4:07]
13. Мон Алиса feat. Балаган Лимитед - Подорожник-трава [3:46]

2001 - Погрусти со мной 44:05 920 kb/s 291 Mb

Треклист:
01. День вдвоём [3:56]
02. Неправда [4:28]
03. Снежинка [3:35]
04. Беда не беда [4:13]
05. Звезда [3:52]
06. Бабочка [4:33]
07. Стой, чувства [3:59]
08. Голос [3:32]
09. Я люблю тебя [4:08]
10. Вот и всё [4:07]
11. Долюби [3:42]

2001 - Потанцуй со мной 50:57 994 kb/s 363 Mb

Треклист:
01. Орхидея [4:30]
02. Мало ли, что [3:55]
03. Стань моим [4:11]
04. Тет-а-тет [3:49]
05. Господин [3:03]
06. Синий дирижабль [3:44]
07. Клубничный поцелуй [3:45]
08. Бобби [5:04]
09. Алмаз [3:42]
10. Алмаз-сюрприз [4:25]
11. Ё-моё [3:53]
12. Подорожник [3:50]
13. Ипподром [3:06]

2005 - Мои любимые песни 46:07 987 kb/s 329 Mb

Треклист:
01. Обещаю [3:34]
02. Стань моим [4:07]
03. Алмаз [3:37]
04. Долюби [3:40]
05. День вдвоём [3:51]
06. Мокрый март [3:42]
07. Бабочка [4:33]
08. Синий дирижабль [3:41]
09. Ты [4:02]
10. Он и она [3:42]
11. Паровозик любви [3:53]
12. Подорожник [3:45]

admin

Post 25-Apr-2022 00:31

[Quote]

Название: Коллекция
Исполнитель: Игорь Корнелюк
Год: 2001-2022
Жанр: Pop, Score
Страна: Россия
Продолжительность: 05:08:33
Формат/Кодек: FLAC
Тип рипа: Tracks
Битрейт аудио: Lossless
Носитель: CD

2001 - Бандитский Петербург

01. Город, которого нет (4:16)
02. Чужой (5:13) [исполняет Татьяна Буланова]
03. Тема Адвоката - эпизод 7 (Свидание в тюрьме) (2:11)
04. Тема Антибиотика на титры (2:02)
05. Журналист - начальные титры(2:04)
06. Адвокат - эпизод 6 (Челищев в автомобиле) (3:40)
07. Адвокат - эпизод 5 (Катя и Сергей) (2:17)
08. Бандиты - эпизод 2 160
09. Адвокат - эпизод 3 (2:48)
10. Тема раздумий Челищева (2:09)
11. Прощание Серёгина в Стокгольме (2:35)
12. Реквием (1:01)
13. Бандиты - эпизод 7 (2:21)
14. Адвокат - эпизод 1 (3:28)
15. Друзья (Челищев в детстве) (1:50)
16. Друзья (Челищев и Званцев в подвале) (1:54)
17. Криминал (2:31)
18. Антибиотик (2:23)
19. Встреча (Серёгин и Рахиль) (2:39)
20. Журналист (Серёгин в автомобиле) (2:06)
21. Бандиты - эпизод 1 (Легкомысленная окружающая действительность) (2:32)
22. Серёгин думает
23. Слежка за киллером
24. Адвокат - эпизод 4 (Скрипки на фонограмму песни) (4:15)
25. Погоня (2:00)
26. Тревога в Стокгольме (1:14)
27. Город за окном (4:18)
28. Мальчик, непохожий на меня (4:01)

DRM + Лог проверки качества
foobar2000 1.5.5 / Замер динамического диапазона (DR) 1.1.1
--------------------------------------------------------------------------------
Анализ: Игорь Корнелюк / Бандитский Петербург (1-27)
Татьяна Буланова / Бандитский Петербург (28)
--------------------------------------------------------------------------------
DR Пики RMS Продолжительность трека
--------------------------------------------------------------------------------
DR15 0.00 дБ -18.22 дБ 4:16 01-Город, которого нет
DR11 0.00 дБ -13.88 дБ 5:13 02-Чужой
DR12 0.00 дБ -16.57 дБ 2:11 03-Тема Адвоката - эпизод 7 (Свидание в тюрьме)
DR12 0.00 дБ -13.29 дБ 2:02 04-Тема Антибиотика на титры
DR8 0.00 дБ -10.63 дБ 2:04 05-Журналист - начальные титры
DR14 0.00 дБ -14.81 дБ 3:40 06-Адвокат - эпизод 6 (Челищев в автомобиле)
DR8 0.00 дБ -10.82 дБ 2:17 07-Адвокат - эпизод 5 (Катя и Сергей)
DR12 0.00 дБ -13.23 дБ 2:41 08-Бандиты - эпизод 2
DR11 0.00 дБ -13.42 дБ 2:48 09-Адвокат - эпизод 3
DR11 0.00 дБ -14.87 дБ 2:09 10-Тема раздумий Челищева
DR13 0.00 дБ -16.29 дБ 2:35 11-Прощание Серёгина в Стокгольме
DR10 0.00 дБ -12.21 дБ 1:01 12-Реквием
DR11 0.00 дБ -12.77 дБ 2:21 13-Бандиты - эпизод 7
DR9 0.00 дБ -12.94 дБ 3:28 14-Адвокат - эпизод 1
DR13 0.00 дБ -16.67 дБ 1:50 15-Друзья (Челищев в детстве)
DR10 0.00 дБ -12.37 дБ 1:54 16-Друзья (Челищев и Званцев в подвале)
DR12 0.00 дБ -18.56 дБ 2:31 17-Криминал
DR11 0.00 дБ -13.50 дБ 2:23 18-Антибиотик
DR10 0.00 дБ -12.27 дБ 2:39 19-Встреча (Серёгин и Рахиль)
DR13 0.00 дБ -15.20 дБ 2:06 20-Журналист (Серёгин в автомобиле)
DR13 0.00 дБ -14.67 дБ 2:32 21-Бандиты - эпизод 1 (Легкомысленная окружающая действительность)
DR9 0.00 дБ -12.06 дБ 1:42 22-Серёгин думает
DR18 0.00 дБ -18.70 дБ 5:37 23-Слежка за киллером
DR13 0.00 дБ -15.82 дБ 4:15 24-Адвокат - эпизод 4 (Скрипки на фонограмму песни)
DR14 0.00 дБ -14.32 дБ 2:00 25-Погоня
DR9 0.00 дБ -11.27 дБ 1:14 26-Тревога в Стокгольме
DR13 0.00 дБ -14.28 дБ 4:18 27-Город за окном
DR13 0.00 дБ -15.77 дБ 4:01 28-Мальчик, непохожий на меня
--------------------------------------------------------------------------------
Количество треков: 28
Реальные значения DR: DR12
Частота: 44100 Гц
Каналов: 2
Разрядность: 16
Битрейт: 914 кбит/с
Кодек: FLAC
================================================================================
-----------------------
DON'T MODIFY THIS FILE
-----------------------
PERFORMER: auCDtect Task Manager, ver. 1.6.0 RC1 build 1.6.0.1
Copyright (c) 2008-2010 y-soft. All rights reserved
http://y-soft.org
ANALYZER: auCDtect: CD records authenticity detector, version 0.8.2
Copyright (c) 2004 Oleg Berngardt. All rights reserved.
Copyright (c) 2004 Alexander Djourik. All rights reserved.
FILE: 01. Город, которого нет.flac
Size: 27106780 Hash: 0FCF8A8A57082E65D0BEF8AD808DE06D Accuracy: -m8
Conclusion: CDDA 100%
Signature: 48B4A2F491B15B70F00DB7004AFA190B9A45CAE5
FILE: 02. Чужой.flac
Size: 36383524 Hash: C93D9954D2A34943BEDA451AC2146945 Accuracy: -m8
Conclusion: CDDA 99%
Signature: 85EAB9821D92939F1E7189D9E035B2BF3DAD825E
FILE: 03. Тема Адвоката - эпизод 7 (Свидание в тюрьме).flac
Size: 11316363 Hash: B21EA7450D196E77F6D5CFBB72322793 Accuracy: -m8
Conclusion: CDDA 100%
Signature: 61946C0B2AED9179D62E057D06B9EA044033A1A5
FILE: 04. Тема Антибиотика на титры.flac
Size: 9767036 Hash: 164B68F186DDCE60B0CAE09C52C38ED1 Accuracy: -m8
Conclusion: CDDA 100%
Signature: 33F1F44F94936CECF223A92AF50820547B2278F5
FILE: 05. Журналист - начальные титры.flac
Size: 13687032 Hash: A946B69A2204BEC340E9A2D2519CBEAE Accuracy: -m8
Conclusion: CDDA 99%
Signature: 976A58D9EF5EE8048CFC4640DD330E37048545B8
FILE: 06. Адвокат - эпизод 6 (Челищев в автомобиле).flac
Size: 22085319 Hash: B434696A7FE2363583A89824CF9D8791 Accuracy: -m8
Conclusion: CDDA 100%
Signature: 9CE1F0E1DA2762F0D1435240A1D9CF105C89247C
FILE: 07. Адвокат - эпизод 5 (Катя и Сергей).flac
Size: 13291663 Hash: 5B742FB53FEA0096AB494F3942D195D9 Accuracy: -m8
Conclusion: CDDA 100%
Signature: 9A2A88DF4BDA65091218519AF988BD92C3E82715
FILE: 08. Бандиты - эпизод 2.flac
Size: 17267505 Hash: 0E16614295B3C9C271A8F1A848555C3F Accuracy: -m8
Conclusion: CDDA 100%
Signature: 872ADF1424E8EBAF532F33C07BB0FCD54295628D
FILE: 09. Адвокат - эпизод 3.flac
Size: 18653922 Hash: D48320C2947228D6196FB925E6ED8BB2 Accuracy: -m8
Conclusion: CDDA 100%
Signature: 7271E2AC51D5EACAC8F1505EACC55069BB4F2C6C
FILE: 10. Тема раздумий Челищева.flac
Size: 10001173 Hash: 6A74184394A28CE0089740F87A8FBCB5 Accuracy: -m8
Conclusion: CDDA 100%
Signature: CC6967AAE0A213761A3917DD28517E8CCF3B60DF
FILE: 11. Прощание Серёгина в Стокгольме.flac
Size: 16484707 Hash: E296BBD26D94A2929239FAA6A88EF679 Accuracy: -m8
Conclusion: CDDA 100%
Signature: 3175727D154806405EAB91C8318CED4483588972
FILE: 12. Реквием.flac
Size: 6388424 Hash: C69026E865FF9D76A0A172ECB5133777 Accuracy: -m8
Conclusion: CDDA 100%
Signature: 5E6934EF93FDF0BFC17411ECCAA55F8BFB9B2E2E
FILE: 13. Бандиты - эпизод 7.flac
Size: 12250942 Hash: 69EF817E3B035D28696AA8F5A6A2C63F Accuracy: -m8
Conclusion: CDDA 100%
Signature: 28927F7071B65A2FD92ED34DD7AA5B63A6C1DEDF
FILE: 14. Адвокат - эпизод 1.flac
Size: 19253994 Hash: B3555B44A3EC87167CD3060968A5ED80 Accuracy: -m8
Conclusion: CDDA 99%
Signature: 000B506279212306C0CDCB360580274C44F92FFC
FILE: 15. Друзья (Челищев в детстве).flac
Size: 7807974 Hash: FAD504CECF638BAA8E27B2F06B79F983 Accuracy: -m8
Conclusion: CDDA 100%
Signature: A6063ACCE60D3BC75CC57BC17B330524D0A1E5A3
FILE: 16. Друзья (Челищев и Званцев в подвале).flac
Size: 14218841 Hash: 69AA384B4090C9B461D11DC3582A7A74 Accuracy: -m8
Conclusion: CDDA 99%
Signature: E5F3AF5CEB7E79BDE905CB9411E27FDEF0D7EA90
FILE: 17. Криминал.flac
Size: 12056657 Hash: 20985F5C2F22FA6D3422AF6C971EF70C Accuracy: -m8
Conclusion: CDDA 100%
Signature: 2BEC93B92DFE8EBED53E283A76761AA2CB3448E3
FILE: 18. Антибиотик.flac
Size: 9374759 Hash: FD9BD153F62AD19F033F1824F2E42083 Accuracy: -m8
Conclusion: CDDA 100%
Signature: AB3C24D4836491E66ED2049D919A703A1448A993
FILE: 19. Встреча (Серёгин и Рахиль).flac
Size: 15413954 Hash: 0B9B3C1A9173EC0F80B8BCF16CD52A78 Accuracy: -m8
Conclusion: CDDA 100%
Signature: 29997CC49695AA05C90848FE92D5B1C535C08EA7
FILE: 20. Журналист (Серёгин в автомобиле).flac
Size: 13965443 Hash: EDF662B32666322E581B703D1C144439 Accuracy: -m8
Conclusion: CDDA 99%
Signature: 2F3411B5A262F973D3C395DE097B1889F75DBAF1
FILE: 21. Бандиты - эпизод 1 (Легкомысленная окружающая действительность).flac
Size: 16110480 Hash: ADFCAE9339EF8D3D2B5340E04ABA3C79 Accuracy: -m8
Conclusion: CDDA 100%
Signature: 9B011D0C31B557F663424E3674558F62F4B0C83D
FILE: 22. Серёгин думает.flac
Size: 9315460 Hash: 07C7130470BE62BF93ED8C2A5F802818 Accuracy: -m8
Conclusion: CDDA 85%
Signature: B9298CEA8CC90E04D6797F969CDA5D9198345480
FILE: 23. Слежка за киллером.flac
Size: 41245376 Hash: AFBAF8F0553ECFA3133FB1D6BBCC4EA6 Accuracy: -m8
Conclusion: CDDA 99%
Signature: 02535435BF56B00F2B3C7EFAB75DB1049AF9BC15
FILE: 24. Адвокат - эпизод 4 (Скрипки на фонограмму песни).flac
Size: 27646173 Hash: 72881E6D3CEA2B3E6A60754A8B2DC1CC Accuracy: -m8
Conclusion: CDDA 100%
Signature: AF4B8C8099AFEA86B25CF2C536A78952EF7F004A
FILE: 25. Погоня.flac
Size: 15728427 Hash: C2DB36B07D05AC2BEEEC8CB9B4B58E89 Accuracy: -m8
Conclusion: CDDA 99%
Signature: BA2211649653D52B97259CDD7118D81CE12F6FDA
FILE: 26. Тревога в Стокгольме.flac
Size: 7923045 Hash: D7AA523D889BCF0BF89E2D891F52F142 Accuracy: -m8
Conclusion: CDDA 100%
Signature: C56C66FA3D10E66646D28F38352AD386764B6E9F
FILE: 27. Город за окном.flac
Size: 32497607 Hash: 6EA81B4A3360427B9945D5ABA09F7C99 Accuracy: -m8
Conclusion: CDDA 100%
Signature: 155E1C0947FBE2F501F3F5B142DCF6C38D9646B9
FILE: 28. Мальчик, непохожий на меня.flac
Size: 28282727 Hash: ECD7CEC2BC041629FDBCE454E054AABD Accuracy: -m8
Conclusion: CDDA 100%
Signature: 8985AFE1D24C7F97954B4CD4C1C84211EFA4D56B

2010 - Мастер и Маргарита

01. Титры (02:02)
02. "Невидима и свободна" (полёт Маргариты) (04:56)
03. Казнь (05:18)
04. "Нравятся ли вам мои цветы?.." (Первая встреча) (02:38)
05. Шабаш (06:53)
06. Вальс (03:46)
07. Гефсиманский сад (Гибель Иуды) (03:32)
08. Воланд (03:38)
09. "Любовь выскочила… как убийца в переулке" (04:45)
10. Крем Азазелло (01:47)
11. "И при луне ему нет покоя…" (03:59)
12. Великий Бал у Сатаны (12:02)
13. Ещё про любовь (06:55)
14. "Маэстро, урежьте марш!" (01:47)

DRM + Лог проверки качества
foobar2000 1.5.5 / Замер динамического диапазона (DR) 1.1.1
--------------------------------------------------------------------------------
Анализ: Игорь Корнелюк / Мастер и Маргарита
--------------------------------------------------------------------------------
DR Пики RMS Продолжительность трека
--------------------------------------------------------------------------------
DR7 -0.30 дБ -11.99 дБ 2:02 01-Титры
DR9 -0.30 дБ -13.20 дБ 4:56 02-«Невидима и свободна» (полёт Маргариты)
DR10 -0.30 дБ -15.23 дБ 5:18 03-Казнь
DR9 -0.33 дБ -14.93 дБ 2:38 04-«Нравятся ли вам мои цветы?..» (Первая встреча)
DR7 -0.30 дБ -11.64 дБ 6:53 05-Шабаш
DR9 -0.30 дБ -12.78 дБ 3:46 06-Вальс
DR10 -0.30 дБ -14.76 дБ 3:32 07-Гефсиманский сад (Гибель Иуды)
DR8 -0.30 дБ -10.33 дБ 3:38 08-Воланд
DR8 -0.30 дБ -13.89 дБ 4:45 09-«Любовь выскочила..., как убийца в переулке»
DR10 -0.30 дБ -15.76 дБ 1:47 10-Крем Азазелло
DR12 -0.30 дБ -16.81 дБ 3:59 11-«И при луне ему нет покоя...»
DR8 -0.30 дБ -12.21 дБ 12:02 12-Великий Бал у Сатаны
DR11 -0.30 дБ -15.89 дБ 6:55 13-Ещё про любовь
DR7 -0.30 дБ -8.99 дБ 1:47 14-«Маэстро, урежьте марш!»
--------------------------------------------------------------------------------
Количество треков: 14
Реальные значения DR: DR9
Частота: 44100 Гц
Каналов: 2
Разрядность: 16
Битрейт: 962 кбит/с
Кодек: FLAC
================================================================================
-----------------------
DON'T MODIFY THIS FILE
-----------------------
PERFORMER: auCDtect Task Manager, ver. 1.6.0 RC1 build 1.6.0.1
Copyright (c) 2008-2010 y-soft. All rights reserved
http://y-soft.org
ANALYZER: auCDtect: CD records authenticity detector, version 0.8.2
Copyright (c) 2004 Oleg Berngardt. All rights reserved.
Copyright (c) 2004 Alexander Djourik. All rights reserved.
FILE: 01. Титры.flac
Size: 11793471 Hash: E31C417C3261B50E63949A542168CD2E Accuracy: -m8
Conclusion: CDDA 100%
Signature: B97612F0CA0D953A85A18F03DD9B52FDEB6B64F1
FILE: 02. «Невидима и свободна» (полёт Маргариты).flac
Size: 29198643 Hash: 4DFB02D7F450A9C1024CFED81476BD53 Accuracy: -m8
Conclusion: CDDA 99%
Signature: D6664B3869F99114F00B50E1E315B91ADA38A5EC
FILE: 03. Казнь.flac
Size: 27175489 Hash: D4F596DB78AC89FA129053F8E51B8D08 Accuracy: -m8
Conclusion: CDDA 100%
Signature: 2DEBADDB9FEF4CE3D11C896FBE0E60F8F94D005A
FILE: 04. «Нравятся ли вам мои цветы..» (Первая встреча).flac
Size: 15563707 Hash: 6F70C2315E40EEE059A6BFCD3314902F Accuracy: -m8
Conclusion: CDDA 100%
Signature: 746CCA38CE978682439F03E9CE882BAB5AB75406
FILE: 05. Шабаш.flac
Size: 43084853 Hash: BD172EAC21F554672D0CE1F80FD4EE88 Accuracy: -m8
Conclusion: CDDA 100%
Signature: 2A10545E48C89CF7DA18A3F6588B33DB2101B5F4
FILE: 06. Вальс.flac
Size: 23879642 Hash: 672949045D8364293FF3D1C26055F751 Accuracy: -m8
Conclusion: CDDA 100%
Signature: 9ED1FD8895BEED97E111E209E47CB93A8DC60C66
FILE: 07. Гефсиманский сад (Гибель Иуды).flac
Size: 18260447 Hash: C2F990ED71D9A173A7AA9663C10229D5 Accuracy: -m8
Conclusion: CDDA 100%
Signature: CA1CB0C9F2E1E870B2D9C0369B7B6AAA2F9A6053
FILE: 08. Воланд.flac
Size: 24378533 Hash: BB45D27BD0D369EFE3226456C24478A9 Accuracy: -m8
Conclusion: CDDA 100%
Signature: 3F5D2F94EFFF88C889CEEBF886E350E673B3DBA8
FILE: 09. «Любовь выскочила..., как убийца в переулке».flac
Size: 26862807 Hash: 922F4A1EFD99485B9B763F6E11909D03 Accuracy: -m8
Conclusion: CDDA 100%
Signature: 932D82D65BDF3876807415C59F95EF0FE5BC8D99
FILE: 10. Крем Азазелло.flac
Size: 9152813 Hash: 04584A13288109FDA74715CF35A8EEB3 Accuracy: -m8
Conclusion: CDDA 100%
Signature: F9532C13428465657FD3AE2508EEB68E823AE5AB
FILE: 11. «И при луне ему нет покоя...».flac
Size: 21769591 Hash: 819314EBAFE21111E3335BCC365D74C6 Accuracy: -m8
Conclusion: CDDA 100%
Signature: C940DD81FC892C3213154339117CD91E332BFA64
FILE: 12. Великий Бал у Сатаны.flac
Size: 77732916 Hash: CA9D7823703A0A437D490F200731D28B Accuracy: -m8
Conclusion: CDDA 100%
Signature: 665EFDD5361365A64895A1B5F214205276BEF10A
FILE: 13. Ещё про любовь.flac
Size: 38491707 Hash: DD612F0ABD999F7E0EA8D1342A7659A6 Accuracy: -m8
Conclusion: CDDA 100%
Signature: 0BD778A5708C48213C06A59E065F5C574E070B13
FILE: 14. «Маэстро, урежьте марш!».flac
Size: 13365003 Hash: 4989B560C24C37EF6763C10D9543A6FD Accuracy: -m8
Conclusion: CDDA 100%
Signature: B21D28DC9F5EC79C98A5E66147FE8B5B484ED7FE

2022 - Избранное

01. Дожди (4:06)
02. Возвращайся (4:17)
03. Дым (2:31)
04. Милый (2:55)
05. Билет на балет (4:14)
06. Последняя глава (2:50)
07. Ходим по Парижу (4:20)
08. Мало ли (3:02)
09. Месяц май (3:26)
10. Будем танцевать (4:38)
11. Знал бы прикуп - жил бы в Сочи (2:56)
12. Маленький Дом (2:37)
13. Ну и пусть (3:09)
14. Лунная дорога (3:02)
15. Пора домой (3:33)
16. Дом-звезда (5:04)
17. Не курите, мальчики (3:14)
18. Сто лет спустя (3:48)
19. Пусть говорят (4:51)
20. Ша-ла-ла! (3:45)
21. Насовсем (4:51)
22. Ничего не поделать... (3:50)
23. Я не могу так жить (5:03)
24. Не вернусь (3:12)
25. Холодно (4:19)
26. Брось (4:13)
27. Любовь - это море! (4:24)
28. Рисунок (3:36)
29. Клёво (4:32)
30. Найди меня (5:03)
31. Solo (4:46)
32. На раз (3:51)
33. Лестница (4:36)
34. В самом сердце лета (4:38)
35. Дождь в пьесе зимы (5:04)
36. До встречи (4:28)
37. Фокстрот (3:44)
38. Я вернулся, мама (3:27)
39. Пей до дна (4:17)
40. Мальчик, непохожий на меня (4:01)
41. Город за окном (4:17)
42. Город, которого нет (4:16)

DRM + Лог проверки качества
foobar2000 1.5.5 / Замер динамического диапазона (DR) 1.1.1
--------------------------------------------------------------------------------
Анализ: Игорь Корнелюк / Избранное
--------------------------------------------------------------------------------
DR Пики RMS Продолжительность трека
--------------------------------------------------------------------------------
DR10 -0.50 дБ -12.63 дБ 4:06 01-Дожди
DR12 -0.14 дБ -14.26 дБ 4:17 02-Возвращайся
DR12 -0.34 дБ -15.11 дБ 2:31 03-Дым
DR13 -1.34 дБ -15.82 дБ 2:55 04-Милый
DR12 -0.32 дБ -14.51 дБ 4:14 05-Билет на балет
DR11 -0.40 дБ -14.74 дБ 2:50 06-Последняя глава
DR13 -0.18 дБ -14.38 дБ 4:20 07-Ходим по Парижу
DR11 -0.17 дБ -13.23 дБ 3:02 08-Мало ли
DR11 -0.36 дБ -14.86 дБ 3:26 09-Месяц май
DR14 -0.28 дБ -15.76 дБ 4:38 10-Будем танцевать
DR12 -0.36 дБ -13.97 дБ 2:56 11-Знал бы прикуп - жил бы в Сочи
DR12 -0.28 дБ -14.40 дБ 2:37 12-Маленький Дом
DR12 -0.26 дБ -14.01 дБ 3:09 13-Ну и пусть
DR11 -0.11 дБ -14.37 дБ 3:02 14-Лунная дорога
DR13 -0.29 дБ -15.58 дБ 3:33 15-Пора домой
DR11 -0.41 дБ -13.74 дБ 5:04 16-Дом-звезда
DR12 -3.16 дБ -17.67 дБ 3:14 17-Не курите, мальчики
DR11 -3.60 дБ -19.05 дБ 3:48 18-Сто лет спустя
DR13 -3.53 дБ -18.85 дБ 4:51 19-Пусть говорят
DR12 -3.31 дБ -18.35 дБ 3:45 20-Ша-ла-ла!
DR13 -3.33 дБ -19.43 дБ 4:51 21-Насовсем
DR11 -3.20 дБ -18.66 дБ 3:50 22-Ничего не поделать
DR12 -3.60 дБ -18.98 дБ 5:03 23-Я не могу так жить
DR12 -4.70 дБ -18.30 дБ 3:12 24-Не вернусь
DR13 -2.91 дБ -19.46 дБ 4:19 25-Холодно
DR13 -2.99 дБ -18.05 дБ 4:13 26-Брось
DR13 -3.38 дБ -18.17 дБ 4:24 27-Любовь - это море!
DR12 -3.10 дБ -19.09 дБ 3:36 28-Рисунок
DR11 -1.00 дБ -13.29 дБ 4:32 29-Клёво
DR8 -1.00 дБ -11.73 дБ 5:03 30-Найди меня
DR12 -1.00 дБ -14.69 дБ 4:46 31-Solo
DR12 -1.00 дБ -13.91 дБ 3:51 32-На раз
DR12 -1.00 дБ -15.12 дБ 4:36 33-Лестница
DR11 -1.00 дБ -14.24 дБ 4:38 34-В самом сердце лета
DR9 -1.00 дБ -13.28 дБ 5:04 35-Дождь в пьесе зимы
DR10 -1.00 дБ -13.77 дБ 4:28 36-До встречи
DR12 -1.00 дБ -15.75 дБ 3:44 37-Фокстрот
DR11 -1.00 дБ -14.82 дБ 3:27 38-Я вернулся, мама
DR11 -1.00 дБ -14.05 дБ 4:17 39-Пей до дна
DR13 -0.50 дБ -16.28 дБ 4:01 40-Мальчик, непохожий на меня
DR13 -1.01 дБ -15.29 дБ 4:17 41-Город за окном
DR15 0.00 дБ -18.22 дБ 4:16 42-Город, которого нет
--------------------------------------------------------------------------------
Количество треков: 42
Реальные значения DR: DR12
Частота: 44100 Гц
Каналов: 2
Разрядность: 16
Битрейт: 830 кбит/с
Кодек: FLAC
================================================================================
-----------------------
DON'T MODIFY THIS FILE
-----------------------
PERFORMER: auCDtect Task Manager, ver. 1.6.0 RC1 build 1.6.0.1
Copyright (c) 2008-2010 y-soft. All rights reserved
http://y-soft.org
ANALYZER: auCDtect: CD records authenticity detector, version 0.8.2
Copyright (c) 2004 Oleg Berngardt. All rights reserved.
Copyright (c) 2004 Alexander Djourik. All rights reserved.
FILE: 01. Дожди.flac
Size: 29311045 Hash: DD0F6AFA894CA8DE14A3C93DA8C995D4 Accuracy: -m8
Conclusion: CDDA 100%
Signature: FE3325753FB69666E8A8B865023A4CD7428E0CCC
FILE: 02. Возвращайся.flac
Size: 29437988 Hash: 46323D0DF34CBB96ED77CA2D81021D1D Accuracy: -m8
Conclusion: CDDA 100%
Signature: 600523DD38F34E78A892C2F5C36EC5D46C8FDB01
FILE: 03. Дым.flac
Size: 13618028 Hash: AEEF251442A9B3F00A0CF32721EB80F1 Accuracy: -m8
Conclusion: CDDA 100%
Signature: 3F873E5804F02C5007ACBE6A79AC4370178F5988
FILE: 04. Милый.flac
Size: 20313864 Hash: 5D17B79ED6699B824450ED5B936D0460 Accuracy: -m8
Conclusion: CDDA 100%
Signature: A0E1F4ADACFCC5ACBE2F8BD742A8E4A7BAAEC3A2
FILE: 05. Билет на балет.flac
Size: 27015970 Hash: 426AD3AC6C334B23177237894613819C Accuracy: -m8
Conclusion: CDDA 100%
Signature: 3CD3B9FABCAD49E42580F8E8859195A43EEE72CB
FILE: 06. Последняя глава.flac
Size: 17211046 Hash: 7C811BCEBEC77F1CD883BF3D41177275 Accuracy: -m8
Conclusion: CDDA 100%
Signature: 8F208A6EDE0D9FE1D1DD652259FADABBF8E8F4EE
FILE: 07. Ходим по Парижу.flac
Size: 27917860 Hash: B166DABC018876EDF0442F2692E126EC Accuracy: -m8
Conclusion: CDDA 100%
Signature: 103232BE2621D7AD07D33B112AFBC26560D86CCB
FILE: 08. Мало ли.flac
Size: 18434075 Hash: 3B2FED96A9191391B6F8973E259355A4 Accuracy: -m8
Conclusion: CDDA 100%
Signature: A3B115B71E08E8F484CAFE1643FF47B63D0D6387
FILE: 09. Месяц май.flac
Size: 21701253 Hash: B1876C320B9406A8004AD01B1D977397 Accuracy: -m8
Conclusion: CDDA 100%
Signature: F46BD7B464A4F219CE59231E2D2EBCECCAFAA965
FILE: 10. Будем танцевать.flac
Size: 30772135 Hash: B54FCDC6394AD25BC81569C16E81EA10 Accuracy: -m8
Conclusion: CDDA 100%
Signature: 7D46D8D64941A846AA1A3E753A24D7A8BB802DA2
FILE: 11. Знал бы прикуп - жил бы в Сочи.flac
Size: 21169551 Hash: EE2B1528CF3F76A083409E2B883D7D4E Accuracy: -m8
Conclusion: CDDA 100%
Signature: 22F49A348428F9D61621D60DDEC91B5A6F38815B
FILE: 12. Маленький Дом.flac
Size: 17838034 Hash: 43CB59E11E94540F7453C8E9688A3232 Accuracy: -m8
Conclusion: CDDA 100%
Signature: 4328EE884EBDD20E6399D7C33E75D58FFE9CF560
FILE: 13. Ну и пусть.flac
Size: 23507917 Hash: 73CFFE6DDB7D16984D6BFA4470635C66 Accuracy: -m8
Conclusion: CDDA 99%
Signature: 7B57D3258160DEF50835C8AE989D1472F10963F3
FILE: 14. Лунная дорога.flac
Size: 18017842 Hash: 299C2DFAB27152F3691DC0310B242DA1 Accuracy: -m8
Conclusion: CDDA 100%
Signature: FA684FBD39EF2C7C787CF4ECD14B66F94713FA48
FILE: 15. Пора домой.flac
Size: 23761170 Hash: 96A60E69A6111903DF895EBC7C98C038 Accuracy: -m8
Conclusion: CDDA 99%
Signature: 51343CB516EE0CF0912BB1B8D061FF2B0376F33B
FILE: 16. Дом-звезда.flac
Size: 36172844 Hash: E2C97F3CDE54D8392AE97DCD81C8A1AA Accuracy: -m8
Conclusion: CDDA 100%
Signature: F525041C1564248F884406ADB455B3A6ED42A1DF
FILE: 17. Не курите, мальчики.flac
Size: 22260719 Hash: CE00722316D1C8844394C08F2E425589 Accuracy: -m8
Conclusion: CDDA 100%
Signature: 8026B16606322277E564A5855BDFADA222A35FAC
FILE: 18. Сто лет спустя.flac
Size: 23965249 Hash: A8B4A08C457933D6BEFD380FF305AFE2 Accuracy: -m8
Conclusion: CDDA 100%
Signature: E4741C25067DC01F7A2EDF6FA0856F58D1C70E6B
FILE: 19. Пусть говорят.flac
Size: 33451822 Hash: 44145117B4487FA3818D40235559EBDC Accuracy: -m8
Conclusion: CDDA 100%
Signature: F8361A2F56ECE57F80CCC82E1AB38FA8169C243B
FILE: 20. Ша-ла-ла!.flac
Size: 23174611 Hash: EF0366EEAC2FC43965F2BC177207D53F Accuracy: -m8
Conclusion: CDDA 100%
Signature: E777AB0A0C1464E065FF5471E0EDC8E38FC62316
FILE: 21. Насовсем.flac
Size: 31005137 Hash: B7D94CE8178257A50612048CF066A738 Accuracy: -m8
Conclusion: CDDA 100%
Signature: A2F93A023AA3CE74B4E52523A62E2E82DC6AAA7E
FILE: 22. Ничего не поделать....flac
Size: 22801334 Hash: 38435AA488CBEF729D2769A4AC3A4AC9 Accuracy: -m8
Conclusion: CDDA 100%
Signature: 2444A332156877D1CAC49D6C92AD5F21B3246CE5
FILE: 23. Я не могу так жить.flac
Size: 32639146 Hash: 847CD36C3935A057151ABA512DD09F55 Accuracy: -m8
Conclusion: CDDA 100%
Signature: 066461B59519D31E7F477F7E7EF5BBCD5A6B9984
FILE: 24. Не вернусь.flac
Size: 22638253 Hash: 5DDCE0C14A1905F4B43E06D6BF50D759 Accuracy: -m8
Conclusion: CDDA 100%
Signature: 8F477D8309EF7CEA894A878D8C6A53FA2E459C84
FILE: 25. Холодно.flac
Size: 28625074 Hash: 7EE96F52BF962615D9073A7C37369C1F Accuracy: -m8
Conclusion: CDDA 100%
Signature: D951938FD2B2569C06EAF8ABEFA5018C47111F9A
FILE: 26. Брось.flac
Size: 27404277 Hash: A72E0EC241C35F1E81771BCF53E612E9 Accuracy: -m8
Conclusion: CDDA 100%
Signature: AF75753A0930BE7AEEF4624D1E420744D849D2EE
FILE: 27. Любовь - это море!.flac
Size: 31791931 Hash: 0FB8859C2038039D2BA3F50AE816BF46 Accuracy: -m8
Conclusion: CDDA 100%
Signature: 13A2271AB9E62FDB35BE908213944A1DED793EA2
FILE: 28. Рисунок.flac
Size: 21039615 Hash: CA74E8FEC18A499BC1EA0C484AFFFF16 Accuracy: -m8
Conclusion: CDDA 100%
Signature: 501DC852C2B384D2D3B01419B53E6EBC50D6CA88
FILE: 29. Клёво.flac
Size: 31035069 Hash: D60D8B5CDF6420C20DB9BE84F6B0CFDD Accuracy: -m8
Conclusion: CDDA 100%
Signature: AC970330D728DDB49EABFA31EB1330564891EFD9
FILE: 30. Найди меня.flac
Size: 39297921 Hash: 2CA6EC45C55A4BA1331011BBEB64BBD7 Accuracy: -m8
Conclusion: CDDA 100%
Signature: 5E868A965F0AA13D2E8C5FA4C030A3A950F16C4E
FILE: 31. Solo.flac
Size: 33555917 Hash: 9F7380DFB23167D5B90D12AF0CADA37F Accuracy: -m8
Conclusion: CDDA 100%
Signature: CC4CC0107B2F9A708E9A7817B8E780CBE75BF21C
FILE: 32. На раз.flac
Size: 28238370 Hash: 8A194D66121B42094E24472B85640510 Accuracy: -m8
Conclusion: CDDA 99%
Signature: 8D06564D6CFE0E77ABB9B768ACA681FB2717A6FE
FILE: 33. Лестница.flac
Size: 32305091 Hash: 908A12A93CCAE6FBA55B6948AF6353EF Accuracy: -m8
Conclusion: CDDA 100%
Signature: 1734AAE993D217C4AF4B6075B504C25E5D0E1BE1
FILE: 34. В самом сердце лета.flac
Size: 34555419 Hash: 1E00F8C99536E6011F00482FB5E897F2 Accuracy: -m8
Conclusion: CDDA 100%
Signature: A950780BDF0BD24D916828EDF0B8EE70A84914F5
FILE: 35. Дождь в пьесе зимы.flac
Size: 35736463 Hash: 9688E776C8F03B03B0C19C62D02AB10F Accuracy: -m8
Conclusion: CDDA 100%
Signature: CFFC8351891788524692B5F0B064DE71780A77AD
FILE: 36. До встречи.flac
Size: 33160594 Hash: 1D01197077F37AC0EAFFC5CC9F9F08E2 Accuracy: -m8
Conclusion: CDDA 100%
Signature: 627DE520105A2BB3CD976FFF536683D0B60576F6
FILE: 37. Фокстрот.flac
Size: 25347484 Hash: 53150C02F08DB3FD53DD243CECD473BE Accuracy: -m8
Conclusion: CDDA 100%
Signature: F585AD4B35A62919282B6617E1CBD692790C7570
FILE: 38. Я вернулся, мама.flac
Size: 24285233 Hash: 594F96DFB9CA9E8931A3074283136350 Accuracy: -m8
Conclusion: CDDA 100%
Signature: 678805FD2FDE535D687C10B7249261D5EDB3067C
FILE: 39. Пей до дна.flac
Size: 31452002 Hash: 65882436A216D939BD446B7066E014FB Accuracy: -m8
Conclusion: CDDA 100%
Signature: 5BDC5AEB01F7D2D44E61F63C1F50C0EBBECDC6C7
FILE: 40. Мальчик, непохожий на меня.flac
Size: 27681860 Hash: E41E74E4DE87BCA89E9ECA8F34D4378D Accuracy: -m8
Conclusion: CDDA 100%
Signature: 48D00E135018C93E3412FC67C115EC893BA518C7
FILE: 41. Город за окном.flac
Size: 31612286 Hash: ED712D8A46A70F0C01732CC830F9C46C Accuracy: -m8
Conclusion: CDDA 100%
Signature: 8469B3B6ED94CDED58C570F82F4911E245610A43
FILE: 42. Город, которого нет.flac
Size: 26739195 Hash: 0FCF8A8A57082E65D0BEF8AD808DE06D Accuracy: -m8
Conclusion: CDDA 100%
Signature: 6D9D0A4CA20EFA3C1AF49B520974BB0AD41506DB

admin

Post 25-Apr-2022 00:25

[Quote]

Название: Синий цвет твоей любви
Исполнитель: Ольга Серябкина
Год: 2022
Жанр: Pop
Страна: Россия
Продолжительность: 00:32:41
Формат/Кодек: MP3
Битрейт аудио: 320 kbps

Трек-лист

01. Синий цвет твоей любви (02:41)
02. Преступление (04:00)
03. Это LOVE (03:12)
04. Veni Vidi Vici (03:37)
05. Стреляй (03:22)
06. HOLODNO (02:57)
07. Friday (03:08)
08. Бывшие (03:08)
09. MOLOKO (03:18)
10. 1985 (03:18)

admin

Post 12-Apr-2022 16:34

[Quote]

Название: Карантин
Исполнитель: Виктория Черенцова
Год: 2021
Жанр: Pop
Страна: Россия
Продолжительность: 00:38:33
Формат/Кодек: FLAC
Битрейт аудио: Lossless|WEB
Тип рипа: tracks

Трек-лист

01. Карантин (3:05)
02. Не бойся (4:11)
03. Опять дожди (3:51)
04. Однажды ты соскучишься по мне (3:12)
05. Не для тебя красивая (4:13)
06. Три души (4:24)
07. Миражи (4:47)
08. Наташа (3:06)
09. Новый год (3:43)
10. Время-река (4:07)

admin

Post 08-Apr-2022 04:06

[Quote]

Название: Чёрная смородина
Исполнитель: Sevenrose
Год: 2022
Жанр: Pop
Страна: Россия
Продолжительность: 00:40:59
Формат/Кодек: FLAC
Битрейт аудио: Lossless|WEB
Тип рипа: tracks

Трек-лист

01. Чёрная смородина (3:52)
02. Моя звезда (4:20)
03. Проводи домой (4:11)
04. Ты оглянись (3:56)
05. Ночь на двоих (4:05)
06. Алая роза (4:31)
07. Прощайте, голуби (3:48)
08. Облака (3:58)
09. Январская любовь (4:12)
10. Тает снег (4:11)

admin

Post 08-Apr-2022 03:41

[Quote]

Название: Подожди...
Исполнитель: Игорь Корнелюк
Год: 1990
Жанр: Pop
Страна: СССР, Россия
Продолжительность: 00:35:41
Формат/Кодек: FLAC
Тип рипа: Image+.cue
Битрейт аудио: Lossless
Носитель: LP

Трек-лист

01. Дожди (4:06)
02. Лунатики (2:55)
03. Месяц май (3:22)
04. Будем танцевать (4:34)
05. Знал бы прикуп - жил бы в Сочи (2:53)
06. Маленький дом (2:37)
07. Ну и пусть (3:06)
08. Лунная дорога (2:58)
09. Пора домой (3:29)
10. Дом-звезда (4:57)

DRM
foobar2000 1.5.5 / Замер динамического диапазона (DR) 1.1.1
-------------------------------------------------------------------------------
Анализ: Игорь Корнелюк / Подожди...
--------------------------------------------------------------------------------
DR Пики RMS Продолжительность трека
--------------------------------------------------------------------------------
DR12 -0.15 дБ -13.99 дБ 4:07 01-Дожди
DR13 -0.24 дБ -14.10 дБ 2:56 02-Лунатики
DR11 -0.36 дБ -14.86 дБ 3:26 03-Месяц май
DR14 -0.28 дБ -15.76 дБ 4:38 04-Будем танцевать
DR12 -0.36 дБ -13.97 дБ 2:56 05-Знал бы прикуп - жил бы в Сочи
DR12 -0.28 дБ -14.40 дБ 2:37 06-Маленький Дом
DR12 -0.26 дБ -14.01 дБ 3:09 07-Ну и пусть
DR11 -0.11 дБ -14.37 дБ 3:02 08-Лунная дорога
DR13 -0.29 дБ -15.58 дБ 3:33 09-Пора домой
DR11 -0.41 дБ -13.74 дБ 5:04 10-Дом-звезда
--------------------------------------------------------------------------------
Количество треков: 10
Реальные значения DR: DR12
Частота: 44100 Гц
Каналов: 2
Разрядность: 16
Битрейт: 946 кбит/с
Кодек: FLAC
================================================================================

admin

Post 08-Apr-2022 03:41

[Quote]

Название: Билет на балет
Исполнитель: Игорь Корнелюк
Год: 1989
Жанр: Pop
Страна: СССР, Россия
Продолжительность: 00:35:28
Формат/Кодек: FLAC
Тип рипа: Image+.cue
Битрейт аудио: Lossless
Носитель: LP

Трек-лист

01. Я не понимаю, что со мной (Л. Палей)
02. Возвращайся (Р. Лисиц)
03. Дым (Р. Лисиц)
04. Два кота (Р. Лисиц)
05. Милый (Р. Лисиц)
06. Билет на балет (Р. Лисиц)
07. Куд-куда (А. Кришта)
08. Последняя глава (Р. Лисиц)
09. Ходим по Парижу (С. Данилов)
10. Мало ли (Р. Лисиц)

DRM
foobar2000 1.5.5 / Замер динамического диапазона (DR) 1.1.1
--------------------------------------------------------------------------------
Анализ: Игорь Корнелюк / Билет на балет
--------------------------------------------------------------------------------
DR Пики RMS Продолжительность трека
--------------------------------------------------------------------------------
DR13 -0.33 дБ -15.79 дБ 4:05 01-Я не понимаю, что со мной
DR12 -0.14 дБ -14.26 дБ 4:17 02-Возвращайся
DR12 -0.34 дБ -15.11 дБ 2:31 03-Дым
DR11 -0.45 дБ -14.34 дБ 3:27 04-Два кота
DR11 -0.41 дБ -13.43 дБ 2:58 05-Милый
DR12 -0.32 дБ -14.51 дБ 4:14 06-Билет на балет
DR13 -0.48 дБ -14.50 дБ 3:33 07-Куд-куда
DR11 -0.40 дБ -14.74 дБ 2:50 08-Последняя глава
DR13 -0.18 дБ -14.38 дБ 4:20 09-Ходим по Парижу
DR11 -0.17 дБ -13.23 дБ 3:02 10-Мало ли
--------------------------------------------------------------------------------
Количество треков: 10
Реальные значения DR: DR12
Частота: 44100 Гц
Каналов: 2
Разрядность: 16
Битрейт: 800 кбит/с
Кодек: FLAC
================================================================================

admin

Post 03-Apr-2022 03:59

[Quote]

Название: Гранатовый сок [EP]
Исполнитель: Бурито
Год: 2022
Жанр: Pop
Страна: Россия
Продолжительность: 00:21:25
Формат/Кодек: MP3
Битрейт аудио: 320 kbps

Трек-лист

01. Гранатовый сок (03:31)
02. Дышится (03:40)
03. Не улетай (03:54)
04. Пули (03:16)
05. Ритмы людей (03:48)
06. Как дым (03:16)
 

Current time is: 25-Jun 11:19

All times are UTC + 3